osu file format v14

[General]
AudioFilename: Harvest of Dreams.mp3
AudioLeadIn: 0
PreviewTime: 74545
Countdown: 0
SampleSet: Normal
StackLeniency: 0.4
Mode: 1
LetterboxInBreaks: 0
WidescreenStoryboard: 1

[Editor]
Bookmarks: 16363,30908,59999,74545,103636,118181,132727,161818,176363,205454,219999,234545,263636
DistanceSpacing: 0.1
BeatDivisor: 8
GridSize: 32
TimelineZoom: 2.799999

[Metadata]
Title:Harvest of Dreams
TitleUnicode:Harvest of Dreams
Artist:ThatSonofaMitch and Stormwolf feat. Chichi and MictheMicrophone
ArtistUnicode:ThatSonofaMitch and Stormwolf feat. Chichi and MictheMicrophone
Creator:Firmatorenio
Version:Taiko Poni
Source:
Tags:mlp pony carrot_top carrrrrrrrrrrrrot
BeatmapID:1256526
BeatmapSetID:276645

[Difficulty]
HPDrainRate:6
CircleSize:4
OverallDifficulty:6
ApproachRate:5
SliderMultiplier:1.4
SliderTickRate:2

[Events]
//Background and Video events
0,0,"HarvestofDreamsbackground.jpg",0,0
//Break Periods
//Storyboard Layer 0 (Background)
//Storyboard Layer 1 (Fail)
//Storyboard Layer 2 (Pass)
//Storyboard Layer 3 (Foreground)
//Storyboard Sound Samples

[TimingPoints]
1818,454.545454545455,4,1,0,75,1,0
14318,-95.2380952380952,4,1,0,75,0,0
14545,-90.9090909090909,4,1,0,75,0,0
14999,-83.3333333333333,4,1,0,75,0,0
15454,-76.9230769230769,4,1,0,75,0,0
15681,-74.0740740740741,4,1,0,75,0,0
15795,-72.992700729927,4,1,0,75,0,0
15908,-71.4285714285714,4,1,0,75,0,0
16022,-70.4225352112676,4,1,0,75,0,0
16136,-68.9655172413793,4,1,0,75,0,0
16249,-68.0272108843537,4,1,0,75,0,0
16363,-66.6666666666667,4,1,0,75,0,1
29090,-71.4285714285714,4,1,0,75,0,1
29431,-75.7575757575758,4,1,0,75,0,1
29545,-76.9230769230769,4,1,0,75,0,1
29658,-78.7401574803149,4,1,0,75,0,1
29772,-80,4,1,0,75,0,1
29886,-81.9672131147541,4,1,0,75,0,1
30113,-85.4700854700855,4,1,0,75,0,1
30227,-86.9565217391304,4,1,0,75,0,1
30454,-90.9090909090909,4,1,0,75,0,1
30568,-93.4579439252336,4,1,0,75,0,1
30681,-95.2380952380952,4,1,0,75,0,1
30908,-100,4,1,0,75,0,0
73636,-90.9090909090909,4,1,0,75,0,0
73749,-89.2857142857143,4,1,0,75,0,0
73863,-86.9565217391304,4,1,0,75,0,0
73977,-85.4700854700855,4,1,0,75,0,0
74090,-83.3333333333333,4,1,0,75,0,0
74204,-81.9672131147541,4,1,0,75,0,0
74318,-80,4,1,0,75,0,0
74431,-78.7401574803149,4,1,0,75,0,0
74545,-76.9230769230769,4,1,0,75,0,1
102954,-86.9565217391304,4,1,0,75,0,1
103181,-90.9090909090909,4,1,0,75,0,1
103408,-95.2380952380952,4,1,0,75,0,1
103522,-98.0392156862745,4,1,0,75,0,1
103636,-100,4,1,0,75,0,0
116022,-98.0392156862745,4,1,0,75,0,0
116136,-95.2380952380952,4,1,0,75,0,0
116249,-93.4579439252336,4,1,0,75,0,0
116363,-90.9090909090909,4,1,0,75,0,0
116590,-86.9565217391304,4,1,0,75,0,0
116704,-85.4700854700855,4,1,0,75,0,0
116818,-83.3333333333333,4,1,0,75,0,0
116931,-81.9672131147541,4,1,0,75,0,0
117045,-80,4,1,0,75,0,0
117272,-76.9230769230769,4,1,0,75,0,0
117386,-75.7575757575758,4,1,0,75,0,0
117499,-74.0740740740741,4,1,0,75,0,0
117613,-72.992700729927,4,1,0,75,0,0
117727,-71.4285714285714,4,1,0,75,0,0
117840,-70.4225352112676,4,1,0,75,0,0
117954,-68.9655172413793,4,1,0,75,0,0
118068,-68.0272108843537,4,1,0,75,0,0
118181,-66.6666666666667,4,1,0,75,0,1
130681,-68.9655172413793,4,1,0,75,0,1
130908,-71.4285714285714,4,1,0,75,0,1
131136,-74.0740740740741,4,1,0,75,0,1
131249,-75.7575757575758,4,1,0,75,0,1
131363,-76.9230769230769,4,1,0,75,0,1
131420,-77.5193798449612,4,1,0,75,0,1
131477,-78.125,4,1,0,75,0,1
131590,-80,4,1,0,75,0,1
131704,-81.9672131147541,4,1,0,75,0,1
131818,-83.3333333333333,4,1,0,75,0,1
131931,-85.4700854700855,4,1,0,75,0,1
132045,-86.9565217391304,4,1,0,75,0,1
132158,-89.2857142857143,4,1,0,75,0,1
132272,-90.9090909090909,4,1,0,75,0,1
132386,-93.4579439252336,4,1,0,75,0,1
132499,-95.2380952380952,4,1,0,75,0,1
132613,-97.0873786407767,4,1,0,75,0,1
132727,-100,4,1,0,75,0,0
175227,-95.2380952380952,4,1,0,75,0,0
175340,-93.4579439252336,4,1,0,75,0,0
175454,-90.9090909090909,4,1,0,75,0,0
175568,-89.2857142857143,4,1,0,75,0,0
175681,-86.9565217391304,4,1,0,75,0,0
175795,-85.4700854700855,4,1,0,75,0,0
175908,-83.3333333333333,4,1,0,75,0,0
176022,-81.9672131147541,4,1,0,75,0,0
176136,-80,4,1,0,75,0,0
176249,-78.7401574803149,4,1,0,75,0,0
176363,-76.9230769230769,4,1,0,75,0,1
204318,-80,4,1,0,75,0,1
204431,-81.9672131147541,4,1,0,75,0,1
204658,-85.4700854700855,4,1,0,75,0,1
204772,-86.9565217391304,4,1,0,75,0,1
204886,-89.2857142857143,4,1,0,75,0,1
204999,-90.9090909090909,4,1,0,75,0,1
205227,-95.2380952380952,4,1,0,75,0,1
205454,-100,4,1,0,75,0,0
217954,-95.2380952380952,4,1,0,75,0,0
218181,-90.9090909090909,4,1,0,75,0,0
218408,-86.9565217391304,4,1,0,75,0,0
218636,-83.3333333333333,4,1,0,75,0,0
218749,-81.9672131147541,4,1,0,75,0,0
218863,-80,4,1,0,75,0,0
219090,-76.9230769230769,4,1,0,75,0,0
219204,-75.7575757575758,4,1,0,75,0,0
219318,-74.0740740740741,4,1,0,75,0,0
219431,-72.992700729927,4,1,0,75,0,0
219545,-71.4285714285714,4,1,0,75,0,0
219658,-70.4225352112676,4,1,0,75,0,0
219772,-68.9655172413793,4,1,0,75,0,0
219886,-68.0272108843537,4,1,0,75,0,0
219999,-66.6666666666667,4,1,0,75,0,1
232329,-67.1140939597315,4,1,0,75,0,1
232386,-67.5675675675676,4,1,0,75,0,1
232499,-68.9655172413793,4,1,0,75,0,1
232613,-70.4225352112676,4,1,0,75,0,1
232727,-71.4285714285714,4,1,0,75,0,1
233068,-75.7575757575758,4,1,0,75,0,1
233181,-76.9230769230769,4,1,0,75,0,1
233295,-78.7401574803149,4,1,0,75,0,1
233408,-80,4,1,0,75,0,1
233522,-81.9672131147541,4,1,0,75,0,1
233749,-85.4700854700855,4,1,0,75,0,1
233863,-86.9565217391304,4,1,0,75,0,1
234090,-90.9090909090909,4,1,0,75,0,1
234204,-93.4579439252336,4,1,0,75,0,1
234318,-95.2380952380952,4,1,0,75,0,1
234431,-98.0392156862745,4,1,0,75,0,1
234545,-100,4,1,0,75,0,0

[HitObjects]
256,192,1818,5,4,0:0:0:0:
256,192,2272,1,2,0:0:0:0:
256,192,2499,1,2,0:0:0:0:
256,192,2727,1,0,0:0:0:0:
256,192,2954,1,2,0:0:0:0:
256,192,3181,1,2,0:0:0:0:
256,192,3408,1,0,0:0:0:0:
256,192,4090,1,2,0:0:0:0:
256,192,4318,1,2,0:0:0:0:
256,192,4545,1,0,0:0:0:0:
256,192,4772,1,0,0:0:0:0:
256,192,4999,1,2,0:0:0:0:
256,192,5227,1,0,0:0:0:0:
256,192,5681,1,0,0:0:0:0:
256,192,5908,1,2,0:0:0:0:
256,192,6136,1,0,0:0:0:0:
256,192,6363,1,2,0:0:0:0:
256,192,6477,1,0,0:0:0:0:
256,192,6590,1,2,0:0:0:0:
256,192,6818,1,2,0:0:0:0:
256,192,7045,1,0,0:0:0:0:
256,192,7272,1,2,0:0:0:0:
256,192,7499,1,0,0:0:0:0:
256,192,7727,1,0,0:0:0:0:
256,192,7954,1,2,0:0:0:0:
256,192,8408,1,2,0:0:0:0:
256,192,8636,1,0,0:0:0:0:
256,192,8863,1,0,0:0:0:0:
256,192,9090,1,6,0:0:0:0:
256,192,9318,1,0,0:0:0:0:
256,192,9431,1,0,0:0:0:0:
256,192,9545,1,2,0:0:0:0:
256,192,9772,1,2,0:0:0:0:
256,192,9999,1,0,0:0:0:0:
256,192,10227,1,0,0:0:0:0:
256,192,10454,1,2,0:0:0:0:
256,192,10681,1,0,0:0:0:0:
256,192,10908,1,2,0:0:0:0:
256,192,11136,1,0,0:0:0:0:
256,192,11249,1,0,0:0:0:0:
256,192,11363,1,2,0:0:0:0:
256,192,11590,1,2,0:0:0:0:
256,192,11818,1,0,0:0:0:0:
256,192,12045,1,2,0:0:0:0:
256,192,12272,1,0,0:0:0:0:
256,192,12499,1,0,0:0:0:0:
256,192,12727,1,2,0:0:0:0:
256,192,12954,1,0,0:0:0:0:
256,192,13068,1,2,0:0:0:0:
256,192,13181,1,0,0:0:0:0:
256,192,13408,1,2,0:0:0:0:
256,192,13636,1,0,0:0:0:0:
256,192,13863,1,0,0:0:0:0:
256,192,14090,1,2,0:0:0:0:
256,192,14318,1,0,0:0:0:0:
256,192,14545,1,0,0:0:0:0:
256,192,14999,1,0,0:0:0:0:
256,192,15454,1,2,0:0:0:0:
256,192,15681,1,0,0:0:0:0:
256,192,15795,1,0,0:0:0:0:
256,192,15908,1,2,0:0:0:0:
256,192,16022,1,0,0:0:0:0:
256,192,16136,1,2,0:0:0:0:
256,192,16249,1,2,0:0:0:0:
256,192,16363,1,4,0:0:0:0:
256,192,16704,1,0,0:0:0:0:
256,192,16818,1,2,0:0:0:0:
256,192,17045,1,2,0:0:0:0:
256,192,17102,1,0,0:0:0:0:
256,192,17158,1,2,0:0:0:0:
256,192,17272,1,2,0:0:0:0:
256,192,17499,1,2,0:0:0:0:
256,192,17613,1,0,0:0:0:0:
256,192,17840,1,2,0:0:0:0:
256,192,17954,1,2,0:0:0:0:
256,192,18181,1,0,0:0:0:0:
256,192,18408,1,2,0:0:0:0:
256,192,18522,1,0,0:0:0:0:
256,192,18636,1,2,0:0:0:0:
256,192,18863,1,0,0:0:0:0:
256,192,18977,1,2,0:0:0:0:
256,192,19318,1,0,0:0:0:0:
256,192,19431,1,0,0:0:0:0:
256,192,19545,1,2,0:0:0:0:
256,192,19772,1,0,0:0:0:0:
256,192,19999,1,0,0:0:0:0:
256,192,20113,1,0,0:0:0:0:
256,192,20227,1,2,0:0:0:0:
256,192,20340,1,0,0:0:0:0:
256,192,20454,1,2,0:0:0:0:
256,192,20681,1,0,0:0:0:0:
256,192,20795,1,0,0:0:0:0:
256,192,20908,1,2,0:0:0:0:
256,192,21136,1,0,0:0:0:0:
256,192,21363,1,2,0:0:0:0:
256,192,21477,1,2,0:0:0:0:
256,192,21590,1,0,0:0:0:0:
256,192,21704,1,0,0:0:0:0:
256,192,21818,1,2,0:0:0:0:
256,192,22045,1,0,0:0:0:0:
256,192,22158,1,2,0:0:0:0:
256,192,22272,1,2,0:0:0:0:
256,192,22386,1,0,0:0:0:0:
256,192,22499,1,2,0:0:0:0:
256,192,22613,1,0,0:0:0:0:
256,192,22840,1,2,0:0:0:0:
256,192,22954,1,0,0:0:0:0:
256,192,23181,1,2,0:0:0:0:
256,192,23238,1,0,0:0:0:0:
256,192,23295,1,2,0:0:0:0:
256,192,23408,1,0,0:0:0:0:
256,192,23522,1,0,0:0:0:0:
256,192,23636,1,6,0:0:0:0:
256,192,23977,1,0,0:0:0:0:
256,192,24090,1,2,0:0:0:0:
256,192,24318,1,0,0:0:0:0:
256,192,24431,1,0,0:0:0:0:
256,192,24545,1,2,0:0:0:0:
256,192,24772,1,2,0:0:0:0:
256,192,24848,1,0,0:0:0:0:
256,192,24924,1,0,0:0:0:0:
256,192,24999,1,2,0:0:0:0:
256,192,25113,1,2,0:0:0:0:
256,192,25227,1,0,0:0:0:0:
256,192,25340,1,0,0:0:0:0:
256,192,25454,1,2,0:0:0:0:
256,192,25681,1,2,0:0:0:0:
256,192,25795,1,0,0:0:0:0:
256,192,25908,1,2,0:0:0:0:
256,192,26136,1,2,0:0:0:0:
256,192,26249,1,0,0:0:0:0:
256,192,26477,1,2,0:0:0:0:
256,192,26590,1,2,0:0:0:0:
256,192,26818,1,0,0:0:0:0:
256,192,27045,1,2,0:0:0:0:
256,192,27158,1,0,0:0:0:0:
256,192,27272,1,0,0:0:0:0:
256,192,27499,1,0,0:0:0:0:
256,192,27613,1,0,0:0:0:0:
256,192,27727,1,2,0:0:0:0:
256,192,27840,1,2,0:0:0:0:
256,192,27954,1,0,0:0:0:0:
256,192,28068,1,0,0:0:0:0:
256,192,28181,1,2,0:0:0:0:
256,192,28295,1,0,0:0:0:0:
256,192,28408,1,2,0:0:0:0:
256,192,28522,1,2,0:0:0:0:
256,192,28636,1,2,0:0:0:0:
256,192,28693,1,2,0:0:0:0:
256,192,28749,1,2,0:0:0:0:
256,192,28863,1,2,0:0:0:0:
256,192,28977,1,0,0:0:0:0:
256,192,29090,1,2,0:0:0:0:
256,192,29431,1,0,0:0:0:0:
256,192,29545,1,2,0:0:0:0:
256,192,29658,1,0,0:0:0:0:
256,192,29772,1,2,0:0:0:0:
256,192,29886,1,0,0:0:0:0:
256,192,30113,1,2,0:0:0:0:
256,192,30227,1,0,0:0:0:0:
256,192,30454,1,2,0:0:0:0:
256,192,30568,1,0,0:0:0:0:
256,192,30681,1,0,0:0:0:0:
256,192,30908,1,4,0:0:0:0:
256,192,31136,1,0,0:0:0:0:
256,192,31249,1,0,0:0:0:0:
256,192,31363,1,2,0:0:0:0:
256,192,31590,1,0,0:0:0:0:
256,192,31818,1,2,0:0:0:0:
256,192,31931,1,0,0:0:0:0:
256,192,32045,1,0,0:0:0:0:
256,192,32272,1,2,0:0:0:0:
256,192,32499,1,0,0:0:0:0:
256,192,32727,1,0,0:0:0:0:
256,192,32954,1,0,0:0:0:0:
256,192,33068,1,0,0:0:0:0:
256,192,33181,1,2,0:0:0:0:
256,192,33408,1,2,0:0:0:0:
256,192,33522,1,0,0:0:0:0:
256,192,33863,1,0,0:0:0:0:
256,192,34090,1,2,0:0:0:0:
256,192,34318,1,0,0:0:0:0:
256,192,34431,1,0,0:0:0:0:
256,192,34545,1,0,0:0:0:0:
256,192,34886,1,0,0:0:0:0:
256,192,34999,1,2,0:0:0:0:
256,192,35227,1,2,0:0:0:0:
256,192,35454,1,0,0:0:0:0:
256,192,35568,1,2,0:0:0:0:
256,192,35681,1,0,0:0:0:0:
256,192,35908,1,2,0:0:0:0:
256,192,36136,1,2,0:0:0:0:
256,192,36363,1,0,0:0:0:0:
256,192,36590,1,0,0:0:0:0:
256,192,36704,1,0,0:0:0:0:
256,192,36818,1,2,0:0:0:0:
256,192,37045,1,2,0:0:0:0:
256,192,37158,1,0,0:0:0:0:
256,192,37386,1,2,0:0:0:0:
256,192,37499,1,0,0:0:0:0:
256,192,37727,1,2,0:0:0:0:
256,192,37954,1,0,0:0:0:0:
256,192,38181,1,6,0:0:0:0:
256,192,38522,1,0,0:0:0:0:
256,192,38636,1,2,0:0:0:0:
256,192,38863,1,2,0:0:0:0:
256,192,39090,1,0,0:0:0:0:
256,192,39318,1,0,0:0:0:0:
256,192,39545,1,2,0:0:0:0:
256,192,39658,1,0,0:0:0:0:
256,192,39772,1,0,0:0:0:0:
256,192,39999,1,2,0:0:0:0:
256,192,40113,1,0,0:0:0:0:
256,192,40227,1,0,0:0:0:0:
256,192,40454,1,0,0:0:0:0:
256,192,40568,1,0,0:0:0:0:
256,192,40681,1,2,0:0:0:0:
256,192,40795,1,0,0:0:0:0:
256,192,40908,1,2,0:0:0:0:
256,192,41136,1,0,0:0:0:0:
256,192,41363,1,2,0:0:0:0:
256,192,41590,1,0,0:0:0:0:
256,192,41704,1,0,0:0:0:0:
256,192,41818,1,0,0:0:0:0:
256,192,42045,1,2,0:0:0:0:
256,192,42158,1,0,0:0:0:0:
256,192,42272,1,2,0:0:0:0:
256,192,42499,1,0,0:0:0:0:
256,192,42727,1,2,0:0:0:0:
256,192,42954,1,0,0:0:0:0:
256,192,43181,1,0,0:0:0:0:
256,192,43408,1,2,0:0:0:0:
256,192,43636,1,0,0:0:0:0:
256,192,43863,1,0,0:0:0:0:
256,192,43977,1,0,0:0:0:0:
256,192,44090,1,2,0:0:0:0:
256,192,44318,1,0,0:0:0:0:
256,192,44431,1,0,0:0:0:0:
256,192,44658,1,2,0:0:0:0:
256,192,44772,1,0,0:0:0:0:
256,192,44999,1,2,0:0:0:0:
256,192,45113,1,2,0:0:0:0:
256,192,45227,1,0,0:0:0:0:
256,192,45454,1,6,0:0:0:0:
256,192,45795,1,0,0:0:0:0:
256,192,45908,1,2,0:0:0:0:
256,192,46136,1,0,0:0:0:0:
256,192,46249,1,0,0:0:0:0:
256,192,46363,1,2,0:0:0:0:
256,192,46590,1,0,0:0:0:0:
256,192,46818,1,2,0:0:0:0:
256,192,47045,1,0,0:0:0:0:
256,192,47272,1,2,0:0:0:0:
256,192,47499,1,0,0:0:0:0:
256,192,47613,1,0,0:0:0:0:
256,192,47727,1,2,0:0:0:0:
256,192,47954,1,0,0:0:0:0:
256,192,48068,1,0,0:0:0:0:
256,192,48408,1,0,0:0:0:0:
256,192,48636,1,2,0:0:0:0:
256,192,48863,1,2,0:0:0:0:
256,192,48977,1,0,0:0:0:0:
256,192,49090,1,2,0:0:0:0:
256,192,49318,1,0,0:0:0:0:
256,192,49431,1,0,0:0:0:0:
256,192,49545,1,2,0:0:0:0:
256,192,49772,1,0,0:0:0:0:
256,192,49999,1,2,0:0:0:0:
256,192,50227,1,0,0:0:0:0:
256,192,50454,1,2,0:0:0:0:
256,192,50681,1,0,0:0:0:0:
256,192,50908,1,2,0:0:0:0:
256,192,51136,1,2,0:0:0:0:
256,192,51249,1,0,0:0:0:0:
256,192,51363,1,2,0:0:0:0:
256,192,51590,1,2,0:0:0:0:
256,192,51704,1,0,0:0:0:0:
256,192,51931,1,2,0:0:0:0:
256,192,52045,1,0,0:0:0:0:
256,192,52272,1,2,0:0:0:0:
256,192,52386,1,2,0:0:0:0:
256,192,52499,1,0,0:0:0:0:
256,192,52727,1,4,0:0:0:0:
256,192,53068,1,0,0:0:0:0:
256,192,53181,1,2,0:0:0:0:
256,192,53408,1,0,0:0:0:0:
256,192,53522,1,2,0:0:0:0:
256,192,53636,1,0,0:0:0:0:
256,192,53863,1,0,0:0:0:0:
256,192,54090,1,2,0:0:0:0:
256,192,54318,1,0,0:0:0:0:
256,192,54545,1,0,0:0:0:0:
256,192,54658,1,0,0:0:0:0:
256,192,54772,1,2,0:0:0:0:
256,192,54886,1,0,0:0:0:0:
256,192,54999,1,2,0:0:0:0:
256,192,55227,1,0,0:0:0:0:
256,192,55340,1,0,0:0:0:0:
256,192,55681,1,0,0:0:0:0:
256,192,55908,1,2,0:0:0:0:
256,192,56136,1,2,0:0:0:0:
256,192,56249,1,0,0:0:0:0:
256,192,56363,1,2,0:0:0:0:
256,192,56704,1,0,0:0:0:0:
256,192,56818,1,2,0:0:0:0:
256,192,57045,1,2,0:0:0:0:
256,192,57272,1,0,0:0:0:0:
256,192,57499,1,0,0:0:0:0:
256,192,57727,1,2,0:0:0:0:
256,192,57954,1,2,0:0:0:0:
256,192,58181,1,0,0:0:0:0:
256,192,58408,1,2,0:0:0:0:
256,192,58636,1,0,0:0:0:0:
256,192,58863,1,2,0:0:0:0:
256,192,59090,1,0,0:0:0:0:
256,192,59318,1,0,0:0:0:0:
256,192,59431,1,0,0:0:0:0:
256,192,59545,1,2,0:0:0:0:
256,192,59772,1,2,0:0:0:0:
256,192,59886,1,0,0:0:0:0:
256,192,59999,1,6,0:0:0:0:
256,192,60454,1,2,0:0:0:0:
256,192,60681,1,0,0:0:0:0:
256,192,60908,1,2,0:0:0:0:
256,192,61136,1,0,0:0:0:0:
256,192,61590,1,2,0:0:0:0:
256,192,61818,1,0,0:0:0:0:
256,192,62045,1,2,0:0:0:0:
256,192,62158,1,2,0:0:0:0:
256,192,62272,1,2,0:0:0:0:
256,192,62499,1,0,0:0:0:0:
256,192,62727,1,2,0:0:0:0:
256,192,62954,1,0,0:0:0:0:
256,192,63068,1,0,0:0:0:0:
256,192,63295,1,0,0:0:0:0:
256,192,63408,1,2,0:0:0:0:
256,192,63636,1,0,0:0:0:0:
256,192,63863,1,2,0:0:0:0:
256,192,64090,1,0,0:0:0:0:
256,192,64318,1,0,0:0:0:0:
256,192,64393,1,0,0:0:0:0:
256,192,64469,1,0,0:0:0:0:
256,192,64545,1,2,0:0:0:0:
256,192,64772,1,0,0:0:0:0:
256,192,64999,1,2,0:0:0:0:
256,192,65227,1,2,0:0:0:0:
256,192,65454,1,0,0:0:0:0:
256,192,65681,1,2,0:0:0:0:
256,192,65795,1,0,0:0:0:0:
256,192,65908,1,2,0:0:0:0:
256,192,66136,1,0,0:0:0:0:
256,192,66363,1,2,0:0:0:0:
256,192,66477,1,0,0:0:0:0:
256,192,66590,1,0,0:0:0:0:
256,192,66704,1,2,0:0:0:0:
256,192,66931,1,0,0:0:0:0:
256,192,67045,1,2,0:0:0:0:
256,192,67272,1,0,0:0:0:0:
256,192,67727,1,2,0:0:0:0:
256,192,67954,1,0,0:0:0:0:
256,192,68181,1,2,0:0:0:0:
256,192,68408,1,0,0:0:0:0:
256,192,68863,1,2,0:0:0:0:
256,192,69090,1,0,0:0:0:0:
256,192,69318,1,2,0:0:0:0:
256,192,69431,1,0,0:0:0:0:
256,192,69545,1,2,0:0:0:0:
256,192,69772,1,0,0:0:0:0:
256,192,69999,1,2,0:0:0:0:
256,192,70227,1,0,0:0:0:0:
256,192,70340,1,0,0:0:0:0:
256,192,70568,1,0,0:0:0:0:
256,192,70681,1,2,0:0:0:0:
256,192,70908,1,0,0:0:0:0:
256,192,71136,1,2,0:0:0:0:
256,192,71363,1,0,0:0:0:0:
256,192,71590,1,2,0:0:0:0:
256,192,71818,1,2,0:0:0:0:
256,192,72045,1,0,0:0:0:0:
256,192,72158,1,0,0:0:0:0:
256,192,72272,1,2,0:0:0:0:
256,192,72499,1,0,0:0:0:0:
256,192,72727,1,0,0:0:0:0:
256,192,72954,1,0,0:0:0:0:
256,192,73068,1,0,0:0:0:0:
256,192,73181,1,0,0:0:0:0:
256,192,73408,1,0,0:0:0:0:
256,192,73636,1,2,0:0:0:0:
256,192,73749,1,0,0:0:0:0:
256,192,73863,1,0,0:0:0:0:
256,192,73977,1,0,0:0:0:0:
256,192,74090,1,2,0:0:0:0:
256,192,74204,1,0,0:0:0:0:
256,192,74318,1,2,0:0:0:0:
256,192,74431,1,2,0:0:0:0:
256,192,74545,1,4,0:0:0:0:
256,192,74886,1,0,0:0:0:0:
256,192,74999,1,2,0:0:0:0:
256,192,75227,1,0,0:0:0:0:
256,192,75340,1,0,0:0:0:0:
256,192,75454,1,2,0:0:0:0:
256,192,75568,1,0,0:0:0:0:
256,192,75681,1,0,0:0:0:0:
256,192,75795,1,2,0:0:0:0:
256,192,75908,1,2,0:0:0:0:
256,192,76022,1,0,0:0:0:0:
256,192,76136,1,2,0:0:0:0:
256,192,76249,1,0,0:0:0:0:
256,192,76363,1,0,0:0:0:0:
256,192,76590,1,0,0:0:0:0:
256,192,76704,1,0,0:0:0:0:
256,192,76818,1,2,0:0:0:0:
256,192,77045,1,0,0:0:0:0:
256,192,77158,1,0,0:0:0:0:
256,192,77272,1,2,0:0:0:0:
256,192,77499,1,0,0:0:0:0:
256,192,77613,1,0,0:0:0:0:
256,192,77727,1,2,0:0:0:0:
256,192,77840,1,0,0:0:0:0:
256,192,77954,1,2,0:0:0:0:
256,192,78068,1,0,0:0:0:0:
256,192,78181,1,0,0:0:0:0:
256,192,78295,1,2,0:0:0:0:
256,192,78408,1,0,0:0:0:0:
256,192,78522,1,0,0:0:0:0:
256,192,78636,1,2,0:0:0:0:
256,192,78863,1,2,0:0:0:0:
256,192,79090,1,0,0:0:0:0:
256,192,79204,1,0,0:0:0:0:
256,192,79318,1,0,0:0:0:0:
256,192,79431,1,2,0:0:0:0:
256,192,79545,1,2,0:0:0:0:
256,192,79658,1,0,0:0:0:0:
256,192,79772,1,2,0:0:0:0:
256,192,79999,1,0,0:0:0:0:
256,192,80113,1,0,0:0:0:0:
256,192,80227,1,2,0:0:0:0:
256,192,80340,1,0,0:0:0:0:
256,192,80454,1,2,0:0:0:0:
256,192,80681,1,2,0:0:0:0:
256,192,80795,1,0,0:0:0:0:
256,192,81022,1,2,0:0:0:0:
256,192,81136,1,0,0:0:0:0:
256,192,81363,1,2,0:0:0:0:
256,192,81477,1,0,0:0:0:0:
256,192,81590,1,0,0:0:0:0:
256,192,81704,1,2,0:0:0:0:
256,192,81818,1,4,0:0:0:0:
256,192,82158,1,0,0:0:0:0:
256,192,82272,1,2,0:0:0:0:
256,192,82499,1,2,0:0:0:0:
256,192,82613,1,2,0:0:0:0:
256,192,82727,1,0,0:0:0:0:
256,192,82840,1,2,0:0:0:0:
256,192,82954,1,0,0:0:0:0:
256,192,83068,1,0,0:0:0:0:
256,192,83181,1,2,0:0:0:0:
256,192,83295,1,0,0:0:0:0:
256,192,83408,1,2,0:0:0:0:
256,192,83522,1,2,0:0:0:0:
256,192,83636,1,0,0:0:0:0:
256,192,83863,1,0,0:0:0:0:
256,192,83977,1,0,0:0:0:0:
256,192,84090,1,2,0:0:0:0:
256,192,84318,1,2,0:0:0:0:
256,192,84431,1,0,0:0:0:0:
256,192,84545,1,2,0:0:0:0:
256,192,84658,1,0,0:0:0:0:
256,192,84772,1,0,0:0:0:0:
256,192,84886,1,0,0:0:0:0:
256,192,84999,1,2,0:0:0:0:
256,192,85227,1,2,0:0:0:0:
256,192,85340,1,0,0:0:0:0:
256,192,85454,1,0,0:0:0:0:
256,192,85568,1,2,0:0:0:0:
256,192,85681,1,0,0:0:0:0:
256,192,85795,1,2,0:0:0:0:
256,192,85908,1,2,0:0:0:0:
256,192,86022,1,0,0:0:0:0:
256,192,86136,1,0,0:0:0:0:
256,192,86249,1,2,0:0:0:0:
256,192,86477,1,0,0:0:0:0:
256,192,86590,1,0,0:0:0:0:
256,192,86704,1,2,0:0:0:0:
256,192,86818,1,2,0:0:0:0:
256,192,86931,1,0,0:0:0:0:
256,192,87045,1,2,0:0:0:0:
256,192,87272,1,0,0:0:0:0:
256,192,87386,1,2,0:0:0:0:
256,192,87613,1,0,0:0:0:0:
256,192,87727,1,2,0:0:0:0:
256,192,87954,1,2,0:0:0:0:
256,192,88068,1,0,0:0:0:0:
256,192,88295,1,2,0:0:0:0:
256,192,88408,1,0,0:0:0:0:
256,192,88636,1,2,0:0:0:0:
256,192,88749,1,0,0:0:0:0:
256,192,88863,1,2,0:0:0:0:
256,192,88977,1,2,0:0:0:0:
256,192,89090,1,4,0:0:0:0:
256,192,89431,1,0,0:0:0:0:
256,192,89545,1,2,0:0:0:0:
256,192,89658,1,0,0:0:0:0:
256,192,89772,1,0,0:0:0:0:
256,192,89886,1,0,0:0:0:0:
256,192,89999,1,2,0:0:0:0:
256,192,90113,1,2,0:0:0:0:
256,192,90227,1,0,0:0:0:0:
256,192,90340,1,2,0:0:0:0:
256,192,90454,1,2,0:0:0:0:
256,192,90568,1,0,0:0:0:0:
256,192,90681,1,2,0:0:0:0:
256,192,90795,1,0,0:0:0:0:
256,192,90908,1,0,0:0:0:0:
256,192,91136,1,0,0:0:0:0:
256,192,91249,1,0,0:0:0:0:
256,192,91363,1,2,0:0:0:0:
256,192,91590,1,2,0:0:0:0:
256,192,91704,1,0,0:0:0:0:
256,192,91818,1,2,0:0:0:0:
256,192,92045,1,0,0:0:0:0:
256,192,92158,1,0,0:0:0:0:
256,192,92272,1,2,0:0:0:0:
256,192,92386,1,0,0:0:0:0:
256,192,92499,1,2,0:0:0:0:
256,192,92613,1,0,0:0:0:0:
256,192,92727,1,0,0:0:0:0:
256,192,92840,1,0,0:0:0:0:
256,192,92954,1,2,0:0:0:0:
256,192,93068,1,0,0:0:0:0:
256,192,93181,1,2,0:0:0:0:
256,192,93408,1,0,0:0:0:0:
256,192,93636,1,2,0:0:0:0:
256,192,93749,1,2,0:0:0:0:
256,192,93863,1,0,0:0:0:0:
256,192,94090,1,2,0:0:0:0:
256,192,94204,1,0,0:0:0:0:
256,192,94318,1,0,0:0:0:0:
256,192,94545,1,2,0:0:0:0:
256,192,94658,1,0,0:0:0:0:
256,192,94886,1,0,0:0:0:0:
256,192,94999,1,2,0:0:0:0:
256,192,95227,1,2,0:0:0:0:
256,192,95340,1,0,0:0:0:0:
256,192,95568,1,2,0:0:0:0:
256,192,95681,1,0,0:0:0:0:
256,192,95908,1,2,0:0:0:0:
256,192,96022,1,2,0:0:0:0:
256,192,96136,1,2,0:0:0:0:
256,192,96249,1,2,0:0:0:0:
256,192,96363,1,4,0:0:0:0:
256,192,96590,1,2,0:0:0:0:
256,192,96704,1,0,0:0:0:0:
256,192,96818,1,2,0:0:0:0:
256,192,96931,1,2,0:0:0:0:
256,192,97045,1,0,0:0:0:0:
256,192,97158,1,2,0:0:0:0:
256,192,97272,1,0,0:0:0:0:
256,192,97386,1,0,0:0:0:0:
256,192,97499,1,2,0:0:0:0:
256,192,97613,1,0,0:0:0:0:
256,192,97727,1,2,0:0:0:0:
256,192,97840,1,0,0:0:0:0:
256,192,97954,1,2,0:0:0:0:
256,192,98068,1,2,0:0:0:0:
256,192,98181,1,0,0:0:0:0:
256,192,98408,1,0,0:0:0:0:
256,192,98522,1,0,0:0:0:0:
256,192,98636,1,2,0:0:0:0:
256,192,98749,1,0,0:0:0:0:
256,192,98863,1,2,0:0:0:0:
256,192,98977,1,0,0:0:0:0:
256,192,99090,1,0,0:0:0:0:
256,192,99318,1,0,0:0:0:0:
256,192,99431,1,0,0:0:0:0:
256,192,99545,1,2,0:0:0:0:
256,192,99658,1,0,0:0:0:0:
256,192,99772,1,0,0:0:0:0:
256,192,99886,1,2,0:0:0:0:
256,192,99999,1,0,0:0:0:0:
256,192,100113,1,0,0:0:0:0:
256,192,100340,1,0,0:0:0:0:
256,192,100454,1,2,0:0:0:0:
256,192,100681,1,0,0:0:0:0:
256,192,100795,1,0,0:0:0:0:
256,192,100908,1,2,0:0:0:0:
256,192,101022,1,0,0:0:0:0:
256,192,101136,1,0,0:0:0:0:
256,192,101363,1,2,0:0:0:0:
256,192,101590,1,0,0:0:0:0:
256,192,101818,1,6,0:0:0:0:
256,192,102158,1,6,0:0:0:0:
256,192,102499,1,6,0:0:0:0:
256,192,102954,1,0,0:0:0:0:
256,192,103181,1,2,0:0:0:0:
256,192,103408,1,0,0:0:0:0:
256,192,103522,1,0,0:0:0:0:
256,192,103636,1,6,0:0:0:0:
256,192,104090,1,2,0:0:0:0:
256,192,104318,1,0,0:0:0:0:
256,192,104393,1,2,0:0:0:0:
256,192,104469,1,2,0:0:0:0:
256,192,104545,1,0,0:0:0:0:
256,192,104772,1,0,0:0:0:0:
256,192,105227,1,0,0:0:0:0:
256,192,105454,1,2,0:0:0:0:
256,192,105681,1,2,0:0:0:0:
256,192,105795,1,0,0:0:0:0:
256,192,105908,1,2,0:0:0:0:
256,192,106136,1,0,0:0:0:0:
256,192,106363,1,2,0:0:0:0:
256,192,106590,1,0,0:0:0:0:
256,192,106704,1,2,0:0:0:0:
256,192,106818,1,2,0:0:0:0:
256,192,106931,1,0,0:0:0:0:
256,192,107045,1,2,0:0:0:0:
256,192,107272,1,0,0:0:0:0:
256,192,107499,1,2,0:0:0:0:
256,192,107727,1,2,0:0:0:0:
256,192,107954,1,0,0:0:0:0:
256,192,108181,1,2,0:0:0:0:
256,192,108408,1,0,0:0:0:0:
256,192,108636,1,2,0:0:0:0:
256,192,108863,1,2,0:0:0:0:
256,192,109090,1,0,0:0:0:0:
256,192,109318,1,2,0:0:0:0:
256,192,109431,1,0,0:0:0:0:
256,192,109545,1,2,0:0:0:0:
256,192,109772,1,0,0:0:0:0:
256,192,109999,1,2,0:0:0:0:
256,192,110113,1,0,0:0:0:0:
256,192,110227,1,0,0:0:0:0:
256,192,110340,1,2,0:0:0:0:
256,192,110568,1,0,0:0:0:0:
256,192,110681,1,2,0:0:0:0:
256,192,110908,1,0,0:0:0:0:
256,192,111136,1,2,0:0:0:0:
256,192,111590,1,0,0:0:0:0:
256,192,111704,1,0,0:0:0:0:
256,192,111818,1,2,0:0:0:0:
256,192,112045,1,0,0:0:0:0:
256,192,112158,1,2,0:0:0:0:
256,192,112386,1,0,0:0:0:0:
256,192,112499,1,2,0:0:0:0:
256,192,112727,1,0,0:0:0:0:
256,192,112954,1,2,0:0:0:0:
256,192,113068,1,0,0:0:0:0:
256,192,113181,1,2,0:0:0:0:
256,192,113408,1,0,0:0:0:0:
256,192,113636,1,2,0:0:0:0:
256,192,113863,1,0,0:0:0:0:
256,192,113977,1,2,0:0:0:0:
256,192,114090,1,2,0:0:0:0:
256,192,114204,1,0,0:0:0:0:
256,192,114318,1,2,0:0:0:0:
256,192,114431,1,0,0:0:0:0:
256,192,114545,1,0,0:0:0:0:
256,192,114772,1,0,0:0:0:0:
256,192,114999,1,2,0:0:0:0:
256,192,115227,1,0,0:0:0:0:
256,192,115454,1,2,0:0:0:0:
256,192,115681,1,0,0:0:0:0:
256,192,115795,1,0,0:0:0:0:
256,192,115908,1,2,0:0:0:0:
256,192,116022,1,0,0:0:0:0:
256,192,116136,1,2,0:0:0:0:
256,192,116249,1,2,0:0:0:0:
256,192,116363,1,0,0:0:0:0:
256,192,116590,1,0,0:0:0:0:
256,192,116704,1,0,0:0:0:0:
256,192,116818,1,2,0:0:0:0:
256,192,116931,1,0,0:0:0:0:
256,192,117045,1,0,0:0:0:0:
256,192,117272,1,2,0:0:0:0:
256,192,117386,1,0,0:0:0:0:
256,192,117499,1,0,0:0:0:0:
256,192,117613,1,2,0:0:0:0:
256,192,117727,1,2,0:0:0:0:
256,192,117840,1,2,0:0:0:0:
256,192,117954,1,0,0:0:0:0:
256,192,118068,1,0,0:0:0:0:
256,192,118181,1,6,0:0:0:0:
256,192,118408,1,2,0:0:0:0:
256,192,118522,1,0,0:0:0:0:
256,192,118636,1,2,0:0:0:0:
256,192,118749,1,2,0:0:0:0:
256,192,118806,1,2,0:0:0:0:
256,192,118863,1,0,0:0:0:0:
256,192,118977,1,0,0:0:0:0:
256,192,119090,1,2,0:0:0:0:
256,192,119204,1,0,0:0:0:0:
256,192,119318,1,2,0:0:0:0:
256,192,119431,1,0,0:0:0:0:
256,192,119545,1,2,0:0:0:0:
256,192,119886,1,0,0:0:0:0:
256,192,119999,1,2,0:0:0:0:
256,192,120113,1,2,0:0:0:0:
256,192,120227,1,0,0:0:0:0:
256,192,120340,1,2,0:0:0:0:
256,192,120454,1,0,0:0:0:0:
256,192,120568,1,0,0:0:0:0:
256,192,120624,1,0,0:0:0:0:
256,192,120681,1,2,0:0:0:0:
256,192,120795,1,0,0:0:0:0:
256,192,120908,1,0,0:0:0:0:
256,192,121022,1,0,0:0:0:0:
256,192,121136,1,2,0:0:0:0:
256,192,121249,1,0,0:0:0:0:
256,192,121363,1,2,0:0:0:0:
256,192,121477,1,0,0:0:0:0:
256,192,121590,1,0,0:0:0:0:
256,192,121704,1,2,0:0:0:0:
256,192,121818,1,2,0:0:0:0:
256,192,121931,1,0,0:0:0:0:
256,192,122045,1,2,0:0:0:0:
256,192,122158,1,0,0:0:0:0:
256,192,122272,1,2,0:0:0:0:
256,192,122386,1,0,0:0:0:0:
256,192,122499,1,0,0:0:0:0:
256,192,122613,1,2,0:0:0:0:
256,192,122727,1,2,0:0:0:0:
256,192,122783,1,2,0:0:0:0:
256,192,122840,1,2,0:0:0:0:
256,192,122954,1,2,0:0:0:0:
256,192,123068,1,0,0:0:0:0:
256,192,123181,1,2,0:0:0:0:
256,192,123295,1,2,0:0:0:0:
256,192,123408,1,0,0:0:0:0:
256,192,123522,1,0,0:0:0:0:
256,192,123636,1,2,0:0:0:0:
256,192,123863,1,0,0:0:0:0:
256,192,123977,1,0,0:0:0:0:
256,192,124033,1,0,0:0:0:0:
256,192,124090,1,2,0:0:0:0:
256,192,124204,1,0,0:0:0:0:
256,192,124318,1,2,0:0:0:0:
251,188,124431,1,0,0:0:0:0:
256,192,124488,1,0,0:0:0:0:
256,192,124545,1,2,0:0:0:0:
256,192,124658,1,0,0:0:0:0:
256,192,124772,1,2,0:0:0:0:
253,191,124829,1,2,0:0:0:0:
256,192,124886,1,0,0:0:0:0:
253,191,124943,1,0,0:0:0:0:
256,192,124999,1,2,0:0:0:0:
256,192,125227,1,0,0:0:0:0:
256,192,125340,1,0,0:0:0:0:
256,192,125454,1,6,0:0:0:0:
256,192,125681,1,0,0:0:0:0:
256,192,125908,1,2,0:0:0:0:
256,192,126136,1,0,0:0:0:0:
256,192,126363,1,0,0:0:0:0:
256,192,126477,1,2,0:0:0:0:
256,192,126590,1,0,0:0:0:0:
256,192,126704,1,0,0:0:0:0:
256,192,126818,1,2,0:0:0:0:
256,192,126931,1,0,0:0:0:0:
256,192,127045,1,0,0:0:0:0:
256,192,127158,1,2,0:0:0:0:
256,192,127272,1,0,0:0:0:0:
256,192,127386,1,0,0:0:0:0:
256,192,127499,1,0,0:0:0:0:
256,192,127613,1,2,0:0:0:0:
256,192,127727,1,2,0:0:0:0:
256,192,127840,1,0,0:0:0:0:
256,192,127954,1,2,0:0:0:0:
256,192,128068,1,0,0:0:0:0:
256,192,128181,1,0,0:0:0:0:
256,192,128295,1,2,0:0:0:0:
256,192,128408,1,0,0:0:0:0:
256,192,128522,1,0,0:0:0:0:
256,192,128636,1,2,0:0:0:0:
256,192,128749,1,2,0:0:0:0:
256,192,128863,1,0,0:0:0:0:
256,192,128977,1,2,0:0:0:0:
256,192,129090,1,2,0:0:0:0:
256,192,129318,1,2,0:0:0:0:
256,192,129431,1,2,0:0:0:0:
256,192,129545,1,2,0:0:0:0:
256,192,129772,1,0,0:0:0:0:
256,192,129886,1,2,0:0:0:0:
256,192,130113,1,0,0:0:0:0:
256,192,130227,1,2,0:0:0:0:
256,192,130454,1,2,0:0:0:0:
256,192,130681,1,0,0:0:0:0:
256,192,130908,1,2,0:0:0:0:
256,192,131136,1,0,0:0:0:0:
256,192,131249,1,0,0:0:0:0:
256,192,131363,1,2,0:0:0:0:
256,192,131420,1,0,0:0:0:0:
256,192,131477,1,0,0:0:0:0:
256,192,131590,1,0,0:0:0:0:
256,192,131704,1,0,0:0:0:0:
256,192,131818,1,0,0:0:0:0:
256,192,131931,1,2,0:0:0:0:
256,192,132045,1,2,0:0:0:0:
256,192,132158,1,0,0:0:0:0:
256,192,132272,1,2,0:0:0:0:
256,192,132386,1,0,0:0:0:0:
256,192,132499,1,2,0:0:0:0:
256,192,132613,1,2,0:0:0:0:
256,192,132727,1,4,0:0:0:0:
256,192,133068,1,0,0:0:0:0:
256,192,133181,1,2,0:0:0:0:
256,192,133408,1,0,0:0:0:0:
256,192,133636,1,2,0:0:0:0:
256,192,133749,1,0,0:0:0:0:
256,192,133863,1,0,0:0:0:0:
256,192,134090,1,2,0:0:0:0:
256,192,134204,1,0,0:0:0:0:
256,192,134318,1,0,0:0:0:0:
256,192,134431,1,2,0:0:0:0:
256,192,134545,1,0,0:0:0:0:
256,192,134772,1,0,0:0:0:0:
256,192,134886,1,0,0:0:0:0:
256,192,134999,1,2,0:0:0:0:
256,192,135113,1,0,0:0:0:0:
256,192,135227,1,2,0:0:0:0:
256,192,135340,1,0,0:0:0:0:
256,192,135568,1,2,0:0:0:0:
256,192,135681,1,0,0:0:0:0:
256,192,135908,1,2,0:0:0:0:
256,192,136136,1,0,0:0:0:0:
256,192,136249,1,0,0:0:0:0:
256,192,136363,1,2,0:0:0:0:
256,192,136590,1,0,0:0:0:0:
256,192,136704,1,0,0:0:0:0:
256,192,136818,1,2,0:0:0:0:
256,192,136931,1,0,0:0:0:0:
256,192,137045,1,2,0:0:0:0:
256,192,137158,1,2,0:0:0:0:
256,192,137272,1,0,0:0:0:0:
256,192,137499,1,0,0:0:0:0:
256,192,137613,1,0,0:0:0:0:
256,192,137727,1,2,0:0:0:0:
256,192,137954,1,2,0:0:0:0:
256,192,138181,1,2,0:0:0:0:
256,192,138408,1,0,0:0:0:0:
256,192,138522,1,0,0:0:0:0:
256,192,138636,1,2,0:0:0:0:
256,192,138863,1,0,0:0:0:0:
256,192,138977,1,0,0:0:0:0:
256,192,139204,1,2,0:0:0:0:
256,192,139318,1,0,0:0:0:0:
256,192,139431,1,0,0:0:0:0:
256,192,139545,1,2,0:0:0:0:
256,192,139658,1,0,0:0:0:0:
256,192,139772,1,2,0:0:0:0:
256,192,139886,1,2,0:0:0:0:
256,192,139999,1,4,0:0:0:0:
256,192,140340,1,0,0:0:0:0:
256,192,140454,1,2,0:0:0:0:
256,192,140568,1,0,0:0:0:0:
256,192,140681,1,0,0:0:0:0:
256,192,140795,1,2,0:0:0:0:
256,192,141022,1,2,0:0:0:0:
256,192,141136,1,0,0:0:0:0:
256,192,141363,1,2,0:0:0:0:
256,192,141477,1,0,0:0:0:0:
256,192,141590,1,0,0:0:0:0:
256,192,141818,1,0,0:0:0:0:
256,192,141931,1,0,0:0:0:0:
256,192,142045,1,2,0:0:0:0:
256,192,142158,1,0,0:0:0:0:
256,192,142272,1,2,0:0:0:0:
256,192,142386,1,0,0:0:0:0:
256,192,142499,1,2,0:0:0:0:
256,192,142613,1,0,0:0:0:0:
256,192,142840,1,0,0:0:0:0:
256,192,142954,1,0,0:0:0:0:
256,192,143181,1,2,0:0:0:0:
256,192,143408,1,0,0:0:0:0:
256,192,143522,1,0,0:0:0:0:
256,192,143636,1,2,0:0:0:0:
256,192,143863,1,0,0:0:0:0:
256,192,143977,1,0,0:0:0:0:
256,192,144090,1,2,0:0:0:0:
256,192,144318,1,0,0:0:0:0:
256,192,144431,1,2,0:0:0:0:
256,192,144545,1,0,0:0:0:0:
256,192,144658,1,0,0:0:0:0:
256,192,144772,1,2,0:0:0:0:
256,192,144999,1,2,0:0:0:0:
256,192,145113,1,0,0:0:0:0:
256,192,145227,1,0,0:0:0:0:
256,192,145454,1,0,0:0:0:0:
256,192,145681,1,0,0:0:0:0:
256,192,145795,1,0,0:0:0:0:
256,192,145908,1,2,0:0:0:0:
256,192,146136,1,2,0:0:0:0:
256,192,146249,1,0,0:0:0:0:
256,192,146477,1,2,0:0:0:0:
256,192,146590,1,0,0:0:0:0:
256,192,146704,1,0,0:0:0:0:
256,192,146818,1,2,0:0:0:0:
256,192,146931,1,0,0:0:0:0:
256,192,147045,1,2,0:0:0:0:
256,192,147158,1,2,0:0:0:0:
256,192,147272,1,4,0:0:0:0:
256,192,147499,1,0,0:0:0:0:
256,192,147613,1,0,0:0:0:0:
256,192,147727,1,2,0:0:0:0:
256,192,147840,1,0,0:0:0:0:
256,192,147954,1,2,0:0:0:0:
256,192,148068,1,0,0:0:0:0:
256,192,148181,1,0,0:0:0:0:
256,192,148295,1,2,0:0:0:0:
256,192,148408,1,0,0:0:0:0:
256,192,148636,1,2,0:0:0:0:
256,192,148749,1,0,0:0:0:0:
256,192,148863,1,0,0:0:0:0:
256,192,148977,1,0,0:0:0:0:
256,192,149090,1,2,0:0:0:0:
256,192,149318,1,0,0:0:0:0:
256,192,149431,1,0,0:0:0:0:
256,192,149545,1,2,0:0:0:0:
256,192,149658,1,0,0:0:0:0:
256,192,149772,1,2,0:0:0:0:
256,192,149886,1,0,0:0:0:0:
256,192,150113,1,0,0:0:0:0:
256,192,150227,1,0,0:0:0:0:
256,192,150340,1,0,0:0:0:0:
256,192,150454,1,2,0:0:0:0:
256,192,150568,1,0,0:0:0:0:
256,192,150681,1,2,0:0:0:0:
256,192,150795,1,2,0:0:0:0:
256,192,150908,1,0,0:0:0:0:
256,192,151136,1,0,0:0:0:0:
256,192,151249,1,0,0:0:0:0:
256,192,151363,1,2,0:0:0:0:
256,192,151477,1,0,0:0:0:0:
256,192,151590,1,0,0:0:0:0:
256,192,151818,1,2,0:0:0:0:
256,192,151931,1,2,0:0:0:0:
256,192,152045,1,0,0:0:0:0:
256,192,152158,1,0,0:0:0:0:
256,192,152272,1,2,0:0:0:0:
256,192,152499,1,2,0:0:0:0:
256,192,152727,1,2,0:0:0:0:
256,192,152954,1,2,0:0:0:0:
256,192,153068,1,0,0:0:0:0:
256,192,153181,1,2,0:0:0:0:
256,192,153408,1,2,0:0:0:0:
256,192,153465,1,2,0:0:0:0:
256,192,153522,1,0,0:0:0:0:
256,192,153636,1,2,0:0:0:0:
256,192,153749,1,2,0:0:0:0:
256,192,153863,1,2,0:0:0:0:
256,192,153977,1,0,0:0:0:0:
256,192,154090,1,2,0:0:0:0:
256,192,154204,1,0,0:0:0:0:
256,192,154318,1,2,0:0:0:0:
256,192,154431,1,0,0:0:0:0:
256,192,154545,1,6,0:0:0:0:
256,192,154886,1,0,0:0:0:0:
256,192,154999,1,2,0:0:0:0:
256,192,155227,1,0,0:0:0:0:
256,192,155340,1,0,0:0:0:0:
256,192,155454,1,2,0:0:0:0:
256,192,155568,1,0,0:0:0:0:
256,192,155681,1,0,0:0:0:0:
256,192,155795,1,2,0:0:0:0:
256,192,155908,1,0,0:0:0:0:
256,192,156022,1,0,0:0:0:0:
256,192,156136,1,2,0:0:0:0:
256,192,156363,1,0,0:0:0:0:
256,192,156477,1,0,0:0:0:0:
256,192,156590,1,2,0:0:0:0:
256,192,156704,1,0,0:0:0:0:
256,192,156818,1,2,0:0:0:0:
256,192,157045,1,0,0:0:0:0:
256,192,157158,1,0,0:0:0:0:
256,192,157386,1,2,0:0:0:0:
256,192,157499,1,0,0:0:0:0:
256,192,157727,1,2,0:0:0:0:
256,192,157840,1,0,0:0:0:0:
256,192,157954,1,0,0:0:0:0:
256,192,158068,1,2,0:0:0:0:
256,192,158181,1,0,0:0:0:0:
256,192,158408,1,0,0:0:0:0:
256,192,158522,1,0,0:0:0:0:
256,192,158636,1,2,0:0:0:0:
256,192,158863,1,0,0:0:0:0:
256,192,158977,1,0,0:0:0:0:
256,192,159090,1,2,0:0:0:0:
256,192,159204,1,0,0:0:0:0:
256,192,159318,1,0,0:0:0:0:
256,192,159431,1,2,0:0:0:0:
256,192,159545,1,2,0:0:0:0:
256,192,159658,1,0,0:0:0:0:
256,192,159772,1,2,0:0:0:0:
256,192,159999,1,0,0:0:0:0:
256,192,160227,1,2,0:0:0:0:
256,192,160454,1,0,0:0:0:0:
256,192,160681,1,2,0:0:0:0:
256,192,160908,1,0,0:0:0:0:
256,192,161022,1,0,0:0:0:0:
256,192,161136,1,0,0:0:0:0:
256,192,161249,1,2,0:0:0:0:
256,192,161363,1,2,0:0:0:0:
256,192,161477,1,0,0:0:0:0:
256,192,161590,1,2,0:0:0:0:
256,192,161704,1,2,0:0:0:0:
256,192,161818,1,4,0:0:0:0:
256,192,162272,1,0,0:0:0:0:
256,192,162499,1,0,0:0:0:0:
256,192,162727,1,2,0:0:0:0:
256,192,162954,1,0,0:0:0:0:
256,192,163408,1,2,0:0:0:0:
256,192,163636,1,0,0:0:0:0:
256,192,163863,1,2,0:0:0:0:
256,192,163977,1,2,0:0:0:0:
256,192,164090,1,2,0:0:0:0:
256,192,164318,1,0,0:0:0:0:
256,192,164545,1,2,0:0:0:0:
256,192,164772,1,0,0:0:0:0:
256,192,164886,1,2,0:0:0:0:
256,192,164999,1,2,0:0:0:0:
256,192,165113,1,0,0:0:0:0:
256,192,165227,1,2,0:0:0:0:
256,192,165454,1,0,0:0:0:0:
256,192,165681,1,2,0:0:0:0:
256,192,165908,1,0,0:0:0:0:
256,192,166136,1,0,0:0:0:0:
256,192,166211,1,2,0:0:0:0:
256,192,166287,1,2,0:0:0:0:
256,192,166363,1,2,0:0:0:0:
256,192,166590,1,0,0:0:0:0:
256,192,166818,1,2,0:0:0:0:
256,192,167045,1,2,0:0:0:0:
256,192,167272,1,0,0:0:0:0:
256,192,167386,1,2,0:0:0:0:
256,192,167499,1,2,0:0:0:0:
256,192,167613,1,0,0:0:0:0:
256,192,167840,1,0,0:0:0:0:
256,192,167954,1,0,0:0:0:0:
256,192,168181,1,2,0:0:0:0:
256,192,168295,1,0,0:0:0:0:
256,192,168408,1,0,0:0:0:0:
256,192,168522,1,2,0:0:0:0:
256,192,168749,1,0,0:0:0:0:
256,192,168863,1,2,0:0:0:0:
256,192,169090,1,0,0:0:0:0:
256,192,169318,1,2,0:0:0:0:
256,192,169545,1,2,0:0:0:0:
256,192,169772,1,0,0:0:0:0:
256,192,169999,1,2,0:0:0:0:
256,192,170227,1,0,0:0:0:0:
256,192,170681,1,2,0:0:0:0:
256,192,170908,1,0,0:0:0:0:
256,192,171136,1,0,0:0:0:0:
256,192,171249,1,2,0:0:0:0:
256,192,171363,1,2,0:0:0:0:
256,192,171590,1,0,0:0:0:0:
256,192,171818,1,2,0:0:0:0:
256,192,172045,1,0,0:0:0:0:
256,192,172158,1,2,0:0:0:0:
256,192,172386,1,0,0:0:0:0:
256,192,172499,1,2,0:0:0:0:
256,192,172613,1,2,0:0:0:0:
256,192,172727,1,0,0:0:0:0:
256,192,172954,1,2,0:0:0:0:
256,192,173181,1,0,0:0:0:0:
256,192,173408,1,2,0:0:0:0:
256,192,173636,1,2,0:0:0:0:
256,192,173863,1,0,0:0:0:0:
256,192,173977,1,0,0:0:0:0:
256,192,174090,1,2,0:0:0:0:
256,192,174318,1,0,0:0:0:0:
256,192,174431,1,0,0:0:0:0:
256,192,174545,1,0,0:0:0:0:
256,192,174772,1,0,0:0:0:0:
256,192,174886,1,0,0:0:0:0:
256,192,174999,1,0,0:0:0:0:
256,192,175227,1,0,0:0:0:0:
256,192,175340,1,0,0:0:0:0:
256,192,175454,1,2,0:0:0:0:
256,192,175568,1,0,0:0:0:0:
256,192,175681,1,2,0:0:0:0:
256,192,175795,1,0,0:0:0:0:
256,192,175908,1,2,0:0:0:0:
256,192,176022,1,2,0:0:0:0:
256,192,176136,1,2,0:0:0:0:
256,192,176249,1,0,0:0:0:0:
256,192,176363,1,6,0:0:0:0:
256,192,176704,1,0,0:0:0:0:
256,192,176818,1,2,0:0:0:0:
256,192,176931,1,2,0:0:0:0:
256,192,177045,1,2,0:0:0:0:
256,192,177158,1,0,0:0:0:0:
256,192,177272,1,0,0:0:0:0:
256,192,177386,1,2,0:0:0:0:
256,192,177499,1,0,0:0:0:0:
256,192,177613,1,0,0:0:0:0:
256,192,177727,1,2,0:0:0:0:
256,192,177840,1,0,0:0:0:0:
256,192,177954,1,2,0:0:0:0:
256,192,178068,1,2,0:0:0:0:
256,192,178181,1,0,0:0:0:0:
256,192,178408,1,0,0:0:0:0:
256,192,178522,1,0,0:0:0:0:
256,192,178636,1,2,0:0:0:0:
256,192,178749,1,0,0:0:0:0:
256,192,178863,1,0,0:0:0:0:
256,192,178977,1,0,0:0:0:0:
256,192,179090,1,2,0:0:0:0:
256,192,179318,1,0,0:0:0:0:
256,192,179431,1,2,0:0:0:0:
256,192,179545,1,2,0:0:0:0:
256,192,179658,1,0,0:0:0:0:
256,192,179772,1,2,0:0:0:0:
256,192,179886,1,2,0:0:0:0:
256,192,179999,1,0,0:0:0:0:
256,192,180227,1,0,0:0:0:0:
256,192,180340,1,0,0:0:0:0:
256,192,180454,1,2,0:0:0:0:
256,192,180568,1,0,0:0:0:0:
256,192,180681,1,0,0:0:0:0:
256,192,180795,1,2,0:0:0:0:
256,192,181022,1,2,0:0:0:0:
256,192,181136,1,0,0:0:0:0:
256,192,181363,1,2,0:0:0:0:
256,192,181590,1,0,0:0:0:0:
256,192,181818,1,2,0:0:0:0:
256,192,181931,1,0,0:0:0:0:
256,192,182158,1,0,0:0:0:0:
256,192,182272,1,2,0:0:0:0:
256,192,182499,1,2,0:0:0:0:
256,192,182613,1,0,0:0:0:0:
256,192,182840,1,2,0:0:0:0:
256,192,182954,1,0,0:0:0:0:
256,192,183181,1,2,0:0:0:0:
256,192,183295,1,0,0:0:0:0:
256,192,183408,1,2,0:0:0:0:
256,192,183522,1,2,0:0:0:0:
256,192,183636,1,4,0:0:0:0:
256,192,183863,1,2,0:0:0:0:
256,192,183977,1,0,0:0:0:0:
256,192,184090,1,2,0:0:0:0:
256,192,184204,1,0,0:0:0:0:
256,192,184318,1,0,0:0:0:0:
256,192,184431,1,2,0:0:0:0:
256,192,184545,1,0,0:0:0:0:
256,192,184658,1,2,0:0:0:0:
256,192,184772,1,2,0:0:0:0:
256,192,184886,1,0,0:0:0:0:
256,192,184999,1,2,0:0:0:0:
256,192,185113,1,0,0:0:0:0:
256,192,185227,1,2,0:0:0:0:
256,192,185340,1,2,0:0:0:0:
256,192,185454,1,0,0:0:0:0:
256,192,185681,1,0,0:0:0:0:
256,192,185795,1,0,0:0:0:0:
256,192,185908,1,2,0:0:0:0:
256,192,186022,1,2,0:0:0:0:
256,192,186136,1,2,0:0:0:0:
256,192,186249,1,0,0:0:0:0:
256,192,186363,1,2,0:0:0:0:
256,192,186590,1,0,0:0:0:0:
256,192,186704,1,0,0:0:0:0:
256,192,186818,1,2,0:0:0:0:
256,192,186931,1,0,0:0:0:0:
256,192,187045,1,2,0:0:0:0:
256,192,187158,1,2,0:0:0:0:
256,192,187272,1,0,0:0:0:0:
256,192,187386,1,2,0:0:0:0:
256,192,187499,1,2,0:0:0:0:
256,192,187613,1,0,0:0:0:0:
256,192,187727,1,2,0:0:0:0:
256,192,187840,1,0,0:0:0:0:
256,192,187954,1,0,0:0:0:0:
256,192,188068,1,2,0:0:0:0:
256,192,188295,1,2,0:0:0:0:
256,192,188408,1,0,0:0:0:0:
256,192,188522,1,0,0:0:0:0:
256,192,188636,1,2,0:0:0:0:
256,192,188749,1,0,0:0:0:0:
256,192,188863,1,2,0:0:0:0:
256,192,189090,1,0,0:0:0:0:
256,192,189204,1,0,0:0:0:0:
256,192,189318,1,2,0:0:0:0:
256,192,189431,1,0,0:0:0:0:
256,192,189545,1,2,0:0:0:0:
256,192,189658,1,0,0:0:0:0:
256,192,189772,1,2,0:0:0:0:
256,192,189886,1,0,0:0:0:0:
256,192,190113,1,2,0:0:0:0:
256,192,190227,1,0,0:0:0:0:
256,192,190340,1,0,0:0:0:0:
256,192,190454,1,2,0:0:0:0:
256,192,190568,1,0,0:0:0:0:
256,192,190681,1,2,0:0:0:0:
256,192,190795,1,2,0:0:0:0:
256,192,190908,1,4,0:0:0:0:
256,192,191136,1,0,0:0:0:0:
256,192,191249,1,0,0:0:0:0:
256,192,191363,1,2,0:0:0:0:
256,192,191477,1,0,0:0:0:0:
256,192,191590,1,0,0:0:0:0:
256,192,191704,1,2,0:0:0:0:
256,192,191818,1,2,0:0:0:0:
256,192,191931,1,2,0:0:0:0:
256,192,192045,1,0,0:0:0:0:
256,192,192158,1,2,0:0:0:0:
256,192,192272,1,0,0:0:0:0:
256,192,192386,1,0,0:0:0:0:
256,192,192499,1,2,0:0:0:0:
256,192,192613,1,0,0:0:0:0:
256,192,192727,1,0,0:0:0:0:
256,192,192954,1,0,0:0:0:0:
256,192,193068,1,0,0:0:0:0:
256,192,193181,1,2,0:0:0:0:
256,192,193295,1,0,0:0:0:0:
256,192,193408,1,2,0:0:0:0:
256,192,193522,1,0,0:0:0:0:
256,192,193636,1,2,0:0:0:0:
256,192,193749,1,2,0:0:0:0:
256,192,193863,1,0,0:0:0:0:
256,192,193977,1,2,0:0:0:0:
256,192,194090,1,2,0:0:0:0:
256,192,194204,1,0,0:0:0:0:
256,192,194318,1,2,0:0:0:0:
256,192,194431,1,2,0:0:0:0:
256,192,194545,1,0,0:0:0:0:
256,192,194658,1,0,0:0:0:0:
256,192,194772,1,2,0:0:0:0:
256,192,194886,1,0,0:0:0:0:
256,192,194999,1,2,0:0:0:0:
256,192,195113,1,0,0:0:0:0:
256,192,195227,1,0,0:0:0:0:
256,192,195340,1,2,0:0:0:0:
256,192,195568,1,2,0:0:0:0:
256,192,195681,1,2,0:0:0:0:
256,192,195795,1,0,0:0:0:0:
256,192,195908,1,2,0:0:0:0:
256,192,196022,1,0,0:0:0:0:
256,192,196136,1,2,0:0:0:0:
256,192,196363,1,0,0:0:0:0:
256,192,196477,1,2,0:0:0:0:
256,192,196590,1,2,0:0:0:0:
256,192,196704,1,0,0:0:0:0:
256,192,196818,1,2,0:0:0:0:
256,192,196931,1,0,0:0:0:0:
256,192,197045,1,2,0:0:0:0:
256,192,197158,1,0,0:0:0:0:
256,192,197386,1,0,0:0:0:0:
256,192,197499,1,2,0:0:0:0:
256,192,197613,1,2,0:0:0:0:
256,192,197727,1,2,0:0:0:0:
256,192,197840,1,0,0:0:0:0:
256,192,197954,1,0,0:0:0:0:
256,192,198068,1,2,0:0:0:0:
256,192,198181,1,4,0:0:0:0:
256,192,198408,1,2,0:0:0:0:
256,192,198522,1,0,0:0:0:0:
256,192,198636,1,2,0:0:0:0:
256,192,198749,1,2,0:0:0:0:
256,192,198863,1,0,0:0:0:0:
256,192,198977,1,2,0:0:0:0:
256,192,199090,1,2,0:0:0:0:
256,192,199204,1,0,0:0:0:0:
256,192,199318,1,0,0:0:0:0:
256,192,199431,1,2,0:0:0:0:
256,192,199545,1,2,0:0:0:0:
256,192,199658,1,0,0:0:0:0:
256,192,199772,1,2,0:0:0:0:
256,192,199886,1,2,0:0:0:0:
256,192,199999,1,0,0:0:0:0:
256,192,200113,1,0,0:0:0:0:
256,192,200227,1,2,0:0:0:0:
256,192,200340,1,0,0:0:0:0:
256,192,200454,1,2,0:0:0:0:
256,192,200568,1,0,0:0:0:0:
256,192,200681,1,2,0:0:0:0:
256,192,200795,1,2,0:0:0:0:
256,192,200908,1,0,0:0:0:0:
256,192,201022,1,2,0:0:0:0:
256,192,201136,1,0,0:0:0:0:
256,192,201249,1,2,0:0:0:0:
256,192,201363,1,2,0:0:0:0:
256,192,201477,1,0,0:0:0:0:
256,192,201590,1,2,0:0:0:0:
256,192,201704,1,0,0:0:0:0:
256,192,201818,1,0,0:0:0:0:
256,192,201931,1,2,0:0:0:0:
256,192,202158,1,2,0:0:0:0:
256,192,202272,1,2,0:0:0:0:
256,192,202386,1,0,0:0:0:0:
256,192,202499,1,2,0:0:0:0:
256,192,202613,1,2,0:0:0:0:
256,192,202840,1,0,0:0:0:0:
256,192,202954,1,2,0:0:0:0:
256,192,203068,1,2,0:0:0:0:
256,192,203181,1,2,0:0:0:0:
256,192,203295,1,0,0:0:0:0:
256,192,203408,1,0,0:0:0:0:
256,192,203522,1,2,0:0:0:0:
256,192,203636,1,2,0:0:0:0:
256,192,203749,1,0,0:0:0:0:
256,192,203977,1,0,0:0:0:0:
256,192,204090,1,2,0:0:0:0:
256,192,204318,1,2,0:0:0:0:
256,192,204431,1,0,0:0:0:0:
256,192,204658,1,2,0:0:0:0:
256,192,204772,1,0,0:0:0:0:
256,192,204886,1,0,0:0:0:0:
256,192,204999,1,6,0:0:0:0:
256,192,205227,1,4,0:0:0:0:
256,192,205454,1,6,0:0:0:0:
256,192,206136,1,0,0:0:0:0:
256,192,206363,1,2,0:0:0:0:
256,192,206590,1,0,0:0:0:0:
256,192,206818,1,2,0:0:0:0:
256,192,207045,1,2,0:0:0:0:
256,192,207272,1,0,0:0:0:0:
256,192,207499,1,2,0:0:0:0:
256,192,207613,1,2,0:0:0:0:
256,192,207727,1,2,0:0:0:0:
256,192,207954,1,0,0:0:0:0:
256,192,208181,1,2,0:0:0:0:
256,192,208408,1,0,0:0:0:0:
256,192,208522,1,2,0:0:0:0:
256,192,208636,1,2,0:0:0:0:
256,192,208749,1,0,0:0:0:0:
256,192,208863,1,2,0:0:0:0:
256,192,208977,1,0,0:0:0:0:
256,192,209090,1,2,0:0:0:0:
256,192,209318,1,2,0:0:0:0:
256,192,209772,1,0,0:0:0:0:
256,192,209999,1,2,0:0:0:0:
256,192,210227,1,0,0:0:0:0:
256,192,210454,1,2,0:0:0:0:
256,192,210681,1,2,0:0:0:0:
256,192,210795,1,2,0:0:0:0:
256,192,210908,1,0,0:0:0:0:
256,192,211022,1,2,0:0:0:0:
256,192,211136,1,2,0:0:0:0:
256,192,211249,1,0,0:0:0:0:
256,192,211363,1,2,0:0:0:0:
256,192,211590,1,0,0:0:0:0:
256,192,211818,1,2,0:0:0:0:
256,192,211931,1,0,0:0:0:0:
256,192,212045,1,0,0:0:0:0:
256,192,212158,1,2,0:0:0:0:
256,192,212272,1,2,0:0:0:0:
256,192,212386,1,0,0:0:0:0:
256,192,212499,1,2,0:0:0:0:
256,192,212727,1,0,0:0:0:0:
256,192,212954,1,2,0:0:0:0:
256,192,213408,1,2,0:0:0:0:
256,192,213636,1,0,0:0:0:0:
256,192,213863,1,2,0:0:0:0:
256,192,213977,1,2,0:0:0:0:
256,192,214090,1,0,0:0:0:0:
256,192,214318,1,2,0:0:0:0:
256,192,214545,1,0,0:0:0:0:
256,192,214772,1,2,0:0:0:0:
256,192,214848,1,2,0:0:0:0:
256,192,214924,1,0,0:0:0:0:
256,192,214999,1,0,0:0:0:0:
256,192,215227,1,0,0:0:0:0:
256,192,215454,1,2,0:0:0:0:
256,192,215681,1,0,0:0:0:0:
256,192,215795,1,2,0:0:0:0:
256,192,215908,1,2,0:0:0:0:
256,192,216022,1,0,0:0:0:0:
256,192,216136,1,2,0:0:0:0:
256,192,216363,1,0,0:0:0:0:
256,192,216590,1,2,0:0:0:0:
256,192,216818,1,2,0:0:0:0:
256,192,217045,1,0,0:0:0:0:
256,192,217272,1,2,0:0:0:0:
256,192,217499,1,0,0:0:0:0:
256,192,217727,1,2,0:0:0:0:
256,192,217954,1,0,0:0:0:0:
256,192,218181,1,0,0:0:0:0:
256,192,218408,1,2,0:0:0:0:
256,192,218636,1,0,0:0:0:0:
256,192,218749,1,0,0:0:0:0:
256,192,218863,1,2,0:0:0:0:
256,192,219090,1,0,0:0:0:0:
256,192,219204,1,0,0:0:0:0:
256,192,219318,1,2,0:0:0:0:
256,192,219431,1,0,0:0:0:0:
256,192,219545,1,2,0:0:0:0:
256,192,219658,1,2,0:0:0:0:
256,192,219772,1,2,0:0:0:0:
256,192,219886,1,0,0:0:0:0:
256,192,219999,1,6,0:0:0:0:
256,192,220227,1,0,0:0:0:0:
256,192,220340,1,0,0:0:0:0:
256,192,220454,1,2,0:0:0:0:
256,192,220681,1,2,0:0:0:0:
256,192,220738,1,0,0:0:0:0:
256,192,220794,1,2,0:0:0:0:
256,192,220908,1,2,0:0:0:0:
256,192,221136,1,0,0:0:0:0:
256,192,221249,1,2,0:0:0:0:
256,192,221363,1,2,0:0:0:0:
256,192,221477,1,0,0:0:0:0:
256,192,221590,1,2,0:0:0:0:
256,192,221704,1,0,0:0:0:0:
256,192,221818,1,0,0:0:0:0:
256,192,222044,1,2,0:0:0:0:
256,192,222158,1,0,0:0:0:0:
256,192,222272,1,2,0:0:0:0:
256,192,222386,1,2,0:0:0:0:
256,192,222499,1,0,0:0:0:0:
256,192,222613,1,2,0:0:0:0:
256,192,222840,1,2,0:0:0:0:
256,192,222954,1,0,0:0:0:0:
256,192,223067,1,0,0:0:0:0:
256,192,223181,1,2,0:0:0:0:
256,192,223295,1,0,0:0:0:0:
256,192,223408,1,0,0:0:0:0:
256,192,223522,1,2,0:0:0:0:
256,192,223636,1,2,0:0:0:0:
256,192,223863,1,0,0:0:0:0:
256,192,223977,1,2,0:0:0:0:
256,192,224090,1,2,0:0:0:0:
256,192,224204,1,0,0:0:0:0:
256,192,224318,1,2,0:0:0:0:
256,192,224431,1,0,0:0:0:0:
256,192,224544,1,2,0:0:0:0:
256,192,224772,1,2,0:0:0:0:
256,192,224848,1,0,0:0:0:0:
256,192,224924,1,2,0:0:0:0:
256,192,224999,1,0,0:0:0:0:
256,192,225113,1,2,0:0:0:0:
256,192,225227,1,0,0:0:0:0:
256,192,225340,1,2,0:0:0:0:
256,192,225454,1,0,0:0:0:0:
256,192,225568,1,0,0:0:0:0:
256,192,225681,1,0,0:0:0:0:
256,192,225794,1,2,0:0:0:0:
256,192,225908,1,2,0:0:0:0:
256,192,226022,1,0,0:0:0:0:
256,192,226135,1,2,0:0:0:0:
256,192,226249,1,0,0:0:0:0:
256,192,226476,1,2,0:0:0:0:
256,192,226590,1,0,0:0:0:0:
256,192,226817,1,2,0:0:0:0:
256,192,226874,1,0,0:0:0:0:
256,192,226931,1,2,0:0:0:0:
256,192,227044,1,0,0:0:0:0:
256,192,227158,1,0,0:0:0:0:
256,192,227272,1,6,0:0:0:0:
256,192,227499,1,0,0:0:0:0:
256,192,227613,1,0,0:0:0:0:
256,192,227726,1,2,0:0:0:0:
256,192,227954,1,0,0:0:0:0:
256,192,228067,1,0,0:0:0:0:
256,192,228181,1,2,0:0:0:0:
256,192,228408,1,2,0:0:0:0:
256,192,228484,1,0,0:0:0:0:
256,192,228560,1,0,0:0:0:0:
256,192,228635,1,2,0:0:0:0:
256,192,228749,1,2,0:0:0:0:
256,192,228863,1,0,0:0:0:0:
256,192,228976,1,0,0:0:0:0:
256,192,229090,1,2,0:0:0:0:
256,192,229204,1,0,0:0:0:0:
256,192,229317,1,2,0:0:0:0:
256,192,229431,1,0,0:0:0:0:
256,192,229544,1,2,0:0:0:0:
256,192,229772,1,2,0:0:0:0:
256,192,229885,1,0,0:0:0:0:
256,192,229999,1,0,0:0:0:0:
256,192,230113,1,2,0:0:0:0:
256,192,230226,1,2,0:0:0:0:
256,192,230340,1,0,0:0:0:0:
256,192,230454,1,2,0:0:0:0:
256,192,230568,1,0,0:0:0:0:
256,192,230681,1,2,0:0:0:0:
256,192,230794,1,0,0:0:0:0:
256,192,230908,1,2,0:0:0:0:
256,192,231022,1,0,0:0:0:0:
256,192,231135,1,0,0:0:0:0:
256,192,231249,1,0,0:0:0:0:
256,192,231363,1,2,0:0:0:0:
256,192,231476,1,2,0:0:0:0:
256,192,231590,1,0,0:0:0:0:
256,192,231704,1,0,0:0:0:0:
256,192,231817,1,2,0:0:0:0:
256,192,231931,1,0,0:0:0:0:
256,192,232044,1,2,0:0:0:0:
256,192,232158,1,2,0:0:0:0:
256,192,232272,1,2,0:0:0:0:
256,192,232329,1,2,0:0:0:0:
256,192,232385,1,2,0:0:0:0:
256,192,232499,1,2,0:0:0:0:
256,192,232613,1,0,0:0:0:0:
256,192,232726,1,2,0:0:0:0:
256,192,233068,1,0,0:0:0:0:
256,192,233181,1,2,0:0:0:0:
256,192,233295,1,0,0:0:0:0:
256,192,233408,1,2,0:0:0:0:
256,192,233522,1,0,0:0:0:0:
256,192,233749,1,2,0:0:0:0:
256,192,233863,1,0,0:0:0:0:
256,192,234090,1,2,0:0:0:0:
256,192,234204,1,0,0:0:0:0:
256,192,234318,1,0,0:0:0:0:
256,192,234431,1,2,0:0:0:0:
256,192,234545,1,4,0:0:0:0:
256,192,234886,1,0,0:0:0:0:
256,192,234999,1,2,0:0:0:0:
256,192,235227,1,0,0:0:0:0:
256,192,235454,1,2,0:0:0:0:
256,192,235568,1,2,0:0:0:0:
256,192,235681,1,0,0:0:0:0:
256,192,235908,1,2,0:0:0:0:
256,192,236136,1,0,0:0:0:0:
256,192,236363,1,0,0:0:0:0:
256,192,236477,1,0,0:0:0:0:
256,192,236590,1,2,0:0:0:0:
256,192,236704,1,0,0:0:0:0:
256,192,236818,1,2,0:0:0:0:
256,192,237045,1,2,0:0:0:0:
256,192,237158,1,0,0:0:0:0:
256,192,237272,1,0,0:0:0:0:
256,192,237499,1,0,0:0:0:0:
256,192,237727,1,2,0:0:0:0:
256,192,237954,1,0,0:0:0:0:
256,192,238181,1,2,0:0:0:0:
256,192,238522,1,0,0:0:0:0:
256,192,238636,1,2,0:0:0:0:
256,192,238863,1,0,0:0:0:0:
256,192,239090,1,0,0:0:0:0:
256,192,239204,1,0,0:0:0:0:
256,192,239318,1,2,0:0:0:0:
256,192,239545,1,2,0:0:0:0:
256,192,239772,1,2,0:0:0:0:
256,192,239999,1,0,0:0:0:0:
256,192,240227,1,2,0:0:0:0:
256,192,240340,1,0,0:0:0:0:
256,192,240454,1,2,0:0:0:0:
256,192,240568,1,2,0:0:0:0:
256,192,240681,1,0,0:0:0:0:
256,192,240795,1,2,0:0:0:0:
256,192,241022,1,2,0:0:0:0:
256,192,241136,1,0,0:0:0:0:
256,192,241363,1,2,0:0:0:0:
256,192,241590,1,0,0:0:0:0:
256,192,241704,1,2,0:0:0:0:
256,192,241818,1,4,0:0:0:0:
256,192,242158,1,0,0:0:0:0:
256,192,242272,1,2,0:0:0:0:
256,192,242499,1,0,0:0:0:0:
256,192,242727,1,2,0:0:0:0:
256,192,242954,1,0,0:0:0:0:
256,192,243181,1,2,0:0:0:0:
256,192,243295,1,2,0:0:0:0:
256,192,243408,1,2,0:0:0:0:
256,192,243522,1,2,0:0:0:0:
256,192,243636,1,0,0:0:0:0:
256,192,243749,1,2,0:0:0:0:
256,192,243863,1,2,0:0:0:0:
256,192,243977,1,2,0:0:0:0:
256,192,244090,1,2,0:0:0:0:
256,192,244318,1,0,0:0:0:0:
256,192,244545,1,2,0:0:0:0:
256,192,244658,1,2,0:0:0:0:
256,192,244772,1,0,0:0:0:0:
256,192,244999,1,0,0:0:0:0:
256,192,245227,1,2,0:0:0:0:
256,192,245340,1,0,0:0:0:0:
256,192,245454,1,0,0:0:0:0:
256,192,245795,1,0,0:0:0:0:
256,192,245908,1,2,0:0:0:0:
256,192,246590,1,0,0:0:0:0:
256,192,246818,1,2,0:0:0:0:
256,192,247045,1,2,0:0:0:0:
256,192,247272,1,0,0:0:0:0:
256,192,247499,1,0,0:0:0:0:
256,192,247613,1,0,0:0:0:0:
256,192,247727,1,2,0:0:0:0:
256,192,247954,1,0,0:0:0:0:
256,192,248068,1,0,0:0:0:0:
256,192,248181,1,2,0:0:0:0:
256,192,248295,1,0,0:0:0:0:
256,192,248408,1,0,0:0:0:0:
256,192,248636,1,2,0:0:0:0:
256,192,248863,1,0,0:0:0:0:
256,192,249090,1,6,0:0:0:0:
256,192,249431,1,0,0:0:0:0:
256,192,249545,1,2,0:0:0:0:
256,192,249772,1,0,0:0:0:0:
256,192,249999,1,0,0:0:0:0:
256,192,250113,1,0,0:0:0:0:
256,192,250227,1,2,0:0:0:0:
256,192,250454,1,2,0:0:0:0:
256,192,250681,1,2,0:0:0:0:
256,192,250908,1,2,0:0:0:0:
256,192,251022,1,2,0:0:0:0:
256,192,251136,1,0,0:0:0:0:
256,192,251249,1,0,0:0:0:0:
256,192,251363,1,2,0:0:0:0:
256,192,251590,1,0,0:0:0:0:
256,192,251704,1,0,0:0:0:0:
256,192,251818,1,2,0:0:0:0:
256,192,252045,1,0,0:0:0:0:
256,192,252158,1,0,0:0:0:0:
256,192,252272,1,2,0:0:0:0:
256,192,252386,1,0,0:0:0:0:
256,192,252499,1,2,0:0:0:0:
256,192,252613,1,2,0:0:0:0:
256,192,252727,1,0,0:0:0:0:
256,192,253068,1,0,0:0:0:0:
256,192,253181,1,2,0:0:0:0:
256,192,253636,1,2,0:0:0:0:
256,192,253749,1,0,0:0:0:0:
256,192,253863,1,0,0:0:0:0:
256,192,254090,1,2,0:0:0:0:
256,192,254318,1,2,0:0:0:0:
256,192,254545,1,0,0:0:0:0:
256,192,254886,1,0,0:0:0:0:
256,192,254999,1,2,0:0:0:0:
256,192,255227,1,0,0:0:0:0:
256,192,255340,1,0,0:0:0:0:
256,192,255454,1,2,0:0:0:0:
256,192,255568,1,2,0:0:0:0:
256,192,255681,1,0,0:0:0:0:
256,192,255908,1,2,0:0:0:0:
256,192,256136,1,0,0:0:0:0:
256,192,256363,1,4,0:0:0:0:
256,192,256704,1,0,0:0:0:0:
256,192,256818,1,2,0:0:0:0:
256,192,257499,1,0,0:0:0:0:
256,192,257727,1,2,0:0:0:0:
256,192,257954,1,2,0:0:0:0:
256,192,258181,1,0,0:0:0:0:
256,192,258295,1,0,0:0:0:0:
256,192,258408,1,2,0:0:0:0:
256,192,258522,1,2,0:0:0:0:
256,192,258636,1,0,0:0:0:0:
256,192,258863,1,2,0:0:0:0:
256,192,258977,1,0,0:0:0:0:
256,192,259318,1,0,0:0:0:0:
256,192,259545,1,2,0:0:0:0:
256,192,259772,1,0,0:0:0:0:
256,192,259886,1,2,0:0:0:0:
256,192,259999,1,0,0:0:0:0:
256,192,260340,1,0,0:0:0:0:
256,192,260454,1,2,0:0:0:0:
256,192,261136,1,0,0:0:0:0:
256,192,261363,1,2,0:0:0:0:
256,192,261590,1,2,0:0:0:0:
256,192,261818,1,0,0:0:0:0:
256,192,261931,1,0,0:0:0:0:
256,192,262045,1,2,0:0:0:0:
256,192,262158,1,0,0:0:0:0:
256,192,262272,1,2,0:0:0:0:
256,192,262499,1,0,0:0:0:0:
256,192,262613,1,0,0:0:0:0:
256,192,262727,1,2,0:0:0:0:
256,192,262840,1,2,0:0:0:0:
256,192,262954,1,0,0:0:0:0:
256,192,263181,1,2,0:0:0:0:
256,192,263295,1,0,0:0:0:0:
256,192,263408,1,2,0:0:0:0:
256,192,263522,1,2,0:0:0:0:
256,192,263636,1,4,0:0:0:0:
256,192,264090,1,2,0:0:0:0:
256,192,264318,1,0,0:0:0:0:
256,192,264545,1,2,0:0:0:0:
256,192,264772,1,2,0:0:0:0:
256,192,264999,1,0,0:0:0:0:
256,192,265227,1,2,0:0:0:0:
256,192,265454,1,0,0:0:0:0:
256,192,265908,1,2,0:0:0:0:
256,192,266136,1,0,0:0:0:0:
256,192,266363,1,2,0:0:0:0:
256,192,266590,1,2,0:0:0:0:
256,192,266818,1,2,0:0:0:0:
256,192,267045,1,0,0:0:0:0:
256,192,267272,1,2,0:0:0:0:
256,192,267499,1,0,0:0:0:0:
256,192,267613,1,0,0:0:0:0:
256,192,267727,1,2,0:0:0:0:
256,192,267954,1,0,0:0:0:0:
256,192,268181,1,2,0:0:0:0:
256,192,268295,1,0,0:0:0:0:
256,192,268408,1,2,0:0:0:0:
256,192,268636,1,2,0:0:0:0:
256,192,268863,1,0,0:0:0:0:
256,192,269090,1,2,0:0:0:0:
256,192,269204,1,0,0:0:0:0:
256,192,269318,1,2,0:0:0:0:
256,192,269431,1,2,0:0:0:0:
256,192,269545,1,0,0:0:0:0:
256,192,269772,1,2,0:0:0:0:
256,192,269886,1,0,0:0:0:0:
256,192,269999,1,2,0:0:0:0:
256,192,270227,1,2,0:0:0:0:
256,192,270340,1,0,0:0:0:0:
256,192,270454,1,2,0:0:0:0:
256,192,270568,1,0,0:0:0:0:
256,192,270681,1,0,0:0:0:0:
256,192,270795,1,0,0:0:0:0:
256,192,270908,1,6,0:0:0:0:
256,192,271136,1,0,0:0:0:0:
256,192,271590,1,2,0:0:0:0:
256,192,271818,1,0,0:0:0:0:
256,192,272045,1,0,0:0:0:0:
256,192,272272,1,2,0:0:0:0:
256,192,272499,1,0,0:0:0:0:
256,192,272727,1,0,0:0:0:0:
256,192,273181,1,2,0:0:0:0:
256,192,273408,1,2,0:0:0:0:
256,192,273636,1,0,0:0:0:0:
256,192,273863,1,2,0:0:0:0:
256,192,274090,1,2,0:0:0:0:
256,192,274318,1,0,0:0:0:0:
256,192,274545,1,2,0:0:0:0:
256,192,274999,1,0,0:0:0:0:
256,192,275227,1,2,0:0:0:0:
256,192,275454,1,2,0:0:0:0:
256,192,275681,1,0,0:0:0:0:
256,192,275908,1,2,0:0:0:0:
256,192,276136,1,0,0:0:0:0:
256,192,276363,1,2,0:0:0:0:
256,192,276477,1,2,0:0:0:0:
256,192,276590,1,0,0:0:0:0:
256,192,276704,1,2,0:0:0:0:
256,192,276818,1,0,0:0:0:0:
256,192,277045,1,2,0:0:0:0:
256,192,277158,1,0,0:0:0:0:
256,192,277386,1,0,0:0:0:0:
256,192,277499,1,2,0:0:0:0:
256,192,277727,1,0,0:0:0:0:
