osu file format v14

[General]
AudioFilename: Harvest of Dreams.mp3
AudioLeadIn: 0
PreviewTime: 74545
Countdown: 0
SampleSet: Soft
StackLeniency: 0.4
Mode: 0
LetterboxInBreaks: 1
WidescreenStoryboard: 0

[Editor]
Bookmarks: 16363,30908,59999,74545,103636,118181,132727,161818,176363,205454,219999,234545,263636
DistanceSpacing: 1.5
BeatDivisor: 4
GridSize: 4
TimelineZoom: 1

[Metadata]
Title:Harvest of Dreams
TitleUnicode:Harvest of Dreams
Artist:ThatSonofaMitch and Stormwolf feat. Chichi and MictheMicrophone
ArtistUnicode:ThatSonofaMitch and Stormwolf feat. Chichi and MictheMicrophone
Creator:Firmatorenio
Version:Insane
Source:
Tags:mlp pony carrot_top carrrrrrrrrrrrrot
BeatmapID:627103
BeatmapSetID:276645

[Difficulty]
HPDrainRate:7.4
CircleSize:4
OverallDifficulty:8
ApproachRate:8
SliderMultiplier:1.8
SliderTickRate:2

[Events]
//Background and Video events
0,0,"HarvestofDreamsbackground.jpg",0,0
//Break Periods
2,60199,71977
2,103836,115613
2,162018,173795
2,205654,217431
//Storyboard Layer 0 (Background)
//Storyboard Layer 1 (Fail)
//Storyboard Layer 2 (Pass)
//Storyboard Layer 3 (Foreground)
//Storyboard Sound Samples

[TimingPoints]
1818,454.545454545455,4,2,0,72,1,0
74545,-100,4,2,0,72,0,1
103636,-100,4,2,0,72,0,0
118181,-100,4,2,0,72,0,1
132727,-100,4,2,0,72,0,0
176363,-100,4,2,0,72,0,1
205454,-100,4,2,0,72,0,0

[HitObjects]
60,74,1818,6,0,P|95:50|115:49,3,45,6|0|0|0,0:0|0:0|0:0|0:0,0:0:0:0:
132,45,2272,2,0,P|176:72|246:66,1,90
343,36,2727,2,0,P|397:50|430:97,1,90
335,167,3181,1,0,0:0:0:0:
456,200,3408,1,0,0:0:0:0:
370,292,3636,5,2,0:0:0:0:
336,305,3749,1,0,0:0:0:0:
300,301,3863,1,0,0:0:0:0:
267,286,3977,1,0,0:0:0:0:
245,257,4090,2,0,P|232:210|258:165,1,90
370,137,4545,2,0,P|383:184|357:229,1,90
289,109,4999,1,0,0:0:0:0:
422,89,5227,1,0,0:0:0:0:
374,226,5454,5,2,0:0:0:0:
374,226,5568,1,0,0:0:0:0:
374,226,5681,2,0,P|325:231|283:215,1,90
211,103,6136,1,0,0:0:0:0:
204,238,6363,1,0,0:0:0:0:
288,133,6590,1,0,0:0:0:0:
157,168,6818,1,0,0:0:0:0:
287,219,7045,1,0,0:0:0:0:
211,103,7272,5,2,0:0:0:0:
209,99,7386,1,0,0:0:0:0:
204,238,7613,1,0,0:0:0:0:
204,243,7727,1,2,0:0:0:0:
288,133,7954,1,0,0:0:0:0:
291,130,8068,1,0,0:0:0:0:
157,168,8295,1,0,0:0:0:0:
152,169,8408,1,2,0:0:0:0:
287,219,8636,1,0,0:0:0:0:
211,103,8863,1,0,0:0:0:0:
211,237,9090,6,0,P|224:269|251:284,3,45,4|0|0|0,0:0|0:0|0:0|0:0,0:0:0:0:
265,288,9545,2,0,P|299:290|326:277,3,45
340,269,9999,1,0,0:0:0:0:
356,236,10113,1,0,0:0:0:0:
353,199,10227,1,0,0:0:0:0:
281,84,10454,1,0,0:0:0:0:
284,218,10681,1,0,0:0:0:0:
400,149,10908,5,2,0:0:0:0:
384,116,11022,1,0,0:0:0:0:
356,92,11136,1,0,0:0:0:0:
322,79,11249,1,0,0:0:0:0:
286,83,11363,2,0,P|249:105|242:128,3,45
232,137,11818,1,0,0:0:0:0:
231,172,11931,1,0,0:0:0:0:
246,204,12045,1,0,0:0:0:0:
332,307,12272,1,0,0:0:0:0:
377,180,12499,1,0,0:0:0:0:
274,268,12727,5,2,0:0:0:0:
240,281,12840,1,0,0:0:0:0:
204,274,12954,1,0,0:0:0:0:
175,251,13068,1,0,0:0:0:0:
164,216,13181,1,0,0:0:0:0:
173,181,13295,1,0,0:0:0:0:
203,162,13408,1,0,0:0:0:0:
238,158,13522,1,0,0:0:0:0:
272,168,13636,1,0,0:0:0:0:
307,161,13749,1,0,0:0:0:0:
334,137,13863,1,0,0:0:0:0:
380,19,14090,1,0,0:0:0:0:
254,33,14318,1,0,0:0:0:0:
334,137,14545,5,0,1:2:0:0:
464,372,14999,1,0,1:2:0:0:
193,372,15454,1,0,1:2:0:0:
276,256,15681,1,0,0:0:0:0:
293,224,15795,1,0,0:0:0:0:
284,189,15908,1,8,0:2:0:0:
257,164,16022,1,0,0:0:0:0:
220,167,16136,1,0,0:0:0:0:
194,192,16249,1,0,0:0:0:0:
184,222,16363,6,0,P|223:309|315:329,1,180,4|8,0:0|0:0,0:0:0:0:
411,257,17045,1,0,0:0:0:0:
423,223,17158,1,0,0:0:0:0:
423,186,17272,2,0,P|397:124|363:104,1,90
347,96,17613,2,0,P|275:103|243:137,1,90
240,140,17954,2,0,P|225:193|239:241,2,90,0|2|0,0:0|0:0|0:0,0:0:0:0:
144,44,18636,6,0,P|108:96|108:132,1,90,8|0,0:0|0:0,0:0:0:0:
113,156,18977,2,0,P|108:217|56:276,1,135
42,302,19431,1,0,0:0:0:0:
54,335,19545,2,0,P|91:356|158:351,1,90,8|0,0:0|0:0,0:0:0:0:
252,287,19999,6,0,P|297:279|340:303,1,90,2|0,0:0|0:0,0:0:0:0:
252,287,20454,2,0,P|264:363|252:383,1,90,8|0,0:0|0:0,0:0:0:0:
252,287,20908,2,0,P|212:315|164:307,1,90
112,190,21363,1,8,0:0:0:0:
132,160,21477,1,0,0:0:0:0:
164,145,21590,1,0,0:0:0:0:
199,147,21704,1,0,0:0:0:0:
229,166,21818,6,0,P|284:203|331:197,1,90,2|0,0:0|0:0,0:0:0:0:
341,198,22158,2,0,P|383:151|388:115,1,90
384,90,22499,2,0,P|361:46|307:29,1,90
289,32,22840,1,8,0:0:0:0:
158,186,23181,1,8,0:0:0:0:
125,201,23295,1,0,0:0:0:0:
89,197,23408,1,0,0:0:0:0:
60,174,23522,1,0,0:0:0:0:
49,139,23636,6,0,P|65:62|173:22,1,180,4|8,0:0|0:0,0:0:0:0:
241,118,24318,1,0,0:0:0:0:
275,129,24431,1,0,0:0:0:0:
310,125,24545,2,0,P|361:96|373:35,1,90
505,42,24999,1,8,0:0:0:0:
507,78,25113,1,0,0:0:0:0:
499,113,25227,1,0,0:0:0:0:
476,140,25340,1,0,0:0:0:0:
444,158,25454,6,0,P|408:196|404:257,1,90,2|0,0:0|0:0,0:0:0:0:
416,264,25795,2,0,P|374:300|333:303,1,90
307,289,26136,2,0,P|287:233|255:216,1,90
133,256,26590,1,0,0:0:0:0:
42,155,26818,2,0,P|66:91|109:73,1,90,8|0,0:0|0:0,0:0:0:0:
214,101,27272,6,0,P|266:123|314:109,1,90,2|0,0:0|0:0,0:0:0:0:
328,98,27613,1,0,0:0:0:0:
361,85,27727,1,8,0:0:0:0:
396,88,27840,1,0,0:0:0:0:
424,110,27954,1,0,0:0:0:0:
436,143,28068,1,0,0:0:0:0:
429,178,28181,1,0,0:0:0:0:
403,203,28295,1,0,0:0:0:0:
367,208,28408,1,0,0:0:0:0:
331,213,28522,1,0,0:0:0:0:
303,236,28636,1,8,0:0:0:0:
284,266,28749,1,0,0:0:0:0:
257,290,28863,1,0,0:0:0:0:
221,296,28977,1,0,0:0:0:0:
186,286,29090,6,0,P|156:228|184:173,1,90,2|0,0:0|0:0,0:0:0:0:
173,173,29431,2,0,P|214:168|245:124,1,90
253,97,29772,2,0,P|332:100|377:168,1,135,0|8,0:0|0:0,0:0:0:0:
378,172,30227,1,0,0:0:0:0:
266,247,30454,1,8,0:0:0:0:
253,112,30681,1,0,0:0:0:0:
151,22,30908,5,4,0:0:0:0:
353,17,31249,1,0,0:0:0:0:
356,20,31363,2,0,P|422:103|396:176,1,180,8|0,0:0|0:0,0:0:0:0:
282,223,32045,1,0,0:0:0:0:
164,157,32272,1,8,0:0:0:0:
38,206,32499,1,0,0:0:0:0:
59,339,32727,5,2,0:0:0:0:
261,325,33068,1,0,0:0:0:0:
265,324,33181,1,8,0:0:0:0:
144,256,33408,2,0,P|156:208|196:176,1,90
308,128,33863,1,0,0:0:0:0:
444,116,34090,1,8,0:0:0:0:
392,240,34318,1,0,0:0:0:0:
284,324,34545,6,0,P|192:348|152:344,1,135,2|0,0:0|0:0,0:0:0:0:
150,343,34999,1,8,0:0:0:0:
256,256,35227,2,0,P|308:256|348:288,1,90
380,148,35681,1,0,0:0:0:0:
248,120,35908,1,8,0:0:0:0:
263,247,36136,1,0,0:0:0:0:
260,252,36249,1,0,0:0:0:0:
256,256,36363,6,0,P|168:276|120:252,1,135,2|0,0:0|0:0,0:0:0:0:
127,256,36818,1,8,0:0:0:0:
28,168,37045,1,0,0:0:0:0:
25,164,37158,1,0,0:0:0:0:
156,124,37386,1,8,0:0:0:0:
160,121,37499,1,0,0:0:0:0:
56,36,37727,1,8,0:0:0:0:
162,121,37954,1,0,0:0:0:0:
292,112,38181,6,0,P|336:216|320:248,1,135,4|0,0:0|0:0,0:0:0:0:
328,231,38636,1,8,0:0:0:0:
228,140,38863,2,0,P|232:76|264:48,1,90
271,195,39318,1,0,0:0:0:0:
167,272,39545,1,8,0:0:0:0:
292,321,39772,1,0,0:0:0:0:
404,246,39999,5,2,0:0:0:0:
362,49,40340,1,0,0:0:0:0:
364,52,40454,2,0,P|428:96|444:152,1,135,8|0,0:0|0:0,0:0:0:0:
312,0,41136,2,0,P|292:64|308:96,1,90,0|8,0:0|0:0,0:0:0:0:
216,188,41590,1,0,0:0:0:0:
352,200,41818,5,2,0:0:0:0:
215,49,42158,1,0,0:0:0:0:
212,52,42272,2,0,P|97:125|90:186,1,180,8|0,0:0|0:0,0:0:0:0:
121,289,42954,1,0,0:0:0:0:
252,320,43181,1,8,0:0:0:0:
220,188,43408,1,0,0:0:0:0:
331,265,43636,6,0,P|400:284|461:235,1,135,2|0,0:0|0:0,0:0:0:0:
485,244,44090,2,0,P|497:202|470:151,1,90,8|0,0:0|0:0,0:0:0:0:
493,127,44431,2,0,P|453:95|401:103,1,90,0|8,0:0|0:0,0:0:0:0:
385,114,44772,1,0,0:0:0:0:
287,207,44999,1,8,0:0:0:0:
152,218,45227,1,0,0:0:0:0:
35,150,45454,5,4,0:0:0:0:
204,35,45795,1,0,0:0:0:0:
207,36,45908,2,0,P|315:108|323:160,1,180,8|0,0:0|0:0,0:0:0:0:
284,280,46590,1,0,0:0:0:0:
416,256,46818,1,8,0:0:0:0:
328,152,47045,1,0,0:0:0:0:
416,256,47272,6,0,P|436:156|396:108,1,135,2|0,0:0|0:0,0:0:0:0:
400,104,47727,2,0,P|332:68|256:96,1,135,8|0,0:0|0:0,0:0:0:0:
132,220,48408,1,0,0:0:0:0:
244,144,48636,1,8,0:0:0:0:
132,220,48863,1,0,0:0:0:0:
124,84,49090,6,0,P|192:28|268:32,1,135,2|0,0:0|0:0,0:0:0:0:
239,26,49545,1,8,0:0:0:0:
324,124,49772,2,0,P|336:80|388:52,1,90
256,128,50227,1,0,0:0:0:0:
392,120,50454,1,8,0:0:0:0:
328,232,50681,1,0,0:0:0:0:
330,236,50795,1,0,0:0:0:0:
332,240,50908,6,0,P|302:331|260:343,1,135,2|0,0:0|0:0,0:0:0:0:
269,341,51363,1,8,0:0:0:0:
216,216,51590,1,0,0:0:0:0:
213,212,51704,1,0,0:0:0:0:
136,324,51931,1,0,0:0:0:0:
132,328,52045,1,0,0:0:0:0:
22,250,52272,1,8,0:0:0:0:
91,134,52499,1,0,0:0:0:0:
217,85,52727,5,4,0:0:0:0:
416,52,53068,1,0,0:0:0:0:
416,51,53181,2,0,P|476:99|476:283,1,270,8|0,0:0|0:0,0:0:0:0:
388,180,54090,1,8,0:0:0:0:
345,308,54318,1,0,0:0:0:0:
252,212,54545,5,2,0:0:0:0:
290,15,54886,1,0,0:0:0:0:
292,12,54999,1,8,0:0:0:0:
88,93,55227,2,0,P|118:59|160:44,1,90
292,12,55681,1,0,0:0:0:0:
256,140,55908,1,8,0:0:0:0:
380,108,56136,1,0,0:0:0:0:
384,106,56249,1,0,0:0:0:0:
388,104,56363,6,0,P|484:104|520:132,1,135,2|0,0:0|0:0,0:0:0:0:
512,124,56818,1,8,0:0:0:0:
432,232,57045,2,0,B|359:253|341:157|256:170,1,180
158,92,57727,2,0,P|130:144|138:196,1,90,8|0,0:0|0:0,0:0:0:0:
57,286,58181,6,0,P|121:310|193:294,1,135,2|0,0:0|0:0,0:0:0:0:
215,277,58636,2,0,P|263:245|307:241,1,90,2|0,0:0|0:0,0:0:0:0:
428,237,59090,1,2,0:0:0:0:
321,152,59318,1,0,0:0:0:0:
317,150,59431,1,0,0:0:0:0:
313,148,59545,1,8,0:0:0:0:
472,148,59772,1,0,0:0:0:0:
361,71,59999,1,4,0:0:0:0:
256,192,72727,12,0,74318,0:0:0:0:
76,76,74545,6,0,P|164:28|208:36,1,135,4|0,0:0|0:0,0:0:0:0:
198,35,74999,1,8,0:0:0:0:
320,96,75227,1,0,0:0:0:0:
196,160,75454,1,0,0:0:0:0:
320,232,75681,1,0,0:0:0:0:
196,296,75908,1,8,0:0:0:0:
320,364,76136,1,0,0:0:0:0:
448,356,76363,6,0,P|496:300|456:232,1,135,2|0,0:0|0:0,0:0:0:0:
475,245,76818,1,8,0:0:0:0:
400,136,77045,1,0,0:0:0:0:
324,248,77272,2,0,P|280:216|268:184,1,90
296,316,77727,2,0,P|344:320|388:280,1,90,8|0,0:0|0:0,0:0:0:0:
340,176,78181,6,0,P|276:112|216:132,1,135,2|0,0:0|0:0,0:0:0:0:
235,120,78636,1,8,0:0:0:0:
300,240,78863,2,0,P|392:228|412:152,1,180
304,76,79545,1,8,0:0:0:0:
168,84,79772,1,0,0:0:0:0:
76,184,79999,6,0,P|101:253|136:268,1,90,2|0,0:0|0:0,0:0:0:0:
124,293,80340,2,0,P|165:319|227:300,1,90
237,329,80681,2,0,P|285:301|305:241,1,90
334,258,81022,1,8,0:0:0:0:
421,75,81363,1,8,0:0:0:0:
304,143,81590,1,0,0:0:0:0:
208,48,81818,6,0,P|128:100|120:168,1,135,4|0,0:0|0:0,0:0:0:0:
120,138,82272,1,8,0:0:0:0:
188,248,82499,1,0,0:0:0:0:
320,284,82727,1,0,0:0:0:0:
440,228,82954,1,0,0:0:0:0:
484,104,83181,1,8,0:0:0:0:
440,228,83408,1,0,0:0:0:0:
352,132,83636,6,0,P|292:116|224:156,1,135,2|0,0:0|0:0,0:0:0:0:
228,152,84090,1,8,0:0:0:0:
352,208,84318,2,0,P|392:196|428:144,1,90
292,196,84772,2,0,P|304:128|276:80,1,90,0|8,0:0|0:0,0:0:0:0:
248,236,85227,1,0,0:0:0:0:
124,288,85454,2,0,P|84:196|96:160,1,135,2|0,0:0|0:0,0:0:0:0:
108,136,85908,2,0,P|152:88|208:80,1,90,8|0,0:0|0:0,0:0:0:0:
384,248,86590,2,0,P|372:296|312:316,1,90,0|8,0:0|0:0,0:0:0:0:
352,180,87045,2,0,P|408:176|448:212,1,90,0|2,0:0|0:0,0:0:0:0:
319,245,87499,5,0,0:0:0:0:
313,243,87613,1,0,0:0:0:0:
308,240,87727,1,8,0:0:0:0:
324,108,87954,2,0,P|396:116|428:184,1,135,0|8,0:0|0:0,0:0:0:0:
427,169,88408,1,0,0:0:0:0:
424,28,88636,1,8,0:0:0:0:
428,168,88863,1,0,0:0:0:0:
308,100,89090,6,0,P|248:40|196:44,1,135,4|0,0:0|0:0,0:0:0:0:
199,44,89545,1,8,0:0:0:0:
64,168,89772,1,0,0:0:0:0:
104,296,89999,1,0,0:0:0:0:
212,216,90227,1,0,0:0:0:0:
276,336,90454,1,8,0:0:0:0:
376,248,90681,1,0,0:0:0:0:
468,144,90908,6,0,P|388:96|340:124,1,135,2|0,0:0|0:0,0:0:0:0:
353,111,91363,1,8,0:0:0:0:
372,241,91590,1,0,0:0:0:0:
341,234,91704,1,0,0:0:0:0:
312,220,91818,2,0,P|265:170|261:134,1,90
251,121,92158,1,0,0:0:0:0:
235,93,92272,2,0,P|172:42|131:53,1,90,8|0,0:0|0:0,0:0:0:0:
25,271,92954,6,0,P|52:217|85:202,1,90,0|8,0:0|0:0,0:0:0:0:
152,316,93408,2,0,P|220:360|300:308,1,180
180,248,94090,2,0,P|120:248|84:296,1,90,8|0,0:0|0:0,0:0:0:0:
140,136,94545,6,0,P|192:104|232:108,1,90,2|0,0:0|0:0,0:0:0:0:
256,112,94886,2,0,P|312:148|332:188,1,90
340,200,95227,2,0,P|344:272|312:316,1,90
316,316,95568,1,8,0:0:0:0:
236,208,95908,2,0,P|220:260|184:288,1,90,8|0,0:0|0:0,0:0:0:0:
60,296,96363,6,0,P|112:360|180:364,1,135,4|0,0:0|0:0,0:0:0:0:
164,366,96818,1,8,0:0:0:0:
292,344,97045,1,0,0:0:0:0:
204,240,97272,1,0,0:0:0:0:
336,216,97499,1,0,0:0:0:0:
256,108,97727,1,8,0:0:0:0:
388,84,97954,1,0,0:0:0:0:
476,184,98181,6,0,P|488:248|440:312,1,135,2|0,0:0|0:0,0:0:0:0:
449,305,98636,1,8,0:0:0:0:
400,180,98863,2,0,P|428:124|464:108,2,90
396,44,99545,1,8,0:0:0:0:
396,44,99658,1,0,0:0:0:0:
396,44,99772,1,0,0:0:0:0:
280,112,99999,6,0,P|248:204|188:232,1,135,2|0,0:0|0:0,0:0:0:0:
216,222,100454,1,8,0:0:0:0:
140,112,100681,2,0,P|88:188|96:280,1,180
200,352,101363,1,8,0:0:0:0:
324,300,101590,1,0,0:0:0:0:
332,164,101818,6,0,P|316:96|280:72,1,90,4|0,0:0|0:0,0:0:0:0:
272,68,102158,2,0,P|220:56|172:80,1,90,4|0,0:0|0:0,0:0:0:0:
156,88,102499,2,0,P|128:168|152:208,1,135,4|8,0:0|0:0,0:0:0:0:
180,227,102954,1,0,0:0:0:0:
303,248,103181,1,8,0:0:0:0:
413,187,103408,1,0,0:0:0:0:
413,187,103522,1,0,0:0:0:0:
413,187,103636,1,4,0:0:0:0:
256,192,116363,12,0,117954,0:0:0:0:
352,72,118181,6,0,P|296:20|276:16,1,90,4|0,0:0|0:0,0:0:0:0:
252,16,118522,1,0,0:0:0:0:
216,24,118636,1,8,0:0:0:0:
184,40,118749,1,0,0:0:0:0:
156,64,118863,1,0,0:0:0:0:
140,96,118977,1,0,0:0:0:0:
132,132,119090,1,0,0:0:0:0:
136,168,119204,1,0,0:0:0:0:
148,200,119318,1,0,0:0:0:0:
172,228,119431,1,0,0:0:0:0:
200,248,119545,2,0,B|248:208|212:176|272:136,1,135,8|0,0:0|0:0,0:0:0:0:
300,160,119999,5,2,0:0:0:0:
320,192,120113,1,0,0:0:0:0:
328,228,120227,1,0,0:0:0:0:
328,264,120340,1,0,0:0:0:0:
312,296,120454,1,8,0:0:0:0:
288,320,120568,1,0,0:0:0:0:
256,332,120681,1,0,0:0:0:0:
220,336,120795,1,0,0:0:0:0:
184,328,120908,1,0,0:0:0:0:
152,304,121022,1,0,0:0:0:0:
132,272,121136,1,0,0:0:0:0:
128,236,121249,1,0,0:0:0:0:
136,200,121363,1,8,0:0:0:0:
160,172,121477,1,0,0:0:0:0:
192,156,121590,1,0,0:0:0:0:
228,156,121704,1,0,0:0:0:0:
260,168,121818,5,2,0:0:0:0:
296,176,121931,1,0,0:0:0:0:
332,172,122045,1,0,0:0:0:0:
364,152,122158,1,0,0:0:0:0:
384,124,122272,1,8,0:0:0:0:
384,88,122386,1,0,0:0:0:0:
368,56,122499,1,0,0:0:0:0:
336,40,122613,1,0,0:0:0:0:
300,36,122727,1,0,0:0:0:0:
264,48,122840,1,0,0:0:0:0:
240,76,122954,1,0,0:0:0:0:
236,112,123068,1,0,0:0:0:0:
248,148,123181,1,8,0:0:0:0:
260,180,123295,1,0,0:0:0:0:
252,216,123408,1,0,0:0:0:0:
224,240,123522,1,0,0:0:0:0:
188,244,123636,5,2,0:0:0:0:
116,151,123863,1,0,0:0:0:0:
75,241,124090,2,0,P|83:295|115:328,1,90,8|0,0:0|0:0,0:0:0:0:
135,329,124431,2,0,P|177:317|224:326,1,90,0|8,0:0|0:0,0:0:0:0:
248,341,124772,1,0,0:0:0:0:
348,344,124999,2,0,P|390:319|412:268,1,90,8|0,0:0|0:0,0:0:0:0:
404,168,125454,5,4,0:0:0:0:
379,135,125568,1,0,0:0:0:0:
348,112,125681,1,0,0:0:0:0:
312,104,125795,1,0,0:0:0:0:
276,108,125908,2,0,P|224:144|220:204,1,90,8|0,0:0|0:0,0:0:0:0:
208,204,126249,1,0,0:0:0:0:
192,236,126363,1,0,0:0:0:0:
164,260,126477,1,0,0:0:0:0:
128,272,126590,1,0,0:0:0:0:
92,268,126704,1,0,0:0:0:0:
60,248,126818,1,8,0:0:0:0:
44,216,126931,1,0,0:0:0:0:
44,180,127045,1,0,0:0:0:0:
56,148,127158,1,0,0:0:0:0:
88,128,127272,5,2,0:0:0:0:
124,124,127386,1,0,0:0:0:0:
160,116,127499,1,0,0:0:0:0:
192,100,127613,1,0,0:0:0:0:
216,76,127727,1,8,0:0:0:0:
248,60,127840,1,0,0:0:0:0:
284,56,127954,1,0,0:0:0:0:
320,68,128068,1,0,0:0:0:0:
348,88,128181,1,0,0:0:0:0:
372,116,128295,1,0,0:0:0:0:
404,132,128408,1,0,0:0:0:0:
440,132,128522,1,0,0:0:0:0:
468,112,128636,1,8,0:0:0:0:
480,80,128749,1,0,0:0:0:0:
468,48,128863,1,0,0:0:0:0:
440,28,128977,1,0,0:0:0:0:
404,24,129090,6,0,P|356:52|340:108,1,90,2|0,0:0|0:0,0:0:0:0:
336,116,129431,1,0,0:0:0:0:
324,152,129545,2,0,P|304:216|264:248,1,90,8|0,0:0|0:0,0:0:0:0:
260,256,129886,2,0,P|188:272|148:236,1,90
144,252,130227,2,0,P|108:196|116:152,1,90,0|8,0:0|0:0,0:0:0:0:
180,96,130681,1,0,0:0:0:0:
216,96,130795,1,0,0:0:0:0:
252,104,130908,6,0,P|304:132|336:180,1,90,2|0,0:0|0:0,0:0:0:0:
336,188,131249,1,0,0:0:0:0:
336,224,131363,1,8,0:0:0:0:
324,256,131477,1,0,0:0:0:0:
300,280,131590,1,0,0:0:0:0:
264,292,131704,1,0,0:0:0:0:
228,288,131818,1,0,0:0:0:0:
196,272,131931,1,8,0:0:0:0:
176,244,132045,1,0,0:0:0:0:
244,160,132272,1,8,0:0:0:0:
296,45,132499,1,0,0:0:0:0:
137,98,132727,5,4,0:0:0:0:
264,340,133068,1,0,0:0:0:0:
263,339,133181,2,0,P|359:331|407:263,1,180,8|0,0:0|0:0,0:0:0:0:
447,140,133863,1,0,0:0:0:0:
458,5,134090,1,8,0:0:0:0:
338,68,134318,1,0,0:0:0:0:
327,202,134545,5,2,0:0:0:0:
164,84,134886,1,0,0:0:0:0:
164,83,134999,2,0,P|180:167|140:211,1,135,8|0,0:0|0:0,0:0:0:0:
180,0,135681,1,0,0:0:0:0:
80,88,135908,1,8,0:0:0:0:
168,192,136136,1,0,0:0:0:0:
268,104,136363,6,0,P|332:144|352:204,1,135,2|0,0:0|0:0,0:0:0:0:
350,201,136818,1,8,0:0:0:0:
364,64,137045,2,0,P|420:80|436:104,1,90
472,232,137499,1,0,0:0:0:0:
352,296,137727,1,8,0:0:0:0:
220,264,137954,1,0,0:0:0:0:
96,316,138181,6,0,P|56:240|72:176,1,135,2|0,0:0|0:0,0:0:0:0:
66,191,138636,1,8,0:0:0:0:
156,96,138863,1,0,0:0:0:0:
159,93,138977,1,0,0:0:0:0:
24,72,139204,1,8,0:0:0:0:
20,71,139318,1,0,0:0:0:0:
156,96,139545,1,8,0:0:0:0:
184,228,139772,1,0,0:0:0:0:
284,140,139999,6,0,P|352:72|400:84,1,135,4|0,0:0|0:0,0:0:0:0:
416,88,140454,2,0,P|452:144|448:172,1,90,8|0,0:0|0:0,0:0:0:0:
320,204,140908,2,0,P|248:204|224:180,1,90
344,276,141363,1,8,0:0:0:0:
368,144,141590,1,0,0:0:0:0:
424,268,141818,6,0,P|400:328|336:352,1,135,2|0,0:0|0:0,0:0:0:0:
334,350,142272,1,8,0:0:0:0:
216,296,142499,1,0,0:0:0:0:
213,293,142613,1,0,0:0:0:0:
256,96,142954,1,0,0:0:0:0:
152,184,143181,1,8,0:0:0:0:
284,204,143408,1,0,0:0:0:0:
180,116,143636,6,0,P|112:120|80:204,1,135,2|0,0:0|0:0,0:0:0:0:
77,171,144090,1,8,0:0:0:0:
140,292,144318,2,0,P|204:288|236:248,1,90
356,280,144772,1,0,0:0:0:0:
444,176,144999,1,8,0:0:0:0:
348,80,145227,1,0,0:0:0:0:
256,180,145454,6,0,P|232:124|164:96,1,135,2|0,0:0|0:0,0:0:0:0:
132,100,145908,2,0,P|84:128|64:160,1,90,8|0,0:0|0:0,0:0:0:0:
60,192,146249,2,0,P|64:236|100:276,1,90,0|8,0:0|0:0,0:0:0:0:
124,284,146590,1,0,0:0:0:0:
256,308,146818,1,8,0:0:0:0:
364,228,147045,1,0,0:0:0:0:
332,96,147272,6,0,P|264:52|200:56,1,135,4|0,0:0|0:0,0:0:0:0:
209,55,147727,1,8,0:0:0:0:
96,120,147954,2,0,P|156:184|248:192,1,180
372,236,148636,1,8,0:0:0:0:
244,280,148863,1,0,0:0:0:0:
304,160,149090,6,0,P|232:148|160:200,1,135,2|0,0:0|0:0,0:0:0:0:
152,200,149545,2,0,P|124:264|132:304,1,90,8|0,0:0|0:0,0:0:0:0:
288,68,150227,1,0,0:0:0:0:
420,36,150454,2,0,P|456:108|456:144,1,90,8|0,0:0|0:0,0:0:0:0:
328,152,150908,5,2,0:0:0:0:
147,62,151249,1,0,0:0:0:0:
144,64,151363,2,0,P|100:116|100:136,1,90,8|0,0:0|0:0,0:0:0:0:
148,260,151818,1,0,0:0:0:0:
276,296,152045,1,0,0:0:0:0:
400,240,152272,1,8,0:0:0:0:
440,112,152499,1,0,0:0:0:0:
471,243,152727,6,0,P|426:306|359:297,1,135,2|0,0:0|0:0,0:0:0:0:
348,287,153181,2,0,P|328:242|351:192,1,90,8|0,0:0|0:0,0:0:0:0:
339,173,153522,2,0,P|301:124|246:124,1,90,0|8,0:0|0:0,0:0:0:0:
245,123,153863,1,0,0:0:0:0:
136,203,154090,1,8,0:0:0:0:
180,330,154318,1,0,0:0:0:0:
50,293,154545,6,0,P|12:204|37:142,1,135,4|0,0:0|0:0,0:0:0:0:
36,143,154999,2,0,P|77:102|141:99,1,90,8|0,0:0|0:0,0:0:0:0:
215,174,155454,2,0,P|211:222|175:270,2,90,0|0|8,0:0|0:0|0:0,0:0:0:0:
257,45,156136,1,0,0:0:0:0:
388,52,156363,6,0,P|428:128|404:200,1,135,2|0,0:0|0:0,0:0:0:0:
417,176,156818,1,8,0:0:0:0:
321,81,157045,2,0,P|237:116|183:50,1,180
48,61,157727,1,8,0:0:0:0:
84,188,157954,1,0,0:0:0:0:
86,192,158068,1,0,0:0:0:0:
88,196,158181,6,0,P|124:264|176:296,1,135,2|0,0:0|0:0,0:0:0:0:
176,293,158636,1,8,0:0:0:0:
224,167,158863,1,0,0:0:0:0:
308,271,159090,2,0,P|363:255|389:201,1,90
380,95,159545,1,8,0:0:0:0:
453,208,159772,1,0,0:0:0:0:
318,199,159999,6,0,P|238:155|222:99,1,135,2|0,0:0|0:0,0:0:0:0:
187,120,160454,2,0,P|155:71|163:29,1,90,2|0,0:0|0:0,0:0:0:0:
122,21,160795,2,0,P|98:76|118:159,1,135,2|0,0:0|0:0,0:0:0:0:
139,177,161249,1,0,0:0:0:0:
172,194,161363,1,8,0:0:0:0:
277,185,161590,1,0,0:0:0:0:
371,222,161818,1,4,0:0:0:0:
256,192,174545,12,0,176136,0:0:0:0:
24,236,176363,5,4,0:0:0:0:
225,277,176704,1,0,0:0:0:0:
224,276,176818,1,8,0:0:0:0:
184,148,177045,1,0,0:0:0:0:
316,176,177272,1,0,0:0:0:0:
224,276,177499,1,0,0:0:0:0:
184,148,177727,1,8,0:0:0:0:
316,176,177954,1,0,0:0:0:0:
436,112,178181,6,0,P|400:56|320:36,1,135,2|0,0:0|0:0,0:0:0:0:
300,36,178636,2,0,P|256:52|228:88,1,90,8|0,0:0|0:0,0:0:0:0:
140,184,179090,2,0,P|64:164|36:176,1,90
152,260,179545,2,0,P|204:228|216:196,1,90,8|0,0:0|0:0,0:0:0:0:
84,232,179999,6,0,P|24:292|16:360,1,135,2|0,0:0|0:0,0:0:0:0:
14,338,180454,1,8,0:0:0:0:
148,344,180681,2,0,P|240:348|292:284,1,180
304,148,181363,2,0,P|364:164|388:204,1,90,8|0,0:0|0:0,0:0:0:0:
500,120,181818,6,0,P|464:40|408:28,1,135,2|0,0:0|0:0,0:0:0:0:
388,32,182272,2,0,P|344:65|331:100,1,90,8|0,0:0|0:0,0:0:0:0:
120,60,182840,1,8,0:0:0:0:
119,59,182954,1,0,0:0:0:0:
180,180,183181,1,8,0:0:0:0:
308,228,183408,1,0,0:0:0:0:
436,180,183636,6,0,P|376:104|332:100,1,135,4|0,0:0|0:0,0:0:0:0:
341,101,184090,1,8,0:0:0:0:
248,196,184318,1,0,0:0:0:0:
116,168,184545,1,0,0:0:0:0:
240,116,184772,1,0,0:0:0:0:
172,232,184999,1,8,0:0:0:0:
156,96,185227,1,0,0:0:0:0:
248,196,185454,6,0,P|276:256|360:260,1,135,2|0,0:0|0:0,0:0:0:0:
342,267,185908,1,8,0:0:0:0:
348,132,186136,2,0,P|384:80|376:40,2,90
241,48,186818,2,0,P|178:40|146:66,1,90,8|0,0:0|0:0,0:0:0:0:
37,114,187272,5,2,0:0:0:0:
189,257,187613,1,0,0:0:0:0:
188,256,187727,1,8,0:0:0:0:
272,152,187954,2,0,P|324:224|304:316,1,180
188,372,188636,2,0,P|124:356|96:300,1,90,8|0,0:0|0:0,0:0:0:0:
44,220,189090,6,0,P|40:144|76:96,1,135,2|0,0:0|0:0,0:0:0:0:
77,98,189545,1,8,0:0:0:0:
192,36,189772,1,0,0:0:0:0:
353,161,190113,1,8,0:0:0:0:
352,160,190227,1,0,0:0:0:0:
248,76,190454,1,8,0:0:0:0:
352,160,190681,1,0,0:0:0:0:
248,76,190908,6,0,P|176:120|160:200,1,135,4|0,0:0|0:0,0:0:0:0:
160,168,191363,1,8,0:0:0:0:
96,284,191590,1,0,0:0:0:0:
229,261,191818,2,0,P|273:233|277:169,1,90
160,252,192272,1,8,0:0:0:0:
274,323,192499,2,0,P|330:285|351:247,1,90,0|2,0:0|0:0,0:0:0:0:
423,78,193068,5,0,0:0:0:0:
420,76,193181,2,0,P|344:48|300:56,1,90,8|0,0:0|0:0,0:0:0:0:
294,64,193522,1,0,0:0:0:0:
291,67,193636,2,0,P|235:107|187:111,1,90
171,113,193977,1,0,0:0:0:0:
167,115,194090,2,0,P|107:163|95:195,1,90,8|0,0:0|0:0,0:0:0:0:
112,308,194545,6,0,P|175:337|261:318,1,135,2|0,0:0|0:0,0:0:0:0:
268,316,194999,2,0,P|304:280|316:216,1,90,8|0,0:0|0:0,0:0:0:0:
312,108,195454,1,0,0:0:0:0:
384,221,195681,2,0,P|450:261|484:259,1,90,0|8,0:0|0:0,0:0:0:0:
503,133,196136,1,0,0:0:0:0:
379,78,196363,6,0,P|330:36|279:42,1,90,2|0,0:0|0:0,0:0:0:0:
277,44,196704,2,0,P|241:96|249:140,1,90
253,149,197045,2,0,P|269:205|249:245,1,90
235,254,197386,1,8,0:0:0:0:
60,152,197727,1,8,0:0:0:0:
88,284,197954,1,0,0:0:0:0:
212,335,198181,6,0,P|288:311|304:247,1,135,4|0,0:0|0:0,0:0:0:0:
305,261,198636,1,8,0:0:0:0:
405,171,198863,1,0,0:0:0:0:
303,259,199090,1,0,0:0:0:0:
274,129,199318,1,0,0:0:0:0:
301,257,199545,1,8,0:0:0:0:
174,225,199772,1,0,0:0:0:0:
274,129,199999,6,0,P|348:126|397:168,1,135,2|0,0:0|0:0,0:0:0:0:
395,165,200454,1,8,0:0:0:0:
355,293,200681,2,0,P|321:332|273:339,2,90
246,211,201363,1,8,0:0:0:0:
240,213,201477,1,0,0:0:0:0:
234,216,201590,1,0,0:0:0:0:
120,288,201818,6,0,P|88:216|120:152,1,135,2|0,0:0|0:0,0:0:0:0:
110,165,202272,1,8,0:0:0:0:
212,80,202499,2,0,P|284:68|360:140,1,180
436,248,203181,1,8,0:0:0:0:
300,256,203408,1,0,0:0:0:0:
360,136,203636,6,0,P|324:88|264:68,1,90,2|0,0:0|0:0,0:0:0:0:
264,64,203977,2,0,P|200:72|168:108,1,90
156,116,204318,2,0,P|140:196|176:244,1,135,0|8,0:0|0:0,0:0:0:0:
195,252,204772,1,0,0:0:0:0:
324,288,204999,1,8,0:0:0:0:
265,165,205227,1,0,0:0:0:0:
395,197,205454,1,4,0:0:0:0:
256,192,218181,12,0,219772,0:0:0:0:
172,96,219999,6,0,P|256:64|336:96,1,180,4|8,0:0|0:0,0:0:0:0:
256,204,220681,1,0,0:0:0:0:
228,228,220795,1,0,0:0:0:0:
196,244,220908,2,2,P|128:256|80:236,1,90,0|0,0:0|0:0,0:0:0:0:
76,236,221249,2,0,P|32:184|32:136,1,90
28,128,221590,2,0,P|56:68|96:44,2,90,0|2|0,0:0|0:0|0:0,0:0:0:0:
160,152,222272,6,0,P|220:136|244:104,1,90,8|0,0:0|0:0,0:0:0:0:
264,92,222613,2,0,P|316:60|344:60,1,90
376,72,222954,1,0,0:0:0:0:
404,96,223068,1,0,0:0:0:0:
424,128,223181,1,8,0:0:0:0:
432,164,223295,1,0,0:0:0:0:
432,200,223408,1,0,0:0:0:0:
424,236,223522,1,0,0:0:0:0:
400,264,223636,6,0,P|328:304|288:308,1,90,2|0,0:0|0:0,0:0:0:0:
284,304,223977,1,0,0:0:0:0:
248,296,224090,1,8,0:0:0:0:
348,204,224318,2,0,P|284:228|232:216,1,90
228,220,224658,1,0,0:0:0:0:
196,208,224772,1,0,0:0:0:0:
168,184,224886,1,0,0:0:0:0:
148,152,224999,1,8,0:0:0:0:
256,72,225227,1,0,0:0:0:0:
368,148,225454,6,0,P|352:208|308:240,1,90,2|0,0:0|0:0,0:0:0:0:
296,232,225795,2,0,P|224:256|204:288,1,90
192,288,226136,2,0,P|136:332|80:332,1,90
84,332,226477,1,8,0:0:0:0:
28,136,226818,1,8,0:0:0:0:
52,108,226931,1,0,0:0:0:0:
84,92,227045,1,0,0:0:0:0:
120,92,227158,1,0,0:0:0:0:
152,108,227272,6,0,P|224:152|240:152,1,90,4|0,0:0|0:0,0:0:0:0:
264,148,227613,1,0,0:0:0:0:
300,136,227727,1,8,0:0:0:0:
416,72,227954,1,0,0:0:0:0:
432,104,228068,1,0,0:0:0:0:
436,140,228181,1,0,0:0:0:0:
428,176,228295,1,0,0:0:0:0:
408,204,228408,1,0,0:0:0:0:
380,224,228522,1,0,0:0:0:0:
344,236,228636,1,8,0:0:0:0:
308,236,228749,1,0,0:0:0:0:
276,224,228863,1,0,0:0:0:0:
248,200,228977,1,0,0:0:0:0:
232,168,229090,6,0,P|208:116|172:96,1,90,2|0,0:0|0:0,0:0:0:0:
148,92,229431,2,0,P|84:104|60:140,1,90
52,152,229772,2,0,P|44:224|80:256,1,90
76,260,230113,1,0,0:0:0:0:
108,276,230227,1,0,0:0:0:0:
244,288,230454,1,8,0:0:0:0:
280,280,230568,1,0,0:0:0:0:
308,256,230681,1,0,0:0:0:0:
324,224,230795,1,0,0:0:0:0:
328,188,230908,5,2,0:0:0:0:
320,152,231022,1,0,0:0:0:0:
312,116,231136,1,0,0:0:0:0:
320,80,231249,1,0,0:0:0:0:
344,52,231363,1,8,0:0:0:0:
380,44,231477,1,0,0:0:0:0:
412,60,231590,1,0,0:0:0:0:
432,92,231704,1,0,0:0:0:0:
432,128,231818,1,0,0:0:0:0:
412,156,231931,1,0,0:0:0:0:
376,168,232045,1,0,0:0:0:0:
340,168,232158,1,0,0:0:0:0:
304,160,232272,1,8,0:0:0:0:
268,168,232386,1,0,0:0:0:0:
236,184,232499,1,0,0:0:0:0:
208,208,232613,1,0,0:0:0:0:
188,236,232727,6,0,P|124:272|80:268,1,90,2|0,0:0|0:0,0:0:0:0:
76,264,233068,2,0,P|32:228|24:176,1,90
20,164,233408,2,0,P|48:104|100:88,1,90
100,76,233749,1,8,0:0:0:0:
136,72,233863,1,0,0:0:0:0:
256,132,234090,1,8,0:0:0:0:
392,144,234318,1,0,0:0:0:0:
320,256,234545,5,4,0:0:0:0:
56,312,234999,1,8,0:0:0:0:
136,48,235454,1,0,0:0:0:0:
138,52,235568,1,0,0:0:0:0:
140,56,235681,1,0,0:0:0:0:
168,188,235908,1,8,0:0:0:0:
265,93,236136,1,0,0:0:0:0:
394,130,236363,5,2,0:0:0:0:
398,165,236477,2,0,P|382:232|353:262,1,90
340,268,236818,1,8,0:0:0:0:
208,292,237045,2,0,P|132:280|104:256,1,90
156,144,237499,1,0,0:0:0:0:
256,236,237727,2,0,P|280:304|260:344,1,90,8|0,0:0|0:0,0:0:0:0:
388,244,238181,6,0,P|408:176|376:104,1,135,2|0,0:0|0:0,0:0:0:0:
360,92,238636,2,0,P|304:72|256:92,1,90,8|0,0:0|0:0,0:0:0:0:
175,168,239090,1,0,0:0:0:0:
310,158,239318,1,0,0:0:0:0:
194,87,239545,1,8,0:0:0:0:
245,211,239772,1,0,0:0:0:0:
275,78,239999,6,0,P|211:74|195:194,1,180,2|8,0:0|0:0,0:0:0:0:
79,74,240681,2,0,P|167:86|247:150,1,180
281,267,241363,1,8,0:0:0:0:
309,288,241477,1,0,0:0:0:0:
343,295,241590,1,0,0:0:0:0:
378,289,241704,1,0,0:0:0:0:
407,267,241818,6,0,P|437:188|237:50,1,360,4|0,0:0|0:0,0:0:0:0:
234,177,242954,1,0,0:0:0:0:
140,108,243181,1,8,0:0:0:0:
140,108,243295,1,0,0:0:0:0:
140,108,243408,1,0,0:0:0:0:
140,108,243522,1,0,0:0:0:0:
140,108,243636,5,2,0:0:0:0:
120,140,243749,1,0,0:0:0:0:
104,172,243863,1,0,0:0:0:0:
96,208,243977,1,0,0:0:0:0:
92,244,244090,2,0,P|104:308|156:340,1,90,8|0,0:0|0:0,0:0:0:0:
225,239,244545,2,0,P|257:299|245:343,1,90
376,377,244999,2,0,P|436:361|468:317,1,90,8|0,0:0|0:0,0:0:0:0:
373,234,245454,1,2,0:0:0:0:
256,56,246590,5,0,0:0:0:0:
256,192,246818,1,8,0:0:0:0:
256,328,247045,1,0,0:0:0:0:
256,192,247272,2,0,P|312:124|380:124,1,135,2|0,0:0|0:0,0:0:0:0:
388,124,247727,2,0,P|440:164|444:220,1,90,8|0,0:0|0:0,0:0:0:0:
330,252,248181,1,0,0:0:0:0:
330,252,248295,1,8,0:0:0:0:
330,252,248408,1,0,0:0:0:0:
236,154,248636,1,8,0:0:0:0:
102,170,248863,1,0,0:0:0:0:
84,304,249090,6,0,P|256:356|428:308,1,360,4|0,0:0|0:0,0:0:0:0:
444,284,250113,1,0,0:0:0:0:
448,252,250227,1,0,0:0:0:0:
327,190,250454,1,8,0:0:0:0:
441,118,250681,1,0,0:0:0:0:
331,196,250908,5,2,0:0:0:0:
437,111,251136,1,0,0:0:0:0:
342,18,251363,2,0,P|299:3|234:15,1,90,8|0,0:0|0:0,0:0:0:0:
216,17,251704,1,0,0:0:0:0:
212,18,251818,2,0,P|165:38|130:89,1,90
117,100,252158,1,0,0:0:0:0:
114,103,252272,2,0,P|102:191|114:215,1,90,8|0,0:0|0:0,0:0:0:0:
142,318,252727,6,0,P|237:337|302:298,1,135,2|0,0:0|0:0,0:0:0:0:
296,299,253181,1,8,0:0:0:0:
396,104,253863,1,0,0:0:0:0:
139,19,254318,1,0,0:0:0:0:
31,100,254545,5,2,0:0:0:0:
152,159,254772,1,0,0:0:0:0:
44,240,254999,1,8,0:0:0:0:
166,297,255227,1,0,0:0:0:0:
169,300,255340,1,0,0:0:0:0:
302,300,255568,1,8,0:0:0:0:
306,298,255681,1,0,0:0:0:0:
394,195,255908,1,8,0:0:0:0:
262,171,256136,1,0,0:0:0:0:
198,52,256363,6,0,P|150:88|134:136,1,90,4|0,0:0|0:0,0:0:0:0:
129,144,256704,2,0,P|125:180|162:246,1,90
167,251,257045,1,0,0:0:0:0:
192,269,257158,1,0,0:0:0:0:
221,279,257272,1,0,0:0:0:0:
252,284,257386,1,0,0:0:0:0:
283,284,257499,2,0,P|333:261|362:212,1,90,0|8,0:0|0:0,0:0:0:0:
406,109,257954,1,0,0:0:0:0:
284,52,258181,1,2,0:0:0:0:
120,264,258636,6,0,P|68:208|72:164,1,90,8|0,0:0|0:0,0:0:0:0:
192,248,259090,2,0,P|184:300|148:332,1,90
128,336,259431,1,0,0:0:0:0:
96,336,259545,2,0,P|32:312|16:256,1,90,8|0,0:0|0:0,0:0:0:0:
24,160,259999,5,2,0:0:0:0:
56,140,260113,1,0,0:0:0:0:
92,132,260227,1,0,0:0:0:0:
128,136,260340,1,0,0:0:0:0:
160,148,260454,1,8,0:0:0:0:
192,160,260568,1,0,0:0:0:0:
228,160,260681,1,0,0:0:0:0:
264,148,260795,1,0,0:0:0:0:
372,78,261022,1,0,0:0:0:0:
376,76,261136,1,0,0:0:0:0:
388,212,261363,2,0,P|345:278|306:289,1,90,8|0,0:0|0:0,0:0:0:0:
186,302,261818,5,2,0:0:0:0:
111,215,262045,1,0,0:0:0:0:
109,210,262158,1,0,0:0:0:0:
108,204,262272,2,0,P|144:136|184:120,1,90,8|0,0:0|0:0,0:0:0:0:
184,112,262613,2,0,P|248:100|296:116,1,90,0|10,0:0|0:0,0:0:0:0:
304,116,262954,2,0,P|344:156|360:200,1,90,0|8,0:0|0:0,0:0:0:0:
260,280,263408,1,0,0:0:0:0:
388,320,263636,5,4,0:0:0:0:
156,186,264090,2,0,P|96:154|88:106,1,90
120,120,264431,1,0,0:0:0:0:
156,115,264545,2,0,P|212:143|224:183,1,90,8|0,0:0|0:0,0:0:0:0:
204,236,264999,2,0,P|272:219|292:184,1,90
284,132,265454,1,2,0:0:0:0:
352,260,265908,6,0,P|404:232|416:188,1,90
424,172,266249,1,0,0:0:0:0:
420,136,266363,2,0,P|388:80|344:72,1,90,8|0,0:0|0:0,0:0:0:0:
350,144,266818,2,0,P|298:100|298:48,1,90
320,15,267272,5,2,0:0:0:0:
248,24,267499,1,0,0:0:0:0:
200,76,267727,1,0,0:0:0:0:
204,148,267954,1,0,0:0:0:0:
244,208,268181,1,8,0:0:0:0:
260,280,268408,1,0,0:0:0:0:
228,344,268636,1,0,0:0:0:0:
160,372,268863,1,0,0:0:0:0:
88,364,269090,6,0,P|40:316|40:288,1,90,2|0,0:0|0:0,0:0:0:0:
44,260,269431,1,0,0:0:0:0:
60,228,269545,2,0,P|96:188|100:140,1,90
88,120,269886,1,0,0:0:0:0:
148,80,270113,1,0,0:0:0:0:
148,80,270227,1,0,0:0:0:0:
132,221,270454,2,0,P|188:213|216:185,1,90
152,152,270908,5,4,0:0:0:0:
216,120,271136,2,0,P|264:56|308:56,2,90
288,124,271818,1,0,0:0:0:0:
352,156,272045,1,0,0:0:0:0:
392,216,272272,1,0,0:0:0:0:
400,288,272499,1,0,0:0:0:0:
332,260,272727,6,0,P|284:236|224:268,2,90,0|0|0,0:0|0:0|0:0,0:0:0:0:
280,308,273408,1,0,0:0:0:0:
212,332,273636,1,0,0:0:0:0:
140,320,273863,1,0,0:0:0:0:
80,276,274090,1,0,0:0:0:0:
52,208,274318,1,0,0:0:0:0:
64,136,274545,6,0,P|84:92|124:68,1,90
152,60,274886,1,0,0:0:0:0:
188,64,274999,2,0,P|244:96|260:132,1,90
292,180,275454,1,0,0:0:0:0:
332,240,275681,2,0,P|380:272|428:264,1,90
396,200,276136,6,0,P|440:204|473:233,1,90
484,268,276477,1,0,0:0:0:0:
476,304,276590,1,0,0:0:0:0:
452,332,276704,1,0,0:0:0:0:
416,344,276818,1,0,0:0:0:0:
348,320,277045,1,0,0:0:0:0:
348,320,277158,1,0,0:0:0:0:
280,348,277386,1,0,0:0:0:0:
280,348,277499,1,0,0:0:0:0:
216,316,277727,1,0,0:0:0:0:
