osu file format v14

[General]
AudioFilename: Harvest of Dreams.mp3
AudioLeadIn: 0
PreviewTime: 74545
Countdown: 0
SampleSet: Soft
StackLeniency: 0.4
Mode: 0
LetterboxInBreaks: 1
WidescreenStoryboard: 1

[Editor]
Bookmarks: 16363,30908,59999,74545,103636,118181,132727,161818,176363,205454,219999,234545,263636
DistanceSpacing: 1.3
BeatDivisor: 4
GridSize: 4
TimelineZoom: 1

[Metadata]
Title:Harvest of Dreams
TitleUnicode:Harvest of Dreams
Artist:ThatSonofaMitch and Stormwolf feat. Chichi and MictheMicrophone
ArtistUnicode:ThatSonofaMitch and Stormwolf feat. Chichi and MictheMicrophone
Creator:Firmatorenio
Version:Hard
Source:
Tags:mlp pony carrot_top carrrrrrrrrrrrrot
BeatmapID:913516
BeatmapSetID:276645

[Difficulty]
HPDrainRate:6
CircleSize:4
OverallDifficulty:6
ApproachRate:7
SliderMultiplier:1.5
SliderTickRate:2

[Events]
//Background and Video events
0,0,"HarvestofDreamsbackground.jpg",0,0
//Break Periods
2,60199,70918
2,103836,114554
2,162018,172736
2,205654,216372
//Storyboard Layer 0 (Background)
//Storyboard Layer 1 (Fail)
//Storyboard Layer 2 (Pass)
//Storyboard Layer 3 (Foreground)
//Storyboard Sound Samples

[TimingPoints]
1818,454.545454545455,4,2,0,72,1,0
74545,-100,4,2,0,72,0,1
103636,-100,4,2,0,72,0,0
118181,-100,4,2,0,72,0,1
132727,-100,4,2,0,72,0,0
176363,-100,4,2,0,72,0,1
205454,-100,4,2,0,72,0,0

[HitObjects]
60,172,1818,5,4,0:0:0:0:
192,100,2272,2,0,P|256:65|320:100,1,150
256,140,2954,1,0,0:0:0:0:
219,205,3181,1,0,0:0:0:0:
293,203,3408,1,0,0:0:0:0:
72,256,4090,6,0,P|36:192|72:128,1,150
112,191,4772,1,0,0:0:0:0:
177,154,4999,1,0,0:0:0:0:
175,229,5227,1,0,0:0:0:0:
240,192,5454,5,0,0:0:0:0:
285,132,5681,1,0,0:0:0:0:
347,90,5908,1,0,0:0:0:0:
422,84,6136,1,0,0:0:0:0:
489,117,6363,1,0,0:0:0:0:
427,160,6590,1,0,0:0:0:0:
377,216,6818,1,0,0:0:0:0:
353,286,7045,1,0,0:0:0:0:
347,360,7272,6,0,P|295:336|281:297,2,75
416,330,7954,1,0,0:0:0:0:
484,196,8408,1,0,0:0:0:0:
442,133,8636,2,0,P|402:93|362:89,1,75
311,100,9090,6,0,P|251:84|235:-8,1,150,4|0,0:0|0:0,0:0:0:0:
299,28,9772,2,0,P|239:92|263:156,1,150
321,177,10454,1,0,0:0:0:0:
360,240,10681,1,0,0:0:0:0:
285,245,10908,6,0,P|249:295|157:279,1,150
213,231,11590,2,0,P|252:309|320:308,1,150
356,256,12272,1,0,0:0:0:0:
381,326,12499,1,0,0:0:0:0:
429,268,12727,6,0,P|479:232|463:140,1,150
415,196,13409,2,0,P|493:235|492:303,1,150
445,343,14090,1,0,0:0:0:0:
370,331,14318,1,0,0:0:0:0:
321,273,14545,5,0,1:0:0:0:
298,201,14772,1,0,0:0:0:0:
262,134,14999,1,0,1:0:0:0:
204,85,15227,2,0,P|148:61|64:93,1,150,0|0,0:0|1:0,0:0:0:0:
18,164,15908,1,8,1:2:0:0:
16,172,16022,1,0,0:0:0:0:
15,180,16136,1,0,1:0:0:0:
62,298,16363,6,0,P|134:338|214:322,1,150,4|8,0:0|0:0,0:0:0:0:
181,233,17045,1,0,0:0:0:0:
206,230,17158,1,0,0:0:0:0:
231,222,17272,2,0,P|268:186|274:157,1,75
272,130,17613,2,0,P|279:74|320:37,1,112.5
404,84,18181,6,2,P|437:115|439:175,2,75,2|0|10,0:0|0:0|0:0,0:0:0:0:
347,164,18863,1,0,0:0:0:0:
326,147,18977,2,0,P|259:109|205:120,1,112.5
129,98,19545,1,8,0:0:0:0:
154,191,19772,1,0,0:0:0:0:
155,288,19999,6,0,P|183:312|228:320,2,75,2|0|8,0:0|0:0|0:0,0:0:0:0:
81,223,20681,1,0,0:0:0:0:
52,129,20908,2,0,P|78:100|133:93,1,75
156,3,21363,2,0,P|194:1|224:20,1,75,8|0,0:0|0:0,0:0:0:0:
274,104,21818,6,0,P|321:126|365:123,1,75,2|0,0:0|0:0,0:0:0:0:
380,120,22158,2,0,P|413:166|406:211,1,75
441,208,22499,2,0,P|414:266|368:282,1,112.5,0|8,0:0|0:0,0:0:0:0:
338,262,22954,1,0,0:0:0:0:
267,328,23181,2,0,P|215:316|191:282,1,75,8|0,0:0|0:0,0:0:0:0:
202,205,23636,6,0,P|146:145|138:69,1,150,4|8,0:0|0:0,0:0:0:0:
231,103,24318,1,0,0:0:0:0:
248,122,24431,1,0,0:0:0:0:
270,135,24545,2,0,P|318:145|361:135,1,75
437,165,24999,2,0,P|403:218|368:234,1,75,8|0,0:0|0:0,0:0:0:0:
398,321,25454,6,0,P|315:359|235:341,1,150,2|8,0:0|0:0,0:0:0:0:
194,278,26136,2,2,P|172:252|132:237,1,75,0|0,0:0|0:0,0:0:0:0:
47,194,26590,1,0,0:0:0:0:
131,140,26818,2,0,P|167:148|204:139,1,75,8|0,0:0|0:0,0:0:0:0:
249,53,27272,6,0,P|293:97|293:125,1,75,2|0,0:0|0:0,0:0:0:0:
298,132,27613,1,0,0:0:0:0:
297,155,27727,1,8,0:0:0:0:
237,232,27954,1,0,0:0:0:0:
202,323,28181,2,0,L|151:335,3,37.5
149,297,28636,2,0,L|110:295,3,37.5,8|0|0|0,0:0|0:0|0:0|0:0,0:0:0:0:
99,260,29090,6,0,P|58:213|57:168,1,75,2|0,0:0|0:0,0:0:0:0:
23,182,29431,2,0,P|18:121|45:85,1,75
25,72,29772,2,0,P|70:20|134:10,1,112.5,0|8,0:0|0:0,0:0:0:0:
147,13,30227,1,0,0:0:0:0:
239,41,30454,1,8,0:0:0:0:
281,120,30681,1,0,0:0:0:0:
254,205,30908,5,4,0:0:0:0:
179,251,31136,2,0,P|147:303|159:343,1,75,0|8,0:0|0:0,0:0:0:0:
222,310,31590,2,0,P|200:366|174:382,2,75
147,315,32272,2,0,P|111:279|111:227,1,75,8|0,0:0|0:0,0:0:0:0:
108,181,32727,6,0,P|136:113|92:57,1,150,2|8,0:0|0:0,0:0:0:0:
64,125,33408,2,0,P|148:121|176:181,1,150
155,243,34090,2,0,P|177:286|206:301,1,75,8|0,0:0|0:0,0:0:0:0:
228,230,34545,6,0,P|264:186|364:210,1,150,2|8,0:0|0:0,0:0:0:0:
302,252,35227,2,0,P|342:268|390:256,1,75
422,208,35681,1,0,0:0:0:0:
398,136,35908,1,8,0:0:0:0:
329,105,36136,1,0,0:0:0:0:
254,105,36363,6,0,P|158:121|142:181,1,150,2|8,0:0|0:0,0:0:0:0:
216,168,37045,2,0,P|144:236|117:233,1,112.5,0|8,0:0|0:0,0:0:0:0:
105,229,37499,1,0,0:0:0:0:
142,163,37727,2,0,P|86:155|50:179,1,75,8|0,0:0|0:0,0:0:0:0:
31,225,38181,6,0,P|47:281|151:293,1,150,4|8,0:0|0:0,0:0:0:0:
182,252,38863,1,0,0:0:0:0:
216,185,39090,1,0,0:0:0:0:
263,126,39318,1,0,0:0:0:0:
330,93,39545,1,8,0:0:0:0:
404,94,39772,1,0,0:0:0:0:
465,136,39999,6,0,P|477:184|461:212,1,75,2|0,0:0|0:0,0:0:0:0:
396,179,40454,2,0,P|408:227|392:255,1,75,8|0,0:0|0:0,0:0:0:0:
329,218,40908,2,0,P|341:266|325:294,2,75,0|0|8,0:0|0:0|0:0,0:0:0:0:
282,158,41590,1,0,0:0:0:0:
214,125,41818,6,0,P|154:79|166:5,1,150,2|8,0:0|0:0,0:0:0:0:
222,53,42499,2,0,P|154:81|150:161,1,150
214,125,43181,2,0,P|158:78|77:119,1,150,8|2,0:0|0:0,0:0:0:0:
144,150,43863,2,0,P|158:71|96:25,1,150
91,99,44545,2,0,P|68:147|81:189,1,75
112,228,44999,1,8,0:0:0:0:
186,234,45227,1,0,0:0:0:0:
237,179,45454,6,0,P|301:122|382:144,1,150,4|8,0:0|0:0,0:0:0:0:
490,274,46363,2,0,P|426:331|345:309,1,150,0|8,0:0|0:0,0:0:0:0:
292,317,47045,1,0,0:0:0:0:
226,354,47272,6,0,P|175:336|157:288,2,75,2|0|8,0:0|0:0|0:0,0:0:0:0:
225,280,47954,2,0,P|264:232|354:232,1,150
416,258,48636,1,8,0:0:0:0:
410,183,48863,1,0,0:0:0:0:
381,109,49090,6,0,P|325:36|250:57,2,150,2|8|0,0:0|0:0|0:0,0:0:0:0:
305,110,50227,1,0,0:0:0:0:
344,173,50454,1,8,0:0:0:0:
269,174,50681,1,0,0:0:0:0:
228,110,50908,5,2,0:0:0:0:
195,177,51136,1,0,0:0:0:0:
235,240,51363,1,8,0:0:0:0:
309,238,51590,2,0,P|361:246|416:186,1,112.5,0|8,0:0|0:0,0:0:0:0:
420,176,52045,1,0,0:0:0:0:
385,108,52272,1,8,0:0:0:0:
320,69,52499,1,0,0:0:0:0:
245,59,52727,5,4,0:0:0:0:
298,198,53181,2,0,P|386:234|450:190,2,150,8|0|8,0:0|0:0|0:0,0:0:0:0:
250,139,54318,1,0,0:0:0:0:
184,175,54545,5,2,0:0:0:0:
144,111,54772,1,0,0:0:0:0:
76,143,54999,1,8,0:0:0:0:
115,207,55227,2,0,P|171:259|247:255,1,150
292,203,55908,2,0,P|316:175|380:171,1,75,8|0,0:0|0:0,0:0:0:0:
425,152,56363,6,0,P|457:88|417:28,1,150,2|8,0:0|0:0,0:0:0:0:
385,93,57045,2,2,P|462:89|494:164,1,150,0|0,0:0|0:0,0:0:0:0:
464,213,57727,2,0,P|420:225|380:209,1,75,8|0,0:0|0:0,0:0:0:0:
331,175,58181,5,2,0:0:0:0:
180,174,58636,1,2,0:0:0:0:
256,302,59090,1,2,0:0:0:0:
292,236,59318,1,0,0:0:0:0:
256,224,59431,1,0,0:0:0:0:
220,235,59545,1,8,0:0:0:0:
256,301,59772,1,0,0:0:0:0:
256,301,59999,1,4,0:0:0:0:
256,192,71818,12,8,74090,0:0:0:0:
436,184,74545,6,0,P|388:100|332:84,1,150,4|8,0:0|0:0,0:0:0:0:
272,153,75227,1,0,0:0:0:0:
236,62,75454,1,0,0:0:0:0:
173,136,75681,1,0,0:0:0:0:
204,227,75908,1,8,0:0:0:0:
108,207,76136,1,0,0:0:0:0:
74,115,76363,6,0,P|14:167|14:247,1,150,2|8,0:0|0:0,0:0:0:0:
67,312,77045,2,0,P|115:332|159:316,1,75
222,282,77499,1,0,0:0:0:0:
275,199,77727,2,0,P|307:159|351:143,1,75,8|0,0:0|0:0,0:0:0:0:
421,123,78181,6,0,P|465:55|433:-5,1,150,2|8,0:0|0:0,0:0:0:0:
391,57,78863,2,0,P|475:73|479:160,1,150
454,217,79545,1,8,0:0:0:0:
372,270,79772,1,0,0:0:0:0:
277,292,79999,5,2,0:0:0:0:
143,231,80340,1,2,0:0:0:0:
277,174,80681,2,0,P|245:118|193:86,1,112.5,2|8,0:0|0:0,0:0:0:0:
169,83,81136,1,0,0:0:0:0:
72,97,81363,1,8,0:0:0:0:
24,182,81590,1,0,0:0:0:0:
71,267,81818,6,0,P|127:315|203:291,1,150,4|8,0:0|0:0,0:0:0:0:
228,206,82499,1,0,0:0:0:0:
245,109,82727,1,0,0:0:0:0:
337,79,82954,1,0,0:0:0:0:
411,142,83181,1,8,0:0:0:0:
393,237,83408,1,0,0:0:0:0:
302,273,83636,6,0,P|369:330|441:318,1,150,2|8,0:0|0:0,0:0:0:0:
485,247,84318,2,0,P|473:195|497:159,1,75
391,136,84772,2,0,P|403:84|379:48,1,75,0|8,0:0|0:0,0:0:0:0:
308,20,85227,1,0,0:0:0:0:
221,63,85454,6,0,P|177:123|229:199,1,150,2|8,0:0|0:0,0:0:0:0:
251,130,86136,2,0,P|175:122|147:50,1,150
63,8,86818,2,0,P|47:68|55:88,1,75,8|0,0:0|0:0,0:0:0:0:
82,169,87272,6,0,P|130:237|202:225,1,150,2|8,0:0|0:0,0:0:0:0:
271,179,87954,2,0,P|323:147|403:163,1,112.5,0|8,0:0|0:0,0:0:0:0:
408,159,88408,1,0,0:0:0:0:
358,243,88636,1,8,0:0:0:0:
266,275,88863,1,0,0:0:0:0:
169,265,89090,6,0,P|114:210|117:135,1,150,4|8,0:0|0:0,0:0:0:0:
204,189,89772,1,0,0:0:0:0:
242,277,89999,2,0,P|217:322|185:336,1,75
302,322,90454,2,0,P|315:264|290:226,1,75,8|0,0:0|0:0,0:0:0:0:
367,178,90908,6,0,P|379:82|311:50,1,150,2|8,0:0|0:0,0:0:0:0:
319,124,91590,2,0,P|379:108|439:178,1,150
430,261,92272,2,0,P|402:317|378:329,1,75,8|0,0:0|0:0,0:0:0:0:
302,358,92727,5,2,0:0:0:0:
204,365,92954,2,0,P|156:345|128:305,1,75,0|8,0:0|0:0,0:0:0:0:
234,294,93408,2,0,P|346:242|366:194,1,150
259,211,94090,2,0,P|192:192|170:162,1,75,8|0,0:0|0:0,0:0:0:0:
265,128,94545,6,0,P|325:128|397:68,1,150,2|8,0:0|0:0,0:0:0:0:
298,53,95227,2,0,P|234:49|190:89,1,112.5,0|8,0:0|0:0,0:0:0:0:
172,104,95681,1,0,0:0:0:0:
137,194,95908,1,8,0:0:0:0:
198,269,96136,1,0,0:0:0:0:
294,257,96363,6,0,P|352:213|346:135,1,150,4|8,0:0|0:0,0:0:0:0:
256,170,97045,1,0,0:0:0:0:
176,113,97272,2,0,P|156:153|168:205,1,75
209,265,97727,1,8,0:0:0:0:
298,302,97954,1,0,0:0:0:0:
394,292,98181,6,0,P|454:244|466:172,1,150,2|8,0:0|0:0,0:0:0:0:
368,173,98863,2,0,P|400:101|416:93,2,75
297,104,99545,2,0,P|297:148|281:176,1,75,8|0,0:0|0:0,0:0:0:0:
206,113,99999,6,0,P|226:21|294:13,1,150,2|8,0:0|0:0,0:0:0:0:
272,81,100681,2,0,P|204:41|140:77,1,150
92,151,101363,2,0,P|80:211|96:239,1,75,8|0,0:0|0:0,0:0:0:0:
135,305,101818,5,4,0:0:0:0:
257,226,102158,1,4,0:0:0:0:
379,305,102499,2,0,P|423:249|419:169,1,150,4|0,0:0|0:0,0:0:0:0:
370,89,103181,1,8,0:0:0:0:
281,49,103408,1,0,0:0:0:0:
187,77,103636,1,4,0:0:0:0:
256,192,115454,12,8,117727,0:0:0:0:
26,176,118181,6,0,P|50:128|82:112,1,75,4|0,0:0|0:0,0:0:0:0:
169,93,118636,1,8,0:0:0:0:
262,149,118863,1,0,0:0:0:0:
262,149,118977,1,0,0:0:0:0:
262,149,119090,1,0,0:0:0:0:
335,73,119318,1,0,0:0:0:0:
436,47,119545,1,8,0:0:0:0:
443,253,119999,6,0,P|432:293|393:318,1,75,2|0,0:0|0:0,0:0:0:0:
309,273,120454,2,0,P|261:249|229:253,1,75,8|0,0:0|0:0,0:0:0:0:
141,282,120908,2,0,P|89:254|73:218,1,75
56,139,121363,2,0,P|84:91|116:75,1,75,8|0,0:0|0:0,0:0:0:0:
198,115,121818,5,2,0:0:0:0:
198,115,121931,1,0,0:0:0:0:
198,115,122045,1,0,0:0:0:0:
276,45,122272,2,0,P|306:51|352:102,1,75,8|0,0:0|0:0,0:0:0:0:
402,163,122727,1,0,0:0:0:0:
402,163,122840,1,0,0:0:0:0:
402,163,122954,1,0,0:0:0:0:
475,237,123181,2,0,P|466:277|426:308,1,75,8|0,0:0|0:0,0:0:0:0:
342,331,123636,6,0,P|257:338|190:272,1,150,2|8,0:0|0:0,0:0:0:0:
106,270,124318,1,0,0:0:0:0:
85,253,124431,2,0,P|60:204|72:160,1,75,0|8,0:0|0:0,0:0:0:0:
71,161,124772,1,0,0:0:0:0:
137,80,124999,1,8,0:0:0:0:
180,175,125227,1,0,0:0:0:0:
268,230,125454,6,0,P|310:218|336:171,1,75
297,95,125908,2,0,P|268:135|269:168,1,75,8|0,0:0|0:0,0:0:0:0:
370,137,126363,1,0,0:0:0:0:
370,137,126477,1,0,0:0:0:0:
370,137,126590,1,0,0:0:0:0:
336,37,126818,2,0,P|280:26|245:50,1,75,8|0,0:0|0:0,0:0:0:0:
199,113,127272,5,2,0:0:0:0:
199,113,127386,1,0,0:0:0:0:
199,113,127499,1,0,0:0:0:0:
154,17,127727,1,8,0:0:0:0:
96,104,127954,2,0,P|97:148|133:190,1,75
199,113,128408,1,0,0:0:0:0:
287,55,128636,2,0,P|304:87|303:124,1,75,8|0,0:0|0:0,0:0:0:0:
239,208,129090,5,2,0:0:0:0:
343,222,129318,1,0,0:0:0:0:
343,222,129431,1,0,0:0:0:0:
343,222,129545,1,8,0:0:0:0:
303,124,129772,1,0,0:0:0:0:
277,108,129886,2,0,P|230:100|196:112,1,75
180,124,130227,1,0,0:0:0:0:
118,209,130454,1,8,0:0:0:0:
15,190,130681,1,0,0:0:0:0:
42,291,130908,6,0,B|148:313|188:170|327:181,1,300,2|0,0:0|0:0,0:0:0:0:
417,183,132045,1,0,0:0:0:0:
488,105,132272,1,8,0:0:0:0:
388,74,132499,1,0,0:0:0:0:
286,45,132727,6,0,P|226:53|202:81,2,75,4|0|8,0:0|0:0|0:0,0:0:0:0:
265,117,133408,1,0,0:0:0:0:
192,138,133636,2,0,P|248:190|323:165,1,150,0|8,0:0|0:0,0:0:0:0:
366,120,134318,1,0,0:0:0:0:
434,89,134545,6,0,P|454:145|454:181,1,75,2|0,0:0|0:0,0:0:0:0:
436,232,134999,1,8,0:0:0:0:
382,285,135227,2,0,P|326:309|246:245,1,150
227,196,135908,2,0,P|191:160|147:156,1,75,8|0,0:0|0:0,0:0:0:0:
95,171,136363,6,0,P|75:251|139:299,1,150,2|8,0:0|0:0,0:0:0:0:
143,226,137045,2,0,P|59:234|19:179,1,150
35,114,137727,1,8,0:0:0:0:
82,56,137954,6,0,P|118:32|166:36,2,75,0|2|0,0:0|0:0|0:0,0:0:0:0:
110,125,138636,1,8,0:0:0:0:
173,164,138863,2,0,P|265:180|299:154,1,112.5,0|8,0:0|0:0,0:0:0:0:
307,150,139318,1,0,0:0:0:0:
375,115,139545,2,0,P|434:117|454:141,1,75,8|0,0:0|0:0,0:0:0:0:
401,186,139999,6,0,P|345:246|369:310,1,150,4|8,0:0|0:0,0:0:0:0:
417,256,140681,2,0,P|345:234|337:150,1,150
401,186,141363,2,0,P|349:238|265:202,1,150,8|2,0:0|0:0,0:0:0:0:
330,167,142045,2,0,P|350:243|286:295,1,150
230,298,142727,2,0,P|170:294|146:262,1,75
136,215,143181,2,0,P|196:219|220:251,1,75,8|0,0:0|0:0,0:0:0:0:
279,238,143636,6,0,P|327:218|347:182,1,75,2|0,0:0|0:0,0:0:0:0:
342,125,144090,1,8,0:0:0:0:
304,59,144318,1,0,0:0:0:0:
236,26,144545,2,0,P|168:14|116:86,1,150,0|8,0:0|0:0,0:0:0:0:
191,84,145227,2,0,P|139:140|67:124,1,150
22,184,145908,5,8,0:0:0:0:
51,253,146136,2,0,P|51:302|116:350,1,112.5,0|8,0:0|0:0,0:0:0:0:
130,352,146590,1,0,0:0:0:0:
121,277,146818,2,0,P|117:217|97:193,1,75,8|0,0:0|0:0,0:0:0:0:
126,126,147272,6,0,P|226:102|266:158,1,150,4|8,0:0|0:0,0:0:0:0:
384,200,148181,2,0,P|284:224|244:168,1,150,0|8,0:0|0:0,0:0:0:0:
214,136,148863,1,0,0:0:0:0:
288,130,149090,2,0,P|376:102|424:166,1,150,2|8,0:0|0:0,0:0:0:0:
350,170,149772,2,0,P|352:98|276:58,1,150
217,51,150454,1,8,0:0:0:0:
151,86,150681,1,0,0:0:0:0:
113,150,150908,6,0,P|97:226|165:294,1,150,2|8,0:0|0:0,0:0:0:0:
206,309,151590,1,0,0:0:0:0:
279,324,151818,2,0,P|295:248|227:180,1,150,0|8,0:0|0:0,0:0:0:0:
184,169,152499,1,0,0:0:0:0:
240,119,152727,6,0,P|300:103|332:119,2,75,2|0|8,0:0|0:0|0:0,0:0:0:0:
168,96,153408,2,0,P|113:142|119:202,1,112.5,0|8,0:0|0:0,0:0:0:0:
124,214,153863,1,0,0:0:0:0:
193,241,154090,2,0,P|241:266|265:313,1,75,8|0,0:0|0:0,0:0:0:0:
275,353,154545,6,0,P|319:320|328:278,1,75,4|0,0:0|0:0,0:0:0:0:
344,230,154999,2,0,P|312:162|244:130,1,150,8|0,0:0|0:0,0:0:0:0:
174,110,155681,1,0,0:0:0:0:
155,183,155908,2,0,P|203:254|273:270,2,150,8|2|8,0:0|0:0|0:0,0:0:0:0:
101,129,157045,1,0,0:0:0:0:
33,263,157499,1,0,0:0:0:0:
82,319,157727,2,0,P|137:350|166:345,1,75,8|0,0:0|0:0,0:0:0:0:
221,346,158181,6,0,P|269:326|289:282,1,75,2|0,0:0|0:0,0:0:0:0:
237,247,158636,2,0,P|285:227|305:183,1,75,8|0,0:0|0:0,0:0:0:0:
253,149,159090,2,0,P|301:129|321:85,1,75
327,14,159545,2,0,P|302:42|267:51,1,75,8|0,0:0|0:0,0:0:0:0:
192,46,159999,6,0,P|108:74|96:130,1,150,2|8,0:0|0:0,0:0:0:0:
202,232,160908,1,0,0:0:0:0:
271,204,161136,1,0,0:0:0:0:
271,204,161249,1,0,0:0:0:0:
271,204,161363,1,8,0:0:0:0:
345,209,161590,1,0,0:0:0:0:
410,172,161818,1,4,0:0:0:0:
256,192,173636,12,8,175908,0:0:0:0:
464,32,176363,6,0,P|448:96|356:108,1,150,4|8,0:0|0:0,0:0:0:0:
281,84,177045,1,0,0:0:0:0:
184,93,177272,1,0,0:0:0:0:
99,141,177499,1,0,0:0:0:0:
53,227,177727,1,8,0:0:0:0:
72,322,177954,1,0,0:0:0:0:
150,264,178181,6,0,P|210:302|291:277,1,150,2|8,0:0|0:0,0:0:0:0:
229,198,178863,2,0,P|279:180|314:191,1,75
388,224,179318,1,0,0:0:0:0:
485,227,179545,2,0,P|493:187|470:138,1,75,8|0,0:0|0:0,0:0:0:0:
402,103,179999,6,0,P|332:70|326:3,1,150,2|8,0:0|0:0,0:0:0:0:
394,31,180681,2,0,P|330:87|358:159,1,150
426,191,181363,2,0,P|470:235|466:271,1,75,8|0,0:0|0:0,0:0:0:0:
409,320,181818,5,2,0:0:0:0:
273,266,182158,1,2,0:0:0:0:
139,207,182499,2,0,P|91:167|83:107,1,112.5,2|8,0:0|0:0,0:0:0:0:
89,83,182954,1,0,0:0:0:0:
160,17,183181,1,8,0:0:0:0:
188,110,183408,1,0,0:0:0:0:
261,45,183636,6,0,P|289:117|241:193,1,150,4|8,0:0|0:0,0:0:0:0:
164,202,184318,1,0,0:0:0:0:
215,284,184545,1,0,0:0:0:0:
299,235,184772,1,0,0:0:0:0:
381,286,184999,1,8,0:0:0:0:
433,203,185227,1,0,0:0:0:0:
499,274,185454,6,0,P|471:334|375:358,1,150,2|8,0:0|0:0,0:0:0:0:
298,361,186136,2,0,P|242:337|230:297,1,75
205,235,186590,2,0,P|179:208|143:201,1,75,0|8,0:0|0:0,0:0:0:0:
46,216,187045,1,0,0:0:0:0:
84,126,187272,6,0,P|144:70|216:102,1,150,2|8,0:0|0:0,0:0:0:0:
156,143,187954,2,0,P|136:75|60:55,1,150
8,132,188636,2,0,P|24:176|60:196,1,75,8|0,0:0|0:0,0:0:0:0:
138,221,189090,6,0,P|210:253|214:325,1,150,2|8,0:0|0:0,0:0:0:0:
150,293,189772,2,0,P|206:249|206:201,1,112.5,0|8,0:0|0:0,0:0:0:0:
198,177,190227,1,0,0:0:0:0:
168,84,190454,1,8,0:0:0:0:
227,6,190681,1,0,0:0:0:0:
273,93,190908,6,0,P|309:149|393:160,2,150,4|8|0,0:0|0:0|0:0,0:0:0:0:
367,67,192045,1,0,0:0:0:0:
465,94,192272,2,0,P|489:134|477:190,1,75,8|0,0:0|0:0,0:0:0:0:
453,256,192727,6,0,P|397:308|317:276,1,150,2|8,0:0|0:0,0:0:0:0:
381,236,193408,2,0,P|343:220|288:231,2,75
418,170,194090,2,0,P|364:144|322:150,1,75,8|0,0:0|0:0,0:0:0:0:
252,143,194545,5,2,0:0:0:0:
168,192,194772,2,0,P|104:216|80:208,2,75,0|8|0,0:0|0:0|0:0,0:0:0:0:
166,94,195454,1,0,0:0:0:0:
250,45,195681,1,0,0:0:0:0:
328,102,195908,2,0,P|340:154|324:186,1,75,8|0,0:0|0:0,0:0:0:0:
262,239,196363,6,0,P|174:254|121:205,1,150,2|8,0:0|0:0,0:0:0:0:
207,163,197045,2,0,P|291:143|327:171,1,112.5,0|8,0:0|0:0,0:0:0:0:
337,178,197499,1,0,0:0:0:0:
344,275,197727,1,8,0:0:0:0:
270,338,197954,1,0,0:0:0:0:
172,336,198181,6,0,P|100:300|92:220,1,150,4|8,0:0|0:0,0:0:0:0:
130,149,198863,1,0,0:0:0:0:
226,160,199090,1,0,0:0:0:0:
289,85,199318,1,0,0:0:0:0:
376,127,199545,1,8,0:0:0:0:
458,75,199772,1,0,0:0:0:0:
371,29,199999,6,0,P|303:61|283:137,1,150,2|8,0:0|0:0,0:0:0:0:
330,213,200681,1,0,0:0:0:0:
268,288,200908,2,0,P|216:308|176:296,1,75
108,266,201363,2,0,P|76:226|84:182,1,75,8|0,0:0|0:0,0:0:0:0:
89,107,201818,6,0,P|149:51|217:79,1,150,2|8,0:0|0:0,0:0:0:0:
161,125,202499,2,0,P|141:55|69:35,1,150
89,107,203181,2,0,P|149:51|217:75,1,150,8|4,0:0|0:0,0:0:0:0:
341,127,203977,5,4,0:0:0:0:
208,189,204318,2,0,P|252:257|308:269,1,112.5,6|8,0:0|0:0,0:0:0:0:
315,272,204772,1,0,0:0:0:0:
407,242,204999,1,8,0:0:0:0:
466,164,205227,1,0,0:0:0:0:
448,68,205454,1,4,0:0:0:0:
256,192,217272,12,8,219545,0:0:0:0:
512,360,219999,6,0,P|504:292|424:256,1,150,4|8,0:0|0:0,0:0:0:0:
344,225,220681,1,0,0:0:0:0:
322,209,220795,1,0,0:0:0:0:
298,198,220908,2,0,P|255:185|207:195,1,75
191,191,221249,2,0,P|134:166|109:92,1,112.5
206,95,221818,6,2,P|278:99|310:167,1,150,2|8,0:0|0:0,0:0:0:0:
237,162,222499,2,0,P|285:94|366:115,1,150
429,147,223181,2,0,P|459:200|456:228,1,75,8|0,0:0|0:0,0:0:0:0:
426,304,223636,6,0,P|366:336|290:304,1,150,2|8,0:0|0:0,0:0:0:0:
227,236,224318,1,0,0:0:0:0:
190,145,224545,2,0,P|186:97|202:69,2,75,0|0|8,0:0|0:0|0:0,0:0:0:0:
130,222,225227,1,0,0:0:0:0:
147,317,225454,6,0,P|187:345|223:341,1,75,2|0,0:0|0:0,0:0:0:0:
248,340,225795,2,0,P|284:320|300:292,1,75
305,254,226136,2,0,P|297:194|241:160,1,112.5,0|8,0:0|0:0,0:0:0:0:
224,169,226590,1,0,0:0:0:0:
126,166,226818,1,8,0:0:0:0:
36,128,227045,1,0,0:0:0:0:
110,65,227272,6,0,P|178:45|254:69,1,150,4|8,0:0|0:0,0:0:0:0:
342,110,227954,1,0,0:0:0:0:
368,136,228068,1,0,0:0:0:0:
386,168,228181,2,0,P|398:220|386:256,1,75
330,314,228636,2,0,P|274:334|238:322,1,75,8|0,0:0|0:0,0:0:0:0:
164,317,229090,6,0,P|104:277|88:193,1,150,2|8,0:0|0:0,0:0:0:0:
113,110,229772,1,0,0:0:0:0:
188,48,229999,1,0,0:0:0:0:
285,53,230227,1,0,0:0:0:0:
365,107,230454,2,0,P|380:154|368:195,1,75,8|0,0:0|0:0,0:0:0:0:
315,254,230908,5,2,0:0:0:0:
293,268,231022,1,0,0:0:0:0:
267,272,231136,2,0,P|223:270|192:246,1,75,0|8,0:0|0:0,0:0:0:0:
161,162,231590,1,0,0:0:0:0:
68,130,231818,2,0,L|70:73,3,37.5
104,78,232272,2,0,L|117:39,3,37.5,8|0|0|0,0:0|0:0|0:0|0:0,0:0:0:0:
147,65,232727,6,0,P|175:109|207:121,1,75,2|0,0:0|0:0,0:0:0:0:
211,138,233068,2,0,P|259:150|291:138,1,75
304,156,233408,2,0,P|377:137|412:82,1,112.5,0|8,0:0|0:0,0:0:0:0:
407,85,233863,1,0,0:0:0:0:
326,31,234090,1,8,0:0:0:0:
229,46,234318,1,0,0:0:0:0:
173,116,234545,6,0,P|143:195|169:258,1,150,4|8,0:0|0:0,0:0:0:0:
299,347,235454,1,0,0:0:0:0:
377,340,235681,2,0,P|407:318|423:285,1,75,0|8,0:0|0:0,0:0:0:0:
435,210,236136,1,0,0:0:0:0:
407,140,236363,6,0,P|379:96|291:64,1,150,2|8,0:0|0:0,0:0:0:0:
290,139,237045,2,0,P|254:147|218:139,1,75
213,63,237499,2,0,P|169:71|137:99,1,75,0|8,0:0|0:0,0:0:0:0:
108,154,237954,1,0,0:0:0:0:
105,228,238181,6,0,P|145:312|345:292,1,300,2|0,0:0|0:0,0:0:0:0:
368,245,239318,1,0,0:0:0:0:
368,170,239545,1,8,0:0:0:0:
338,101,239772,1,0,0:0:0:0:
275,59,239999,6,0,P|223:42|136:78,1,150,2|8,0:0|0:0,0:0:0:0:
78,122,240681,2,0,P|118:150|162:142,1,75
217,144,241136,2,0,P|213:180|189:208,1,75,0|8,0:0|0:0,0:0:0:0:
115,225,241590,1,0,0:0:0:0:
44,252,241818,6,0,P|100:308|304:264,1,300,4|0,0:0|0:0,0:0:0:0:
342,210,242954,1,0,0:0:0:0:
366,139,243181,2,0,P|371:121|371:100,8,37.5,8|0|0|0|2|0|0|0|8,0:0|0:0|0:0|0:0|0:0|0:0|0:0|0:0|0:0,0:0:0:0:
466,250,244545,2,0,P|434:294|398:302,1,75
341,304,244999,1,8,0:0:0:0:
290,248,245227,1,0,0:0:0:0:
273,174,245454,6,0,P|257:110|49:90,1,300,2|0,0:0|0:0,0:0:0:0:
16,143,246590,2,2,P|16:207|36:231,1,75,0|8,0:0|0:0,0:0:0:0:
83,255,247045,1,0,0:0:0:0:
157,250,247272,6,0,P|221:222|225:138,1,150,2|8,0:0|0:0,0:0:0:0:
162,177,247954,2,0,P|226:223|204:304,1,150
155,327,248636,2,0,P|91:331|67:311,1,75,8|0,0:0|0:0,0:0:0:0:
35,269,249090,6,0,P|47:201|255:141,1,300,4|0,0:0|0:0,0:0:0:0:
217,281,250454,1,8,0:0:0:0:
293,281,250681,1,0,0:0:0:0:
217,276,250908,1,2,0:0:0:0:
293,276,251135,1,0,0:0:0:0:
257,209,251363,2,0,P|313:201|365:297,1,150,8|0,0:0|0:0,0:0:0:0:
434,302,252045,1,0,0:0:0:0:
434,227,252272,2,0,P|414:185|364:168,1,75,8|0,0:0|0:0,0:0:0:0:
361,238,252727,6,0,P|253:322|141:234,1,300,2|0,0:0|0:0,0:0:0:0:
100,171,253863,1,0,0:0:0:0:
173,154,254090,1,8,0:0:0:0:
245,132,254318,1,0,0:0:0:0:
315,107,254545,6,0,P|303:179|227:203,1,150,0|8,0:0|0:0,0:0:0:0:
160,76,255454,2,0,P|104:112|96:144,1,75
65,182,255908,1,8,0:0:0:0:
75,256,256136,1,0,0:0:0:0:
119,315,256363,6,0,P|215:359|363:247,1,300,4|0,0:0|0:0,0:0:0:0:
358,181,257499,1,0,0:0:0:0:
294,221,257727,1,8,0:0:0:0:
291,146,257954,1,0,0:0:0:0:
228,187,258181,6,0,P|172:219|96:159,1,150,2|8,0:0|0:0,0:0:0:0:
168,147,258863,2,0,P|168:231|240:259,1,150
293,263,259545,2,0,P|345:251|361:231,1,75,8|0,0:0|0:0,0:0:0:0:
393,170,259999,6,0,P|389:102|305:58,1,150,2|8,0:0|0:0,0:0:0:0:
257,275,261136,2,0,P|297:283|349:255,1,75,0|8,0:0|0:0,0:0:0:0:
388,227,261590,1,0,0:0:0:0:
414,156,261818,6,0,P|410:88|394:68,1,75,2|0,0:0|0:0,0:0:0:0:
384,54,262158,2,0,P|340:22|288:24,1,75,0|0,0:0|0:0,0:0:0:0:
283,21,262499,2,0,P|228:47|206:109,1,112.5,0|8,0:0|0:0,0:0:0:0:
183,121,262954,1,0,0:0:0:0:
160,192,263181,1,8,0:0:0:0:
209,248,263408,1,0,0:0:0:0:
232,176,263636,6,0,P|256:113|183:48,2,150,4|0|8,0:0|0:0|0:0,0:0:0:0:
173,222,264772,2,0,P|135:229|94:206,1,75
49,162,265227,2,0,P|33:106|108:46,1,150
107,118,265908,6,0,P|167:49|144:-4,2,150,0|8|0,0:0|0:0|0:0,0:0:0:0:
121,191,267045,2,0,P|167:182|194:150,1,75,0|2,0:0|0:0,0:0:0:0:
229,101,267499,1,0,0:0:0:0:
278,44,267727,1,0,0:0:0:0:
345,11,267954,1,0,0:0:0:0:
419,15,268181,1,8,0:0:0:0:
474,64,268408,1,0,0:0:0:0:
476,139,268636,1,0,0:0:0:0:
438,203,268863,1,0,0:0:0:0:
363,212,269090,6,0,P|340:212|296:183,1,75
158,242,269772,1,0,0:0:0:0:
139,223,269886,1,0,0:0:0:0:
126,200,269999,2,0,P|129:148|142:128,1,75,8|0,0:0|0:0,0:0:0:0:
207,95,270454,1,0,0:0:0:0:
275,125,270681,1,0,0:0:0:0:
284,197,270908,6,0,P|332:237|423:194,1,150,4|0,0:0|0:0,0:0:0:0:
352,165,271590,2,0,P|335:252|259:268,1,150
216,241,272272,1,0,0:0:0:0:
172,179,272499,1,0,0:0:0:0:
152,106,272727,6,0,P|180:38|256:33,1,150
224,98,273408,2,0,P|189:42|102:52,1,150
101,118,274090,1,0,0:0:0:0:
145,178,274318,1,0,0:0:0:0:
219,174,274545,6,0,P|307:186|327:244,1,150
254,239,275227,2,0,P|291:165|250:105,1,150
218,173,275908,2,0,P|188:123|197:82,1,75
231,46,276363,1,0,0:0:0:0:
158,43,276590,2,0,P|134:58|120:123,1,75
188,108,277045,2,0,P|122:172|46:85,1,225
