osu file format v14

[General]
AudioFilename: audio.mp3
AudioLeadIn: 0
PreviewTime: 33730
Countdown: 0
SampleSet: Soft
StackLeniency: 0.7
Mode: 0
LetterboxInBreaks: 0
WidescreenStoryboard: 1

[Editor]
Bookmarks: 106162,170272
DistanceSpacing: 1
BeatDivisor: 4
GridSize: 4
TimelineZoom: 1

[Metadata]
Title:Lowlife
TitleUnicode:Lowlife
Artist:That Poppy
ArtistUnicode:That Poppy
Creator:Pappy
Version:Simple
Source:
Tags:that illuminati bubblebath
BeatmapID:1406790
BeatmapSetID:664720

[Difficulty]
HPDrainRate:4
CircleSize:3
OverallDifficulty:4
ApproachRate:4
SliderMultiplier:1.2
SliderTickRate:1

[Events]
//Background and Video events
0,0,"wallhaven-353788.jpg",0,0
//Break Periods
2,60335,63746
2,119513,121280
2,149102,157445
//Storyboard Layer 0 (Background)
//Storyboard Layer 1 (Fail)
//Storyboard Layer 2 (Pass)
//Storyboard Layer 3 (Foreground)
//Storyboard Sound Samples

[TimingPoints]
957,410.958904109589,4,2,1,80,1,0
20683,-125,4,2,1,70,0,0
27258,-111.111111111111,4,2,1,70,0,0
33833,-100,4,2,1,90,0,1
60135,-100,4,2,1,70,0,0
79861,-125,4,2,1,70,0,0
86436,-111.111111111111,4,2,1,70,0,0
93011,-100,4,2,1,90,0,1
119313,-100,4,2,1,75,0,0
122600,-125,4,2,1,75,0,0
162052,-100,4,2,1,90,0,1
173559,-100,4,1,1,60,0,1
174176,-100,4,1,1,80,0,1
175100,-100,4,2,1,90,0,0
175203,-100,4,2,1,90,0,1
175306,-100,4,2,1,90,0,0

[Colours]
Combo1 : 238,226,254
Combo2 : 237,167,239

[HitObjects]
320,192,957,6,0,P|378:204|436:191,2,120,0|2|8,1:0|0:0|0:0,0:0:0:0:
256,92,2189,1,2,0:0:0:0:
192,192,2600,2,0,P|133:204|75:191,2,120,0|2|8,1:0|0:0|0:0,0:0:0:0:
256,92,3833,1,2,0:0:0:0:
312,76,4039,1,0,0:0:0:0:
368,60,4244,6,0,B|408:76|408:76|434:148,1,120,0|2,1:0|0:0,0:0:0:0:
404,264,5066,2,0,B|364:248|364:248|337:175,1,120,8|2,0:0|0:0,0:0:0:0:
256,92,5888,6,0,B|216:84|216:84|184:104|184:104|132:96|88:128,2,180,0|0|0,1:0|0:0|1:0,0:0:0:0:
364,44,7532,5,0,1:0:0:0:
351,161,7943,1,2,0:0:0:0:
372,216,8148,1,0,0:0:0:0:
396,272,8354,2,0,P|388:330|350:376,1,120,8|2,0:0|0:0,0:0:0:0:
256,304,9176,1,0,1:0:0:0:
145,258,9587,1,2,0:0:0:0:
161,376,9998,2,0,L|102:365,2,60,8|0|2,0:0|0:0|0:0,0:0:0:0:
256,304,10820,6,0,L|256:184,1,120,0|2,1:0|0:0,0:0:0:0:
256,124,11436,1,0,0:0:0:0:
256,123,11641,2,0,P|314:111|372:124,1,120,8|2,0:0|0:0,0:0:0:0:
492,140,12463,2,0,B|482:194|442:222|442:222|444:268|408:292,2,180,0|2|2,1:0|0:0|0:0,0:0:0:0:
372,124,14107,5,0,1:0:0:0:
255,87,14518,2,0,P|198:72|141:88,2,120,2|8|2,0:0|0:0|0:0,0:0:0:0:
256,148,15546,1,0,0:0:0:0:
256,208,15751,2,0,P|313:223|370:207,1,120,0|2,1:0|0:0,0:0:0:0:
492,192,16573,2,0,L|480:72,1,120,8|2,0:0|0:0,0:0:0:0:
360,52,17395,5,0,1:0:0:0:
256,108,17806,2,0,B|180:136|112:88|112:88|68:104|68:104|28:90,1,240,2|2,0:0|0:0,0:0:0:0:
104,184,19039,2,0,B|132:268|132:268|96:296|85:344,2,180,0|2|2,1:0|0:0|0:0,0:0:0:0:
76,132,20477,1,0,0:0:0:0:
48,80,20683,6,0,P|138:108|228:79,1,192,2|2,0:0|0:0,0:0:0:0:
324,79,21915,1,2,0:0:0:0:
420,79,22326,2,0,L|408:232,2,144,2|2|0,0:0|0:0|0:0,0:0:0:0:
323,79,23970,6,0,B|228:108|228:56|133:79,1,192,0|2,0:0|0:0,0:0:0:0:
180,164,25203,1,2,0:0:0:0:
180,164,25614,2,0,B|168:260|168:260|136:296,2,144,2|2|0,0:0|0:0|0:0,0:0:0:0:
188,116,27052,1,2,0:0:0:0:
206,65,27258,6,0,P|256:47|306:65,1,107.999996704102,2|2,0:0|0:0,0:0:0:0:
382,141,28080,2,0,P|432:158|482:140,1,107.999996704102,2|2,0:0|0:0,0:0:0:0:
432,44,28902,2,0,L|432:264,1,215.999993408203,2|2,0:0|0:0,0:0:0:0:
344,324,30135,1,2,0:0:0:0:
256,260,30546,5,2,1:2:0:0:
168,324,30957,1,2,1:2:0:0:
104,236,31367,1,2,1:2:0:0:
192,172,31778,1,2,1:2:0:0:
256,260,32189,2,0,L|309:253,3,53.9999983520508,2|2|2|2,1:2|1:2|1:2|1:2,0:0:0:0:
363,253,33011,2,0,L|416:246,3,53.9999983520508,2|0|8|0,1:2|1:0|1:2|1:0,0:0:0:0:
476,246,33833,6,0,B|503:192|503:192|476:139,1,120,4|2,1:2|0:0,0:0:0:0:
420,32,34655,2,0,P|447:20|477:19,2,60,8|0|2,0:0|0:0|0:0,0:0:0:0:
316,92,35477,1,2,1:2:0:0:
196,92,35888,1,0,0:0:0:0:
92,32,36299,2,0,P|64:20|34:19,2,60,8|0|2,0:0|0:0|0:0,0:0:0:0:
36,139,37121,6,0,B|9:192|9:192|36:246,1,120,0|2,1:0|0:0,0:0:0:0:
144,192,37943,2,0,B|171:245|171:245|144:299,1,120,8|2,0:0|0:0,0:0:0:0:
256,344,38765,2,0,P|285:348|315:344,1,60,0|2,1:0|0:0,0:0:0:0:
372,328,39176,2,0,P|401:323|431:327,1,60,2|2,0:0|0:0,0:0:0:0:
488,345,39587,1,10,0:0:0:0:
460,228,39998,1,2,0:0:0:0:
431,110,40409,6,0,P|373:99|314:111,1,120,4|2,1:2|0:0,0:0:0:0:
197,111,41230,2,0,P|167:116|138:110,2,60,8|0|2,0:0|0:0|0:0,0:0:0:0:
256,216,42052,2,0,L|256:344,1,120,0|2,1:0|0:0,0:0:0:0:
207,372,42669,1,0,0:0:0:0:
207,372,42874,2,0,P|149:384|91:371,1,120,8|2,0:0|0:0,0:0:0:0:
32,268,43696,6,0,P|90:255|148:267,1,120,0|2,1:0|0:0,0:0:0:0:
256,212,44518,1,8,0:0:0:0:
363,267,44929,1,2,0:0:0:0:
358,147,45340,2,0,L|314:106,1,60,0|2,1:0|0:0,0:0:0:0:
256,88,45751,2,0,L|212:47,1,60,2|2,0:0|0:0,0:0:0:0:
154,29,46162,1,10,0:0:0:0:
120,144,46573,1,2,0:0:0:0:
88,260,46984,6,0,P|85:340|5:330,2,180,4|0|2,1:2|0:0|0:0,0:0:0:0:
188,192,48628,2,0,B|268:180|268:180|305:190,1,120,0|2,0:0|0:0,0:0:0:0:
260,300,49450,2,0,L|317:316,1,60,8|2,0:0|0:0,0:0:0:0:
376,296,49861,2,0,L|433:312,1,60,2|2,0:0|0:0,0:0:0:0:
492,292,50272,6,0,B|512:240|488:192|488:192|508:117,2,180,0|0|2,1:0|0:0|0:0,0:0:0:0:
400,368,51915,1,0,1:0:0:0:
352,336,52121,1,2,0:0:0:0:
304,368,52326,1,2,0:0:0:0:
255,260,52737,2,0,P|198:276|143:260,1,120,10|0,0:0|0:0,0:0:0:0:
199,153,53559,6,0,P|256:136|311:153,1,120,4|2,1:2|0:0,0:0:0:0:
369,259,54381,2,0,L|354:317,2,60,8|0|2,0:0|0:0|0:0,0:0:0:0:
256,304,55203,2,0,P|199:321|144:304,1,120,2|0,1:2|0:0,0:0:0:0:
108,188,56025,1,8,0:0:0:0:
142,80,56436,1,2,0:0:0:0:
256,40,56847,6,0,B|336:48|336:48|372:32,1,120,0|2,1:0|0:0,0:0:0:0:
432,28,57463,1,0,0:0:0:0:
432,28,57669,2,0,P|466:76|473:135,1,120,8|2,0:0|0:0,0:0:0:0:
473,248,58491,2,0,P|477:278|472:307,1,60,0|2,1:0|0:0,0:0:0:0:
411,307,58902,2,0,P|405:277|409:247,1,60,2|2,0:0|0:0,0:0:0:0:
441,197,59313,1,2,0:0:0:0:
328,160,59724,1,10,0:0:0:0:
215,123,60135,5,4,0:0:0:0:
256,192,65066,12,4,66710,1:2:0:0:
112,92,67532,5,0,0:0:0:0:
216,152,67943,1,0,0:0:0:0:
324,96,68354,2,0,B|392:64|392:64|408:120|454:145,1,180,0|0,0:0|0:0,0:0:0:0:
492,192,69176,2,0,P|501:250|482:307,1,120,0|0,0:0|0:0,0:0:0:0:
376,364,69998,5,0,2:0:0:0:
256,352,70409,2,0,L|196:358,1,60,0|0,0:0|0:0,0:0:0:0:
136,363,70820,2,0,P|132:304|121:245,1,120,0|0,0:0|0:0,0:0:0:0:
68,140,71641,1,0,0:0:0:0:
68,140,73285,6,0,P|71:80|82:21,1,120,0|0,0:0|0:0,0:0:0:0:
200,40,74107,2,0,P|196:99|185:158,1,120,0|0,0:0|0:0,0:0:0:0:
109,249,74929,1,0,0:0:0:0:
197,332,75340,2,0,B|256:345|256:345|314:332,2,120,0|0|0,0:0|0:0|0:0,0:0:0:0:
256,228,76573,5,0,0:0:0:0:
372,191,76984,2,0,P|401:187|431:191,1,60,0|0,0:0|0:0,0:0:0:0:
488,212,77395,2,0,L|473:92,1,120,0|0,0:0|0:0,0:0:0:0:
460,36,78011,1,0,0:0:0:0:
460,36,78217,2,0,B|400:64|343:36|343:36|292:56|292:56|231:36,1,240,0|0,0:0|0:0,0:0:0:0:
164,136,79450,2,0,L|220:154,1,60,0|0,0:0|0:0,0:0:0:0:
256,204,79861,6,0,L|452:204,1,192,0|0,0:0|0:0,0:0:0:0:
484,292,81093,1,0,0:0:0:0:
484,292,81504,2,0,B|416:316|416:268|344:292,2,144,0|0|0,0:0|0:0|0:0,0:0:0:0:
448,204,83148,6,0,B|468:68|468:68|432:12,1,192,0|0,0:0|0:0,0:0:0:0:
372,92,84381,1,0,0:0:0:0:
371,92,84792,2,0,P|301:83|240:44,2,144,0|0|0,0:0|0:0|0:0,0:0:0:0:
455,161,86436,6,0,L|436:274,1,107.999996704102,0|0,0:0|0:0,0:0:0:0:
352,200,87258,2,0,L|333:313,1,107.999996704102,0|0,0:0|0:0,0:0:0:0:
248,239,88080,2,0,P|155:291|48:290,1,215.999993408203,0|0,0:0|0:0,0:0:0:0:
0,192,89313,1,0,0:0:0:0:
48,93,89724,5,0,1:0:0:0:
146,141,90135,1,0,1:0:0:0:
97,239,90546,1,0,1:0:0:0:
0,192,90956,1,0,1:0:0:0:
48,93,91367,2,0,L|101:98,3,53.9999983520508,0|0|0|0,1:0|1:0|1:0|1:0,0:0:0:0:
152,76,92189,2,0,L|205:81,3,53.9999983520508,0|0|8|0,1:0|1:0|1:2|1:0,0:0:0:0:
256,58,93011,6,0,P|314:47|373:59,1,120,4|2,1:2|0:0,0:0:0:0:
428,168,93833,2,0,L|424:232,2,60,8|0|2,0:0|0:0|0:0,0:0:0:0:
308,184,94655,2,0,L|315:303,2,120,0|0|8,1:0|0:0|0:0,0:0:0:0:
300,124,95683,1,0,0:0:0:0:
296,64,95888,1,2,0:0:0:0:
198,134,96299,5,0,1:0:0:0:
88,84,96710,1,2,0:0:0:0:
87,84,97121,2,0,P|58:136|36:191,1,120,8|2,0:0|0:0,0:0:0:0:
96,296,97943,2,0,L|155:286,1,60,0|2,1:0|0:0,0:0:0:0:
196,328,98354,2,0,L|255:337,1,60,2|2,0:0|0:0,0:0:0:0:
316,328,98765,1,10,0:0:0:0:
348,212,99176,1,2,0:0:0:0:
380,96,99587,6,0,B|296:72|296:72|264:81,1,120,4|2,1:2|0:0,0:0:0:0:
148,112,100409,2,0,P|118:115|88:111,2,60,8|0|2,0:0|0:0|0:0,0:0:0:0:
232,197,101230,2,0,B|316:221|316:221|347:211,1,120,0|0,1:0|0:0,0:0:0:0:
404,192,101847,1,2,0:0:0:0:
452,228,102052,2,0,P|468:285|452:342,1,120,8|2,0:0|0:0,0:0:0:0:
332,336,102874,6,0,L|273:357,1,60,0|0,1:0|0:0,0:0:0:0:
215,356,103285,1,2,0:0:0:0:
164,248,103696,2,0,P|147:190|163:133,1,120,8|2,0:0|0:0,0:0:0:0:
255,56,104518,2,0,P|285:52|315:55,1,60,0|2,1:0|0:0,0:0:0:0:
372,72,104929,2,0,P|401:75|431:72,1,60,2|2,0:0|0:0,0:0:0:0:
488,56,105340,1,8,0:0:0:0:
444,168,105751,1,2,0:0:0:0:
400,280,106162,6,0,B|396:336|396:336|448:300|514:313,2,180,4|0|2,1:2|0:0|0:0,0:0:0:0:
312,196,107806,2,0,P|254:179|197:195,1,120,0|2,0:0|0:0,0:0:0:0:
112,280,108628,2,0,L|116:339,1,60,8|2,0:0|0:0,0:0:0:0:
176,339,109039,2,0,L|180:279,1,60,2|2,0:0|0:0,0:0:0:0:
184,220,109450,6,0,B|188:164|188:164|136:200|69:186,2,180,0|0|2,1:2|0:0|0:0,0:0:0:0:
284,284,111093,2,0,P|313:288|343:284,1,60,0|2,1:0|0:0,0:0:0:0:
396,252,111504,2,0,P|425:247|455:251,1,60,2|2,0:0|0:0,0:0:0:0:
508,285,111915,1,10,0:0:0:0:
484,168,112326,1,2,0:0:0:0:
460,51,112737,6,0,L|340:40,1,120,0|2,1:0|0:0,0:0:0:0:
256,128,113559,2,0,L|196:133,1,60,8|0,0:0|0:0,0:0:0:0:
136,140,113970,1,2,0:0:0:0:
36,208,114381,2,0,P|23:266|36:324,1,120,0|0,1:0|0:0,0:0:0:0:
144,380,115203,2,0,P|156:321|143:263,1,120,8|2,0:0|0:0,0:0:0:0:
136,140,116025,6,0,L|128:80,2,60,0|0|2,1:0|0:0|0:0,0:0:0:0:
256,120,116847,1,8,0:0:0:0:
376,140,117258,1,2,0:0:0:0:
296,228,117669,2,0,L|236:218,1,60,0|2,1:0|0:0,0:0:0:0:
180,244,118080,2,0,L|120:234,1,60,2|2,0:0|0:0,0:0:0:0:
64,260,118491,1,10,0:0:0:0:
48,140,118902,1,2,0:0:0:0:
32,20,119313,5,4,1:2:0:0:
64,52,122600,6,0,L|52:243,1,192,2|8,1:2|0:0,0:0:0:0:
116,316,123833,1,0,0:0:0:0:
162,231,124244,2,0,B|256:195|256:263|348:231,1,192,0|8,1:0|0:0,0:0:0:0:
268,56,125888,6,0,B|296:82|300:114|300:114|360:78|361:12,1,192,2|8,1:2|0:0,0:0:0:0:
456,16,127121,1,0,0:0:0:0:
431,108,127532,2,0,P|430:202|482:281,1,192,0|8,1:0|0:0,0:0:0:0:
290,283,129176,6,0,B|227:289|227:289|171:326|171:326|109:333,1,192,2|8,1:2|0:0,0:0:0:0:
32,280,130409,1,0,0:0:0:0:
68,191,130820,2,0,P|73:99|3:38,1,192,0|8,1:2|0:0,0:0:0:0:
196,44,132463,6,0,B|239:65|239:65|288:56|288:56|320:88|374:84,1,192,2|8,1:2|0:0,0:0:0:0:
460,44,133696,1,0,0:0:0:0:
451,137,134107,2,0,P|443:231|485:316,1,192,0|8,1:0|0:0,0:0:0:0:
392,344,135340,2,0,L|346:329,1,48,0|0,1:0|1:0,0:0:0:0:
331,283,135751,6,0,P|256:232|180:282,1,192,2|8,1:2|0:0,0:0:0:0:
88,304,136984,1,0,0:0:0:0:
20,236,137395,1,0,1:0:0:0:
140,88,138217,2,0,L|235:84,1,96,8|0,0:0|0:0,0:0:0:0:
300,12,139039,6,0,P|331:98|275:171,1,192,2|8,1:2|0:0,0:0:0:0:
180,192,140272,1,0,0:0:0:0:
245,264,140683,2,0,B|192:284|192:284|135:278|135:278|96:296|58:288,1,192,0|8,1:0|0:0,0:0:0:0:
60,64,142326,6,0,P|138:111|216:63,1,192,2|8,1:2|0:0,0:0:0:0:
312,63,143559,1,0,0:0:0:0:
408,63,143970,2,0,B|432:192|432:192|418:251,1,192,0|8,1:0|0:0,0:0:0:0:
256,356,145614,6,0,B|220:340|220:340|166:356|166:356|112:340|112:340|76:356,1,192,2|8,1:2|0:0,0:0:0:0:
44,264,146847,1,0,0:0:0:0:
116,203,147258,2,0,P|219:123|308:220,1,288,2|0,1:2|1:0,0:0:0:0:
211,221,148902,5,4,0:0:0:0:
256,192,158765,12,0,161230,0:0:0:0:
97,64,162052,6,0,L|113:182,1,120,4|2,1:2|0:0,0:0:0:0:
197,272,162874,1,8,0:0:0:0:
77,299,163285,1,2,0:0:0:0:
197,272,163696,2,0,P|255:259|313:272,1,120,0|2,1:0|0:0,0:0:0:0:
435,299,164518,2,0,L|440:240,1,60,8|0,0:0|0:0,0:0:0:0:
404,192,164929,2,0,L|409:133,1,60,2|0,0:0|0:0,0:0:0:0:
373,85,165340,5,0,1:0:0:0:
256,100,165751,1,2,0:0:0:0:
139,85,166162,2,0,B|78:92|78:92|28:124,1,120,8|2,0:0|0:0,0:0:0:0:
67,235,166984,2,0,P|97:240|127:235,1,60,0|2,1:0|0:0,0:0:0:0:
184,220,167395,2,0,P|213:215|243:220,1,60,2|0,0:0|0:0,0:0:0:0:
300,235,167806,1,10,0:0:0:0:
384,148,168217,1,10,1:2:0:0:
467,60,168628,6,0,P|415:32|356:29,1,120,4|2,1:2|0:0,0:0:0:0:
256,96,169450,2,0,L|256:164,2,60,8|0|2,0:0|0:0|0:0,0:0:0:0:
155,29,170272,2,0,P|96:32|44:60,1,120,0|0,1:0|0:0,0:0:0:0:
4,104,170888,1,2,0:0:0:0:
4,104,171093,2,0,B|0:164|0:164|31:214,1,120,8|2,0:0|0:0,0:0:0:0:
0,332,171915,5,0,1:0:0:0:
117,300,172326,1,2,0:0:0:0:
232,340,172737,2,0,P|290:352|348:339,1,120,8|2,0:0|0:0,0:0:0:0:
428,248,173559,2,0,L|440:184,3,60,0|0|0|0,0:0|0:0|0:0|0:0,0:0:0:0:
412,136,174381,2,0,L|424:72,3,60,0|0|10|2,0:0|0:0|0:2|0:2,0:0:0:0:
396,24,175203,5,4,0:0:0:0:
