osu file format v14

[General]
AudioFilename: audio.mp3
AudioLeadIn: 0
PreviewTime: 33730
Countdown: 0
SampleSet: Soft
StackLeniency: 0.7
Mode: 0
LetterboxInBreaks: 0
WidescreenStoryboard: 0

[Editor]
Bookmarks: 119313,122600
DistanceSpacing: 1
BeatDivisor: 4
GridSize: 4
TimelineZoom: 1

[Metadata]
Title:Lowlife
TitleUnicode:Lowlife
Artist:That Poppy
ArtistUnicode:That Poppy
Creator:Pappy
Version:Advanced
Source:
Tags:that illuminati bubblebath
BeatmapID:1406789
BeatmapSetID:664720

[Difficulty]
HPDrainRate:5
CircleSize:4
OverallDifficulty:6.5
ApproachRate:7.5
SliderMultiplier:1.4
SliderTickRate:1

[Events]
//Background and Video events
0,0,"wallhaven-353788.jpg",0,0
//Break Periods
2,60335,64241
2,119513,120953
2,149102,157940
//Storyboard Layer 0 (Background)
//Storyboard Layer 1 (Fail)
//Storyboard Layer 2 (Pass)
//Storyboard Layer 3 (Foreground)
//Storyboard Sound Samples

[TimingPoints]
957,410.958904109589,4,2,1,80,1,0
20683,-125,4,2,1,70,0,0
27258,-111.111111111111,4,2,1,70,0,0
33833,-100,4,2,1,90,0,1
46881,-100,4,2,1,90,0,0
46984,-100,4,2,1,90,0,1
60135,-100,4,2,1,70,0,0
65066,-133.333333333333,4,2,1,70,0,0
66299,-100,4,2,1,70,0,0
79861,-125,4,2,1,70,0,0
86436,-111.111111111111,4,2,1,70,0,0
93011,-100,4,2,1,90,0,1
106059,-100,4,2,1,90,0,0
106162,-100,4,2,1,90,0,1
119313,-111.111111111111,4,2,1,75,0,0
147258,-200,4,2,1,75,0,0
148902,-125,4,2,1,75,0,0
162052,-100,4,2,1,90,0,1
173559,-100,4,1,1,60,0,1
174176,-100,4,1,1,80,0,1
175100,-100,4,2,1,90,0,0
175203,-100,4,2,1,90,0,1
175306,-100,4,2,1,90,0,0

[Colours]
Combo1 : 238,226,254
Combo2 : 237,167,239

[HitObjects]
172,128,957,5,0,1:0:0:0:
172,128,1367,1,2,0:0:0:0:
200,204,1573,1,0,0:0:0:0:
147,264,1778,2,0,P|113:265|79:256,1,70,8|0,0:0|0:0,0:0:0:0:
196,323,2189,2,0,P|261:300|330:305,1,140,2|0,0:0|1:0,0:0:0:0:
330,305,3011,5,2,0:0:0:0:
380,240,3217,1,0,0:0:0:0:
360,160,3422,2,0,L|290:153,1,70,8|0,0:0|0:0,0:0:0:0:
228,204,3833,1,2,0:0:0:0:
252,84,4039,1,0,0:0:0:0:
140,184,4244,6,0,B|145:231|145:231|165:272|165:272|170:318,1,140,0|2,1:0|0:0,0:0:0:0:
100,355,4861,2,0,P|65:355|32:342,1,70,0|8,0:0|0:0,0:0:0:0:
248,320,5477,2,0,P|279:305|314:303,1,70,2|0,0:0|0:0,0:0:0:0:
432,328,5888,5,0,1:0:0:0:
488,268,6093,1,0,0:0:0:0:
488,268,6196,1,0,0:0:0:0:
488,268,6299,2,0,L|481:198,1,70,2|0,0:0|0:0,0:0:0:0:
412,156,6710,1,8,0:0:0:0:
412,76,6915,2,0,L|419:41,2,35,0|0|0,0:0|1:0|1:0,0:0:0:0:
412,76,7532,6,0,L|272:79,1,140,0|2,1:0|0:0,0:0:0:0:
272,79,8354,1,8,0:0:0:0:
200,116,8559,1,0,0:0:0:0:
123,91,8765,2,0,P|90:83|56:91,1,70,2|0,0:0|0:0,0:0:0:0:
132,204,9176,6,0,P|199:220|267:204,1,140,0|2,1:0|0:0,0:0:0:0:
267,204,9998,1,8,0:0:0:0:
374,338,10203,1,0,0:0:0:0:
256,284,10409,1,2,0:0:0:0:
363,258,10614,1,0,0:0:0:0:
184,320,10820,6,0,B|140:336|100:332|100:332|49:353,2,140,0|2|8,1:0|0:0|0:0,0:0:0:0:
256,284,11847,1,0,0:0:0:0:
256,284,12052,2,0,L|252:214,1,70,2|0,0:0|0:0,0:0:0:0:
376,344,12463,6,0,L|381:239,2,105,0|2|2,1:0|0:0|0:0,0:0:0:0:
508,304,13285,1,8,0:0:0:0:
484,144,13696,1,2,0:0:0:0:
404,160,13902,1,0,0:0:0:0:
423,50,14107,5,0,1:0:0:0:
423,49,14518,2,0,P|388:51|353:45,1,70,2|0,0:0|0:0,0:0:0:0:
189,113,14929,2,0,P|259:109|328:124,1,140,8|2,0:0|0:0,0:0:0:0:
372,192,15546,1,0,0:0:0:0:
308,280,15751,5,0,1:0:0:0:
308,280,16162,1,2,0:0:0:0:
288,200,16367,1,0,0:0:0:0:
229,258,16573,2,0,L|231:327,1,70,8|0,0:0|0:0,0:0:0:0:
128,284,16984,2,0,L|130:214,1,70,2|0,0:0|0:0,0:0:0:0:
180,99,17395,5,0,1:0:0:0:
71,160,17600,1,0,0:0:0:0:
196,174,17806,1,2,0:0:0:0:
105,90,18011,1,0,0:0:0:0:
104,90,18217,2,0,P|101:55|90:22,1,70,8|0,0:0|0:0,0:0:0:0:
52,176,18628,2,0,P|56:210|67:243,1,70,2|0,0:0|0:0,0:0:0:0:
120,308,19039,6,0,B|60:320|60:320|19:303,2,105,0|2|2,1:0|0:0|0:0,0:0:0:0:
200,292,19861,1,8,0:0:0:0:
200,292,20272,1,2,0:0:0:0:
280,276,20477,1,0,0:0:0:0:
408,320,20683,6,0,L|416:200,1,112,2|2,0:0|0:0,0:0:0:0:
415,208,21504,2,0,P|442:205|470:199,1,56,2|0,0:0|0:0,0:0:0:0:
352,156,21915,2,0,P|324:153|296:147,1,56,2|0,0:0|0:0,0:0:0:0:
289,50,22326,2,0,P|344:63|400:68,1,112,2|0,0:0|0:0,0:0:0:0:
480,56,22943,1,2,0:0:0:0:
212,108,23354,1,2,0:0:0:0:
392,315,23765,2,0,B|356:312|356:312|324:324|324:324|280:296|230:309,1,168,2|0,0:0|0:0,0:0:0:0:
230,309,24792,6,0,L|174:315,1,56,2|0,0:0|0:0,0:0:0:0:
72,244,25203,2,0,L|127:250,1,56,2|0,0:0|0:0,0:0:0:0:
172,164,25614,2,0,L|60:150,1,112,2|0,0:0|0:0,0:0:0:0:
20,84,26230,1,2,0:0:0:0:
227,109,26641,1,2,0:0:0:0:
292,64,26847,2,0,L|288:36,2,28,0|0|2,0:0|0:0|0:0,0:0:0:0:
372,164,27258,6,0,L|380:101,1,62.9999980773926,2|0,0:0|0:0,0:0:0:0:
452,48,27669,1,2,0:0:0:0:
300,217,28080,1,2,0:0:0:0:
451,47,28491,2,0,P|464:76|468:107,1,62.9999980773926,2|0,0:0|0:0,0:0:0:0:
300,217,28902,6,0,P|287:245|283:276,1,62.9999980773926,2|0,0:0|0:0,0:0:0:0:
336,348,29313,1,2,0:0:0:0:
196,288,29724,1,2,0:0:0:0:
336,348,30135,2,0,L|398:341,1,62.9999980773926,2|0,0:0|0:0,0:0:0:0:
196,288,30546,6,0,L|70:274,1,125.999996154785,2|2,1:2|1:2,0:0:0:0:
184,172,31367,2,0,L|58:158,1,125.999996154785,2|2,1:2|1:2,0:0:0:0:
172,56,32189,5,2,1:2:0:0:
244,108,32395,1,2,1:2:0:0:
366,181,32600,1,2,1:2:0:0:
310,50,32806,1,2,1:2:0:0:
278,189,33011,1,2,1:2:0:0:
386,95,33217,1,0,1:0:0:0:
386,95,33320,1,0,1:0:0:0:
386,95,33422,2,0,L|448:88,1,62.9999980773926,8|0,1:2|1:0,0:0:0:0:
384,200,33833,6,0,B|404:292|404:292|397:337,1,140,4|2,1:2|0:0,0:0:0:0:
312,292,34450,1,0,0:0:0:0:
312,292,34655,2,0,P|277:293|245:307,1,70,8|0,0:0|0:0,0:0:0:0:
156,344,35066,2,0,P|121:342|89:328,1,70,2|0,0:0|0:0,0:0:0:0:
12,272,35477,6,0,L|0:392,2,105,2|2|2,1:2|0:0|0:0,0:0:0:0:
68,192,36299,1,8,0:0:0:0:
12,112,36504,1,0,0:0:0:0:
12,112,36710,2,0,P|10:77|4:42,1,70,2|0,0:0|0:0,0:0:0:0:
148,128,37121,6,0,P|217:128|283:106,1,140,0|2,1:0|0:0,0:0:0:0:
368,52,37737,1,0,0:0:0:0:
368,52,37943,2,0,P|402:51|436:59,1,70,8|0,0:0|0:0,0:0:0:0:
484,144,38354,2,0,P|450:151|415:151,1,70,2|0,0:0|0:0,0:0:0:0:
344,216,38765,5,0,1:0:0:0:
271,358,38970,1,2,0:0:0:0:
247,199,39176,1,2,0:0:0:0:
360,312,39381,1,2,0:0:0:0:
202,286,39587,2,0,P|167:291|133:298,1,70,10|0,0:0|0:0,0:0:0:0:
8,220,39998,2,0,P|42:227|76:232,1,70,2|0,0:0|0:0,0:0:0:0:
148,156,40409,6,0,B|156:64|156:64|133:22,1,140,4|2,1:2|0:0,0:0:0:0:
60,88,41025,1,0,0:0:0:0:
232,100,41230,2,0,P|266:99|300:90,1,70,8|0,0:0|0:0,0:0:0:0:
392,56,41641,2,0,P|426:56|460:65,1,70,2|0,0:0|0:0,0:0:0:0:
416,152,42052,6,0,P|394:218|401:287,1,140,0|2,1:0|0:0,0:0:0:0:
324,348,42669,2,0,L|244:332,1,70,0|8,0:0|0:0,0:0:0:0:
256,236,43080,1,0,0:0:0:0:
401,287,43285,2,0,P|417:317|421:352,1,70,2|0,0:0|0:0,0:0:0:0:
348,208,43696,6,0,B|355:162|355:162|346:117|346:117|353:70,1,140,0|2,1:0|0:0,0:0:0:0:
452,47,44313,1,0,0:0:0:0:
452,47,44518,2,0,L|440:116,1,70,8|0,0:0|0:0,0:0:0:0:
248,229,44929,2,0,L|260:160,1,70,2|0,0:0|0:0,0:0:0:0:
353,69,45340,5,0,1:0:0:0:
348,208,45546,1,2,0:0:0:0:
479,149,45751,1,2,0:0:0:0:
484,288,45956,1,2,0:0:0:0:
328,312,46162,2,0,P|258:318|190:335,1,140,10|2,0:0|0:0,0:0:0:0:
92,320,46778,1,8,0:0:0:0:
160,208,46984,6,0,B|184:140|140:140|160:72,1,140,4|2,1:2|0:0,0:0:0:0:
251,103,47600,2,0,P|286:106|321:101,1,70,0|8,0:0|0:0,0:0:0:0:
404,52,48011,2,0,P|438:49|473:54,1,70,0|2,0:0|0:0,0:0:0:0:
435,147,48422,6,0,P|428:216|458:279,1,140,2|0,0:0|0:0,0:0:0:0:
392,352,49039,1,2,0:0:0:0:
320,288,49244,1,0,0:0:0:0:
200,336,49450,2,0,L|131:350,1,70,8|2,0:0|0:0,0:0:0:0:
80,268,49861,2,0,L|11:253,1,70,2|2,0:0|0:0,0:0:0:0:
12,132,50272,6,0,P|69:169|137:159,1,140,0|2,1:0|0:0,0:0:0:0:
88,76,50888,2,0,L|81:6,1,70,0|8,0:0|0:0,0:0:0:0:
212,104,51299,2,0,P|246:103|280:94,1,70,0|2,0:0|0:0,0:0:0:0:
376,124,51710,1,2,0:0:0:0:
353,26,51915,5,0,1:0:0:0:
303,192,52121,1,2,0:0:0:0:
472,153,52326,1,2,0:0:0:0:
353,26,52532,1,2,0:0:0:0:
303,191,52737,2,0,P|305:226|317:259,1,70,10|0,0:0|0:0,0:0:0:0:
408,300,53148,2,0,P|405:334|393:367,1,70
232,304,53559,6,0,L|92:311,1,140,4|2,1:2|0:0,0:0:0:0:
32,236,54176,1,0,0:0:0:0:
32,236,54381,2,0,L|38:166,1,70,8|0,0:0|0:0,0:0:0:0:
121,54,54792,2,0,L|128:124,1,70,2|0,0:0|0:0,0:0:0:0:
224,80,55203,6,0,L|214:184,2,105,2|2|2,1:2|0:0|0:0,0:0:0:0:
315,44,56025,2,0,P|349:33|384:31,1,70,8|0,0:0|0:0,0:0:0:0:
508,124,56436,2,0,P|473:122|440:111,1,70,2|0,0:0|0:0,0:0:0:0:
368,172,56847,6,0,P|352:239|363:308,1,140,0|2,1:0|0:0,0:0:0:0:
456,336,57463,1,0,0:0:0:0:
352,324,57669,2,0,B|319:337|319:337|284:338,1,70,8|0,0:0|0:0,0:0:0:0:
160,245,58080,2,0,B|195:247|195:247|228:260,1,70,2|0,0:0|0:0,0:0:0:0:
80,304,58491,5,0,1:0:0:0:
70,205,58696,1,2,0:0:0:0:
170,344,58902,1,2,0:0:0:0:
0,361,59107,1,2,0:0:0:0:
69,205,59313,2,0,P|74:170|69:135,1,70,2|0,0:0|0:0,0:0:0:0:
187,131,59724,2,0,P|183:97|170:65,1,70,10|8,0:0|0:0,0:0:0:0:
64,16,60135,5,4,0:0:0:0:
112,304,65066,6,0,P|184:347|175:262,1,210.000008010865
108,224,66093,1,0,0:0:0:0:
96,216,66196,1,0,0:0:0:0:
84,208,66299,2,0,L|94:138,1,70
188,92,66710,6,0,B|256:116|256:72|324:92,1,140,4|2,1:2|0:0,0:0:0:0:
324,92,67532,1,0,0:0:0:0:
400,128,67737,1,0,0:0:0:0:
472,88,67943,2,0,L|479:18,1,70
392,144,68354,6,0,L|407:283,1,140
407,283,69176,1,0,0:0:0:0:
360,352,69381,1,0,0:0:0:0:
323,276,69587,2,0,P|288:274|255:285,1,70
172,372,69998,6,0,B|185:321|185:321|174:288|174:288|188:237,1,140,0|0,2:0|0:0,0:0:0:0:
104,323,70614,1,0,0:0:0:0:
104,323,70820,2,0,P|71:334|37:333,1,70
60,252,71230,1,0,0:0:0:0:
120,192,71436,1,0,0:0:0:0:
39,171,71641,5,0,0:0:0:0:
39,171,73080,2,0,L|36:136,1,35
32,92,73285,6,0,P|101:96|164:69,1,140
164,68,74107,2,0,L|233:61,1,70
280,132,74518,2,0,L|349:138,1,70
444,61,74929,6,0,B|448:87|448:87|440:107|440:107|456:155|426:194,1,140
368,252,75546,1,0,0:0:0:0:
368,251,75751,2,0,P|365:286|373:320,1,70
489,364,76162,2,0,P|497:330|496:296,1,70
426,193,76573,6,0,P|361:172|303:206,1,140
368,252,77189,1,0,0:0:0:0:
328,324,77395,2,0,L|258:314,1,70
188,268,77806,1,0,0:0:0:0:
182,352,78011,1,0,0:0:0:0:
112,304,78217,6,0,B|40:320|40:320|17:342,2,105
188,268,79039,1,0,0:0:0:0:
188,268,79450,1,0,0:0:0:0:
256,148,79655,1,0,0:0:0:0:
119,150,79861,6,0,L|98:39,1,112
98,39,80683,2,0,P|125:40|153:45,1,56
228,72,81093,2,0,P|255:70|283:66,1,56
320,136,81504,2,0,P|264:144|208:148,1,112
144,192,82121,1,0,0:0:0:0:
384,92,82532,1,0,0:0:0:0:
144,192,82943,2,0,B|152:228|144:260|144:260|156:256|156:256|152:304|181:336,1,168
255,269,83970,6,0,L|310:272,1,56
181,336,84381,2,0,L|125:339,1,56
38,265,84792,2,0,L|150:258,1,112
208,204,85409,1,0,0:0:0:0:
72,72,85820,1,0,0:0:0:0:
144,44,86025,2,0,L|140:16,2,28
248,88,86436,6,0,L|296:80|320:76,1,56
400,60,86847,1,0,0:0:0:0:
376,308,87258,1,0,0:0:0:0:
416,60,87669,2,0,L|429:121,1,62.9999980773926
392,308,88080,6,0,L|378:246,1,62.9999980773926
456,204,88491,1,0,0:0:0:0:
314,350,88902,1,0,0:0:0:0:
456,204,89313,1,0,0:0:0:0:
256,284,89724,6,0,P|193:288|141:323,1,125.999996154785,0|0,1:0|1:0,0:0:0:0:
1,231,90546,2,0,P|63:226|115:191,1,125.999996154785,0|0,1:0|1:0,0:0:0:0:
164,116,91162,1,0,0:0:0:0:
205,196,91367,5,0,1:0:0:0:
74,111,91573,1,0,1:0:0:0:
213,40,91778,1,0,1:0:0:0:
114,191,91984,1,0,1:0:0:0:
123,35,92189,1,0,1:0:0:0:
254,120,92395,1,0,1:0:0:0:
254,120,92498,1,0,1:0:0:0:
254,120,92600,2,0,L|316:113,1,62.9999980773926,8|0,1:2|1:0,0:0:0:0:
356,108,92909,1,0,1:0:0:0:
392,106,93011,6,0,P|416:170|391:234,1,140,4|2,1:2|0:0,0:0:0:0:
356,328,93628,1,0,0:0:0:0:
454,312,93833,2,0,P|489:311|524:315,1,70,8|0,0:0|0:0,0:0:0:0:
335,336,94244,2,0,P|301:336|266:332,1,70,2|0,0:0|0:0,0:0:0:0:
191,275,94655,6,0,B|179:343|179:343|193:375,2,105,0|2|2,1:0|0:0|0:0,0:0:0:0:
284,240,95477,2,0,L|295:170,1,70,8|0,0:0|0:0,0:0:0:0:
259,79,95888,1,2,0:0:0:0:
356,95,96093,1,0,0:0:0:0:
197,156,96299,6,0,P|161:97|173:30,1,140,0|2,1:0|0:0,0:0:0:0:
259,79,96915,1,0,0:0:0:0:
356,76,97121,2,0,P|390:74|424:65,1,70,8|0,0:0|0:0,0:0:0:0:
512,156,97532,2,0,P|478:146|443:145,1,70,2|0,0:0|0:0,0:0:0:0:
356,192,97943,5,0,1:0:0:0:
373,350,98148,1,2,0:0:0:0:
266,232,98354,1,2,0:0:0:0:
422,265,98559,1,2,0:0:0:0:
277,329,98765,2,0,L|207:338,1,70,10|0,0:0|0:0,0:0:0:0:
54,274,99176,2,0,L|124:284,1,70,2|0,0:0|0:0,0:0:0:0:
300,152,99587,6,0,P|231:151|185:201,1,140,4|2,1:2|0:0,0:0:0:0:
273,247,100203,1,0,0:0:0:0:
369,223,100409,2,0,L|438:231,1,70,8|0,0:0|0:0,0:0:0:0:
392,320,100820,2,0,L|322:328,1,70,2|0,0:0|0:0,0:0:0:0:
223,328,101230,6,0,B|184:344|144:340|144:340|124:353,2,105,0|2|2,1:0|0:0|0:0,0:0:0:0:
172,244,102052,2,0,P|138:233|103:231,1,70,8|0,0:0|0:0,0:0:0:0:
52,148,102463,2,0,P|86:145|120:135,1,70,2|0,0:0|0:0,0:0:0:0:
288,72,102874,6,0,B|192:84|192:84|156:60,1,140,0|2,1:0|0:0,0:0:0:0:
250,156,103491,1,0,0:0:0:0:
250,156,103696,2,0,L|320:148,1,70,8|0,0:0|0:0,0:0:0:0:
388,76,104107,2,0,L|457:84,1,70,2|0,0:0|0:0,0:0:0:0:
336,148,104518,5,0,1:0:0:0:
473,84,104724,1,2,0:0:0:0:
296,241,104929,1,2,0:0:0:0:
433,177,105135,1,2,0:0:0:0:
256,334,105340,2,0,P|205:287|197:219,1,140,8|2,0:0|0:0,0:0:0:0:
264,148,105956,1,0,0:0:0:0:
184,92,106162,6,0,B|124:97|124:97|120:101|120:101|119:93|119:93|119:93|119:93|116:97|116:97|55:103,1,140,4|2,1:2|0:0,0:0:0:0:
96,191,106778,2,0,P|87:225|90:260,1,70,0|8,0:0|0:0,0:0:0:0:
184,292,107189,2,0,P|190:326|207:356,1,70,0|2,0:0|0:0,0:0:0:0:
284,292,107600,6,0,P|352:282|416:309,1,140,2|0,0:0|0:0,0:0:0:0:
492,244,108217,1,2,0:0:0:0:
408,192,108422,2,0,L|414:122,1,70,0|8,0:0|0:0,0:0:0:0:
508,96,108833,2,0,L|501:26,2,70,2|2|2,0:0|0:0|0:0,0:0:0:0:
344,56,109450,6,0,B|276:32|276:76|208:56,1,140,0|2,1:2|0:0,0:0:0:0:
112,75,110066,2,0,P|78:85|43:87,1,70,0|8,0:0|0:0,0:0:0:0:
177,147,110477,2,0,P|202:171|221:200,1,70,0|2,0:0|0:0,0:0:0:0:
167,283,110888,1,2,0:0:0:0:
267,288,111093,5,0,1:0:0:0:
114,369,111299,1,2,0:0:0:0:
122,196,111504,1,2,0:0:0:0:
267,288,111710,1,2,0:0:0:0:
114,368,111915,2,0,P|79:373|44:372,1,70,10|0,0:0|0:0,0:0:0:0:
284,284,112326,2,0,P|318:282|353:287,1,70,2|0,0:0|0:0,0:0:0:0:
476,312,112737,6,0,B|480:264|480:264|459:222|459:222|464:170,1,140,0|2,1:0|0:0,0:0:0:0:
400,100,113354,1,0,0:0:0:0:
400,100,113559,2,0,L|406:30,1,70,8|0,0:0|0:0,0:0:0:0:
300,112,113970,2,0,L|306:181,1,70,2|0,0:0|0:0,0:0:0:0:
224,47,114381,6,0,P|267:19|319:14,2,105,0|2|2,1:0|0:0|0:0,0:0:0:0:
208,144,115203,2,0,P|174:154|139:155,1,70,8|0,0:0|0:0,0:0:0:0:
72,84,115614,2,0,P|38:73|3:72,1,70,2|0,0:0|0:0,0:0:0:0:
48,176,116025,6,0,L|64:328,1,140,0|2,1:0|0:0,0:0:0:0:
151,280,116641,2,0,P|184:284|219:295,1,70,0|8,0:0|0:0,0:0:0:0:
280,220,117052,2,0,P|312:216|347:204,1,70,0|2,0:0|0:0,0:0:0:0:
420,136,117463,1,0,0:0:0:0:
492,67,117669,5,0,1:0:0:0:
443,232,117874,1,2,0:0:0:0:
324,107,118080,1,2,0:0:0:0:
492,67,118285,1,2,0:0:0:0:
443,232,118491,2,0,L|447:301,1,70,10|0,0:0|0:0,0:0:0:0:
312,272,118902,2,0,L|307:341,1,70,2|0,0:0|0:0,0:0:0:0:
172,312,119313,5,4,1:2:0:0:
464,128,121778,5,0,1:0:0:0:
436,116,121881,1,0,1:0:0:0:
408,104,121984,1,0,1:0:0:0:
380,92,122087,1,0,1:0:0:0:
352,80,122189,1,8,1:2:0:0:
265,121,122395,1,0,0:0:0:0:
176,156,122600,6,0,B|88:152|88:152|57:129,1,125.999996154785,2|0,1:2|0:0,0:0:0:0:
116,64,123217,1,0,0:0:0:0:
115,64,123422,2,0,P|178:59|238:39,1,125.999996154785,8|0,0:0|0:0,0:0:0:0:
352,176,124244,6,0,P|415:181|475:201,1,125.999996154785,0|0,1:0|0:0,0:0:0:0:
424,276,124861,2,0,P|392:273|362:263,1,62.9999980773926,0|8,0:0|0:0,0:0:0:0:
432,100,125477,1,0,0:0:0:0:
285,230,125888,6,0,P|223:222|173:257,1,125.999996154785,2|0,1:2|0:0,0:0:0:0:
244,308,126504,1,0,0:0:0:0:
244,308,126710,1,8,0:0:0:0:
72,348,127121,1,0,0:0:0:0:
24,272,127326,1,0,0:0:0:0:
56,192,127532,6,0,P|117:108|14:99,1,251.999992309571,0|8,1:0|0:0,0:0:0:0:
13,98,129176,6,0,B|100:104|100:104|134:84,1,125.999996154785,2|0,1:2|0:0,0:0:0:0:
200,148,129792,1,0,0:0:0:0:
199,148,129998,2,0,P|261:148|323:162,1,125.999996154785,8|0,0:0|0:0,0:0:0:0:
344,176,130820,6,0,B|365:113|325:113|344:51,1,125.999996154785,0|0,1:2|0:0,0:0:0:0:
428,80,131436,1,0,0:0:0:0:
428,80,131641,1,8,0:0:0:0:
392,252,132052,1,0,0:0:0:0:
261,134,132463,6,0,L|136:152,1,125.999996154785,2|0,1:2|0:0,0:0:0:0:
52,120,133080,1,0,0:0:0:0:
51,119,133285,2,0,P|51:180|89:229,1,125.999996154785,8|0,0:0|0:0,0:0:0:0:
56,312,133902,1,0,0:0:0:0:
143,299,134107,6,0,B|205:311|205:311|260:280|260:280|316:312|381:286,1,251.999992309571,0|8,1:0|0:0,0:0:0:0:
464,252,135135,2,0,L|469:282,2,31.4999990386963,0|0|0,0:0|1:0|1:0,0:0:0:0:
328,180,135546,1,0,1:0:0:0:
508,167,135751,6,0,P|512:105|488:48,1,125.999996154785,2|0,1:2|0:0,0:0:0:0:
400,52,136367,1,0,0:0:0:0:
400,52,136573,2,0,B|356:56|356:56|328:48|328:48|308:64|277:60,1,125.999996154785,8|0,0:0|0:0,0:0:0:0:
99,72,137395,6,0,P|95:189|207:223,1,251.999992309571,0|8,1:0|0:0,0:0:0:0:
173,132,138628,2,0,P|204:138|236:140,1,62.9999980773926
324,128,139039,6,0,B|323:155|323:155|315:174|315:174|328:212|307:249,1,125.999996154785,2|0,1:2|0:0,0:0:0:0:
220,236,139655,2,0,P|221:267|231:296,1,62.9999980773926,0|8,0:0|0:0,0:0:0:0:
404,264,140272,2,0,P|414:234|415:203,1,62.9999980773926
412,116,140683,6,0,L|501:205,1,125.999996154785,0|0,1:0|0:0,0:0:0:0:
488,292,141299,1,0,0:0:0:0:
404,264,141504,1,8,0:0:0:0:
404,264,141710,2,0,L|400:296,4,31.4999990386963
360,192,142326,6,0,P|298:192|249:230,1,125.999996154785,2|0,1:2|0:0,0:0:0:0:
184,168,142943,1,0,0:0:0:0:
184,168,143148,2,0,P|122:167|73:129,1,125.999996154785,8|0,0:0|0:0,0:0:0:0:
73,129,143970,6,0,B|40:216|40:216|47:248,1,125.999996154785,0|0,1:0|0:0,0:0:0:0:
136,256,144587,2,0,L|149:317,1,62.9999980773926,0|8,0:0|0:0,0:0:0:0:
312,248,145203,1,0,0:0:0:0:
380,304,145409,1,0,0:0:0:0:
395,218,145614,5,2,1:2:0:0:
244,128,146025,1,0,0:0:0:0:
312,72,146230,1,0,0:0:0:0:
326,158,146436,2,0,P|380:128|441:139,1,125.999996154785,8|0,0:0|0:0,0:0:0:0:
440,138,147258,6,0,B|444:152|440:167|440:167|444:174|444:174|444:180|444:180|447:185|447:185|446:190|446:190|448:196|448:196|447:201|447:201|420:212|412:232|412:232|436:272|416:325,1,210,2|0,1:2|1:0,0:0:0:0:
314,281,148902,5,4,0:0:0:0:
256,192,158765,12,0,160409,0:0:0:0:
120,140,161436,5,0,0:0:0:0:
120,140,161539,1,0,1:2:0:0:
120,140,161641,1,8,1:2:0:0:
260,184,161847,1,0,1:2:0:0:
56,192,162052,6,0,B|40:152|40:152|49:55,1,140,4|2,1:2|0:0,0:0:0:0:
147,43,162669,2,0,P|182:48|217:43,1,70,0|8,0:0|0:0,0:0:0:0:
298,99,163080,2,0,P|332:94|367:99,1,70,0|2,0:0|0:0,0:0:0:0:
461,128,163491,1,0,0:0:0:0:
440,32,163696,5,0,1:0:0:0:
404,192,163902,1,0,0:0:0:0:
404,192,164107,2,0,L|414:261,1,70,2|0,0:0|0:0,0:0:0:0:
454,349,164518,2,0,P|421:359|387:355,1,70,8|0,0:0|0:0,0:0:0:0:
251,289,164929,2,0,P|284:279|319:284,1,70,2|0,0:0|0:0,0:0:0:0:
160,328,165340,6,0,B|124:314|91:331|91:331|72:302|34:294,1,140,0|2,1:0|0:0,0:0:0:0:
116,236,165957,2,0,L|112:166,1,70,0|8,0:0|0:0,0:0:0:0:
24,128,166367,2,0,L|27:58,1,70,0|2,0:0|0:0,0:0:0:0:
129,70,166778,1,0,0:0:0:0:
227,57,166984,5,0,1:0:0:0:
269,144,167189,1,2,0:0:0:0:
112,166,167395,1,2,0:0:0:0:
129,70,167600,1,0,0:0:0:0:
200,215,167806,1,10,0:0:0:0:
356,93,168011,1,0,0:0:0:0:
356,93,168114,1,0,1:0:0:0:
356,93,168217,2,0,L|436:84,1,70,10|0,1:2|1:0,0:0:0:0:
453,179,168628,6,0,B|460:224|460:224|432:268|451:314,1,140,4|2,1:2|0:0,0:0:0:0:
360,348,169244,1,0,0:0:0:0:
360,347,169450,2,0,P|325:351|293:337,1,70,8|0,0:0|0:0,0:0:0:0:
216,276,169861,2,0,P|181:272|149:286,1,70,2|0,0:0|0:0,0:0:0:0:
60,328,170272,6,0,B|49:297|49:297|57:225,2,105,0|2|2,1:0|0:0|0:0,0:0:0:0:
149,286,171093,2,0,L|157:217,1,70,8|0,0:0|0:0,0:0:0:0:
104,136,171504,2,0,L|96:66,1,70,2|0,0:0|0:0,0:0:0:0:
199,129,171915,6,0,P|266:109|335:110,1,140,0|2,1:0|0:0,0:0:0:0:
416,52,172532,1,0,0:0:0:0:
468,136,172737,2,0,L|456:204,1,70,8|0,0:0|0:0,0:0:0:0:
384,319,173148,2,0,P|384:284|372:252,1,70,2|0,0:0|0:0,0:0:0:0:
287,303,173559,6,0,L|243:299,3,35
196,352,173970,2,0,L|152:348,3,35
84,292,174381,2,0,P|84:274|87:257,3,35
136,200,174792,1,10,0:2:0:0:
35,349,174998,1,2,0:2:0:0:
72,132,175203,5,4,0:0:0:0:
