osu file format v14

[General]
AudioFilename: audio.mp3
AudioLeadIn: 0
PreviewTime: 74276
Countdown: 0
SampleSet: Soft
StackLeniency: 0.4
Mode: 0
LetterboxInBreaks: 0
WidescreenStoryboard: 1

[Editor]
Bookmarks: 10427,10881,22018,30640,32913,38367,40186,48367,52004,57913,82004,84958,100200,105654,106563,106790,107018,107245,107359,107472,139049,148367,153140,158381
DistanceSpacing: 1
BeatDivisor: 4
GridSize: 32
TimelineZoom: 1

[Metadata]
Title:Altar
TitleUnicode:Altar
Artist:That Poppy
ArtistUnicode:That Poppy
Creator:-NeBu-
Version:Rdzeniu's Extra
Source:
Tags:that poppy altar pop island umg jump extra insane training nyantiaz asrasz pawlyk here chuuritsutv time capsule creamy candy rdzeniu hipat apo11o vet moreon ciarmin yshadowxop_ theblank num5119 saggi grandsenpai paradogi
BeatmapID:2201718
BeatmapSetID:685822

[Difficulty]
HPDrainRate:5
CircleSize:4
OverallDifficulty:9
ApproachRate:9
SliderMultiplier:2.2
SliderTickRate:1

[Events]
//Background and Video events
0,0,"aJLnhd1.jpg",0,0
//Break Periods
2,100158,105040
//Storyboard Layer 0 (Background)
//Storyboard Layer 1 (Fail)
//Storyboard Layer 2 (Pass)
//Storyboard Layer 3 (Foreground)
//Storyboard Layer 4 (Overlay)
//Storyboard Sound Samples

[TimingPoints]
186,454.545454545455,4,2,1,60,1,0
3836,-100,4,3,1,60,0,0
18367,-80,4,2,1,60,0,1
36549,-66.6666666666667,4,2,1,60,0,1
40186,-80,4,2,1,60,0,1
43822,-100,4,2,1,60,0,0
45640,-100,4,3,1,60,0,0
52913,-133.333333333333,4,2,1,60,0,0
60186,-80,4,2,1,70,0,1
78367,-66.6666666666667,4,2,1,70,0,1
80186,-80,4,2,1,70,0,1
85640,-100,4,2,1,60,0,0
107458,-66.6666666666667,4,2,1,80,0,1
157458,-133.333333333333,4,2,1,40,0,0

[Colours]
Combo1 : 255,192,0
Combo2 : 255,149,149
Combo3 : 226,226,226
Combo4 : 0,66,21

[HitObjects]
218,146,186,6,0,L|212:377,1,220,4|8,3:2|3:0,0:0:0:0:
294,146,1095,2,0,L|300:377,1,220,0|8,3:0|3:0,0:0:0:0:
214,146,2004,2,0,L|207:400,1,220,0|8,3:0|3:0,0:0:0:0:
297,146,2913,1,0,3:0:0:0:
303,365,3140,1,0,3:0:0:0:
162,188,3367,2,0,P|257:141|354:187,1,220,8|2,3:0|0:0,0:0:0:0:
259,244,4049,5,0,0:0:0:0:
354,298,4276,1,8,3:0:0:0:
259,354,4504,1,0,0:0:0:0:
253,140,4731,5,2,0:0:0:0:
158,86,4958,1,0,0:0:0:0:
253,30,5186,1,8,3:0:0:0:
346,89,5413,1,0,0:0:0:0:
190,198,5640,6,0,L|65:157,1,110,2|0,0:0|0:0,0:0:0:0:
322,198,6094,2,0,L|447:157,1,110,8|0,3:0|0:0,0:0:0:0:
200,229,6549,2,0,L|95:195,1,110,2|0,0:0|0:0,0:0:0:0:
311,229,7003,2,0,L|416:195,1,110,8|0,3:0|0:0,0:0:0:0:
401,356,7458,5,2,0:0:0:0:
497,269,7686,1,0,0:0:0:0:
349,362,7913,1,8,3:0:0:0:
445,275,8141,1,0,0:0:0:0:
344,232,8367,1,2,0:0:0:0:
253,294,8595,1,0,0:0:0:0:
158,349,8822,1,8,3:0:0:0:
68,285,9049,1,0,0:0:0:0:
167,237,9276,6,0,L|279:315,1,110,2|0,0:0|0:0,0:0:0:0:
349,196,9731,2,0,L|237:274,1,110,8|0,3:0|0:0,0:0:0:0:
169,155,10186,1,2,0:0:0:0:
259,217,10413,1,0,0:0:0:0:
351,114,10641,1,8,3:0:0:0:
260,176,10868,1,0,0:0:0:0:
319,24,11095,6,0,P|379:24|441:69,1,110,2|0,0:0|0:0,0:0:0:0:
327,216,11549,2,0,P|327:156|372:94,1,110,8|0,3:0|0:0,0:0:0:0:
430,188,12004,1,2,0:0:0:0:
425,297,12231,1,0,0:0:0:0:
335,360,12458,1,8,3:0:0:0:
233,315,12686,1,0,0:0:0:0:
134,364,12913,6,0,P|71:328|37:298,1,110,2|0,0:0|0:0,0:0:0:0:
203,202,13367,2,0,P|160:236|111:262,1,110,8|0,3:0|0:0,0:0:0:0:
29,188,13822,1,2,0:0:0:0:
29,188,14049,1,0,0:0:0:0:
105,108,14276,1,8,3:0:0:0:
105,108,14504,1,0,0:0:0:0:
88,307,14731,6,0,B|95:263|95:263|130:186,1,110,2|0,0:0|0:0,0:0:0:0:
256,115,15186,1,8,3:0:0:0:
217,276,15413,1,0,0:0:0:0:
184,117,15640,2,0,P|256:88|336:126,1,165,2|0,0:0|0:0,0:0:0:0:
333,134,16095,1,8,3:0:0:0:
256,192,16322,1,0,0:0:0:0:
256,192,16549,12,8,17913,3:0:0:0:
406,361,18140,5,8,3:0:0:0:
413,306,18253,1,8,3:0:0:0:
437,257,18367,2,0,P|457:227|482:180,1,68.75,0|0,3:0|0:0,0:0:0:0:
453,69,18595,1,0,0:0:0:0:
453,69,18708,1,0,0:0:0:0:
453,69,18822,2,0,L|382:101,1,68.75,8|0,3:3|0:0,0:0:0:0:
269,161,19049,5,0,0:0:0:0:
231,104,19162,1,0,0:0:0:0:
223,36,19276,2,0,P|251:22|295:21,1,68.75,0|0,3:0|0:0,0:0:0:0:
162,81,19504,2,0,P|127:79|97:63,1,68.75,0|0,0:0|0:0,0:0:0:0:
277,96,19731,2,0,P|261:169|260:258,1,137.5,8|0,3:3|0:0,0:0:0:0:
21,149,20186,6,0,P|37:222|38:311,1,137.5,0|0,3:0|0:0,0:0:0:0:
255,356,20640,1,8,3:3:0:0:
39,284,20867,2,0,P|36:215|21:149,1,137.5,0|0,0:0|3:0,0:0:0:0:
258,231,21322,2,0,P|261:162|277:96,1,137.5,0|8,0:0|3:3,0:0:0:0:
496,287,21776,5,0,0:0:0:0:
441,296,21889,1,0,0:0:0:0:
387,306,22004,2,0,L|317:360,1,68.75,0|0,3:0|0:0,0:0:0:0:
393,219,22231,1,0,0:0:0:0:
324,220,22344,1,0,0:0:0:0:
260,245,22458,2,0,P|224:263|183:293,1,68.75,8|0,3:3|0:0,0:0:0:0:
32,199,22686,2,0,P|60:217|92:232,1,68.75,0|0,0:0|0:0,0:0:0:0:
162,138,22913,5,0,3:0:0:0:
102,167,23026,1,0,0:0:0:0:
92,232,23140,2,0,P|107:270|138:302,1,68.75,0|0,0:0|0:0,0:0:0:0:
242,185,23367,2,0,P|220:212|209:244,1,68.75,8|0,3:3|0:0,0:0:0:0:
367,256,23595,2,0,P|333:260|301:274,1,68.75,0|0,0:0|0:0,0:0:0:0:
131,350,23822,5,0,3:0:0:0:
64,349,23935,1,0,0:0:0:0:
20,299,24049,1,0,0:0:0:0:
30,233,24162,1,0,0:0:0:0:
86,197,24276,2,0,P|107:164|108:125,1,68.75,8|0,3:3|0:0,0:0:0:0:
0,63,24504,2,0,L|13:145,1,68.75,0|0,0:0|0:0,0:0:0:0:
197,247,24731,5,0,3:0:0:0:
130,247,24844,1,0,0:0:0:0:
86,197,24958,1,0,0:0:0:0:
96,131,25071,1,0,0:0:0:0:
152,95,25185,2,0,P|172:61|173:22,1,68.75,8|0,3:3|0:0,0:0:0:0:
17,50,25413,2,0,L|98:31,1,68.75,0|0,0:0|0:0,0:0:0:0:
321,36,25640,5,0,3:0:0:0:
72,120,25867,1,0,0:0:0:0:
381,99,26095,1,8,3:3:0:0:
132,183,26322,1,0,0:0:0:0:
397,183,26549,2,0,L|374:282,1,68.75,0|0,3:0|0:0,0:0:0:0:
294,364,26776,2,0,L|271:265,1,68.75,0|0,0:0|0:0,0:0:0:0:
275,168,27004,1,8,3:3:0:0:
103,360,27231,5,0,0:0:0:0:
57,346,27344,1,0,0:0:0:0:
21,315,27458,2,0,P|11:278|15:229,1,68.75,0|0,3:0|0:0,0:0:0:0:
129,326,27686,1,0,0:0:0:0:
105,284,27799,1,0,0:0:0:0:
102,236,27913,2,0,P|121:202|158:170,1,68.75,8|0,3:3|0:0,0:0:0:0:
199,325,28140,2,0,P|188:287|192:238,1,68.75,0|0,0:0|0:0,0:0:0:0:
330,319,28367,2,0,P|296:299|264:262,1,68.75,0|0,3:0|0:0,0:0:0:0:
418,222,28595,2,0,P|380:232|331:228,1,68.75,0|0,0:0|0:0,0:0:0:0:
259,127,28822,1,8,3:3:0:0:
494,127,29049,5,0,0:0:0:0:
447,98,29162,1,0,0:0:0:0:
394,84,29276,2,0,P|357:79|320:85,1,68.75,0|0,3:0|0:0,0:0:0:0:
205,252,29504,1,0,0:0:0:0:
258,239,29617,1,0,0:0:0:0:
305,211,29731,2,0,P|334:188|356:157,1,68.75,8|0,3:3|0:0,0:0:0:0:
189,109,29958,2,0,P|218:131|240:162,1,68.75,0|0,0:0|0:0,0:0:0:0:
172,258,30186,5,0,3:0:0:0:
149,308,30299,1,0,0:0:0:0:
127,358,30413,1,0,0:0:0:0:
340,258,30640,1,8,3:3:0:0:
362,308,30753,1,0,0:0:0:0:
384,358,30867,1,0,0:0:0:0:
184,265,31095,5,0,3:0:0:0:
165,308,31208,1,0,0:0:0:0:
146,350,31322,1,0,0:0:0:0:
327,265,31549,1,8,3:3:0:0:
346,308,31662,1,0,0:0:0:0:
365,350,31776,1,0,0:0:0:0:
96,192,32004,5,8,3:0:0:0:
416,192,32231,1,8,3:0:0:0:
69,192,32458,1,8,3:3:0:0:
442,192,32685,1,8,3:0:0:0:
366,190,32799,1,0,0:0:0:0:
442,192,32913,6,0,L|436:40,1,137.5,0|0,3:2|0:0,0:0:0:0:
69,192,33367,2,0,L|76:40,1,137.5,8|0,3:3|0:0,0:0:0:0:
469,192,33822,2,0,L|462:17,1,137.5,0|0,3:0|0:0,0:0:0:0:
42,192,34276,2,0,L|49:17,1,137.5,8|0,3:3|0:0,0:0:0:0:
442,192,34731,6,0,L|436:344,1,137.5,0|0,3:0|0:0,0:0:0:0:
69,192,35185,2,0,L|76:344,1,137.5,0|0,0:0|0:0,0:0:0:0:
469,192,35640,2,0,L|462:366,1,137.5,0|0,3:0|0:0,0:0:0:0:
42,192,36094,2,0,L|49:366,1,137.5,0|0,0:0|0:0,0:0:0:0:
372,161,36549,2,0,P|346:67|234:94,1,165.000006294251,0|0,3:0|0:0,0:0:0:0:
297,133,37004,2,0,P|271:227|182:223,1,165.000006294251,8|0,3:3|0:0,0:0:0:0:
224,162,37458,2,0,B|258:297|258:297|302:308|332:298,1,165.000006294251,0|0,3:0|0:0,0:0:0:0:
324,207,37913,2,0,B|298:98|298:98|257:75|219:72,1,165.000006294251,8|0,3:3|0:0,0:0:0:0:
431,209,38367,5,0,3:0:0:0:
153,239,38595,1,0,0:0:0:0:
454,255,38822,1,8,3:3:0:0:
111,208,39050,1,0,0:0:0:0:
312,90,39276,5,0,3:0:0:0:
282,368,39504,1,0,3:0:0:0:
239,32,39731,1,8,3:3:0:0:
273,325,39959,1,0,3:0:0:0:
481,123,40186,6,0,P|389:136|362:188,1,137.5,0|0,3:0|0:0,0:0:0:0:
390,244,40526,1,0,0:0:0:0:
470,233,40640,2,0,L|480:312,1,68.75,8|0,3:3|0:0,0:0:0:0:
388,270,40867,2,0,L|378:349,1,68.75,0|0,0:0|0:0,0:0:0:0:
296,354,41095,2,0,P|204:341|177:289,1,137.5,0|0,3:0|0:0,0:0:0:0:
260,275,41436,1,0,0:0:0:0:
338,241,41549,2,0,P|290:193|224:196,1,137.5,8|0,3:3|0:0,0:0:0:0:
71,267,42004,6,0,P|11:201|136:144,1,275,0|8,3:0|3:3,0:0:0:0:
83,195,42686,1,0,0:0:0:0:
305,205,42913,5,0,0:0:0:0:
190,232,43140,5,0,0:0:0:0:
154,340,43367,5,8,0:3:0:0:
230,117,43595,5,2,0:3:0:0:
351,342,43822,5,0,3:0:0:0:
440,96,44276,1,8,3:0:0:0:
198,324,44731,5,0,3:0:0:0:
323,180,44958,1,0,3:0:0:0:
504,248,45186,1,8,3:0:0:0:
247,267,45413,1,0,0:0:0:0:
433,223,45640,6,0,L|430:365,1,110,2|0,0:0|0:0,0:0:0:0:
409,148,46095,2,0,L|412:290,1,110,8|0,3:0|0:0,0:0:0:0:
437,72,46549,5,2,0:0:0:0:
434,181,46776,1,0,0:0:0:0:
301,149,47004,1,8,3:0:0:0:
298,39,47231,1,0,0:0:0:0:
370,114,47458,6,0,L|368:254,1,110,2|0,0:0|0:0,0:0:0:0:
142,114,47913,2,0,L|144:254,1,110,8|0,3:0|0:0,0:0:0:0:
381,106,48367,2,0,L|379:260,1,110,2|0,0:0|0:0,0:0:0:0:
130,106,48822,2,0,L|132:260,1,110,8|0,3:0|0:0,0:0:0:0:
256,192,49276,1,2,0:0:0:0:
192,350,49504,5,0,0:0:0:0:
257,153,49731,1,8,3:0:0:0:
320,350,49958,1,0,0:0:0:0:
125,289,50186,1,2,0:0:0:0:
387,289,50413,1,0,0:0:0:0:
109,303,50640,1,8,3:0:0:0:
403,303,50867,1,0,0:0:0:0:
149,181,51095,6,0,L|121:305,1,110,2|0,0:0|0:0,0:0:0:0:
363,181,51549,2,0,L|391:305,1,110,8|0,3:0|0:0,0:0:0:0:
133,181,52004,1,2,0:0:0:0:
121,234,52117,1,0,3:0:0:0:
109,288,52231,1,8,0:0:0:0:
378,181,52458,1,12,3:0:0:0:
402,288,52686,1,12,3:0:0:0:
408,315,52799,1,8,3:0:0:0:
414,341,52913,1,2,0:3:0:0:
509,163,53367,6,0,P|442:127|427:111,1,82.5000031471254,2|0,0:3|0:0,0:0:0:0:
512,68,53822,1,8,3:0:0:0:
198,31,54276,6,0,P|131:67|116:83,1,82.5000031471254,2|0,0:3|0:0,0:0:0:0:
201,126,54731,1,2,3:3:0:0:
401,328,55186,6,0,P|468:292|483:276,1,82.5000031471254,2|0,0:3|0:0,0:0:0:0:
398,233,55641,1,8,3:0:0:0:
81,351,56095,6,0,P|14:315|-1:299,1,82.5000031471254,2|2,0:3|3:2,0:0:0:0:
84,256,56550,1,2,3:3:0:0:
357,78,57004,6,0,P|324:54|286:39,1,82.5000031471254,2|0,0:3|0:0,0:0:0:0:
283,134,57459,1,8,3:0:0:0:
103,79,57913,6,0,P|70:103|31:118,1,82.5000031471254,2|0,0:3|0:0,0:0:0:0:
28,23,58368,1,2,3:3:0:0:
271,362,58822,5,0,3:3:0:0:
245,330,58935,1,0,3:0:0:0:
243,289,59049,1,0,3:0:0:0:
264,254,59162,1,0,3:0:0:0:
305,235,59277,1,8,3:0:0:0:
350,214,59390,1,0,0:0:0:0:
379,174,59504,1,8,3:0:0:0:
386,126,59617,1,8,3:0:0:0:
321,79,59731,5,8,3:0:0:0:
251,52,59845,1,8,3:0:0:0:
193,100,59958,1,8,3:0:0:0:
125,70,60072,1,8,3:0:0:0:
75,127,60186,6,0,P|55:157|30:204,1,68.75,4|0,3:2|0:0,0:0:0:0:
59,315,60413,1,0,0:0:0:0:
59,315,60526,1,0,0:0:0:0:
59,315,60640,2,0,L|130:283,1,68.75,8|0,3:3|0:0,0:0:0:0:
243,223,60867,5,0,0:0:0:0:
281,280,60980,1,0,0:0:0:0:
289,348,61094,2,0,P|261:362|217:363,1,68.75,0|0,3:0|0:0,0:0:0:0:
350,303,61322,2,0,P|385:305|415:321,1,68.75,0|0,0:0|0:0,0:0:0:0:
235,288,61549,2,0,P|251:215|252:126,1,137.5,8|0,3:3|0:0,0:0:0:0:
491,235,62004,6,0,P|475:162|474:73,1,137.5,0|0,3:0|0:0,0:0:0:0:
257,28,62458,1,8,3:3:0:0:
473,100,62685,2,0,P|476:169|491:235,1,137.5,0|0,0:0|3:0,0:0:0:0:
254,153,63140,2,0,P|251:222|235:288,1,137.5,0|8,0:0|3:3,0:0:0:0:
16,97,63594,5,0,0:0:0:0:
71,88,63707,1,0,0:0:0:0:
125,78,63822,2,0,L|195:24,1,68.75,0|0,3:0|0:0,0:0:0:0:
119,165,64049,1,0,0:0:0:0:
188,164,64162,1,0,0:0:0:0:
252,139,64276,2,0,P|288:121|329:91,1,68.75,8|0,3:3|0:0,0:0:0:0:
480,185,64504,2,0,P|452:167|420:152,1,68.75,0|0,0:0|0:0,0:0:0:0:
350,246,64731,5,0,3:0:0:0:
410,217,64844,1,0,0:0:0:0:
420,152,64958,2,0,P|405:114|374:82,1,68.75,0|0,0:0|0:0,0:0:0:0:
270,199,65185,2,0,P|292:172|303:140,1,68.75,0|0,0:0|0:0,0:0:0:0:
145,128,65413,2,0,P|179:124|211:110,1,68.75,0|0,0:0|0:0,0:0:0:0:
381,34,65640,5,0,3:0:0:0:
448,35,65753,1,0,0:0:0:0:
492,85,65867,1,0,0:0:0:0:
482,151,65980,1,0,0:0:0:0:
426,187,66094,2,0,P|405:220|404:259,1,68.75,0|0,0:0|0:0,0:0:0:0:
512,321,66322,2,0,L|499:239,1,68.75,0|0,0:0|0:0,0:0:0:0:
315,137,66549,5,0,3:0:0:0:
382,137,66662,1,0,0:0:0:0:
426,187,66776,1,0,0:0:0:0:
416,253,66889,1,0,0:0:0:0:
360,289,67003,2,0,P|340:323|339:362,1,68.75,0|0,0:0|0:0,0:0:0:0:
495,334,67231,2,0,L|414:353,1,68.75,0|0,0:0|0:0,0:0:0:0:
191,348,67458,5,0,3:0:0:0:
440,264,67685,1,0,0:0:0:0:
131,285,67913,1,8,3:3:0:0:
380,201,68140,1,0,0:0:0:0:
115,201,68367,2,0,L|138:102,1,68.75,0|0,3:0|0:0,0:0:0:0:
218,20,68594,2,0,L|241:119,1,68.75,0|0,0:0|0:0,0:0:0:0:
237,216,68822,1,8,3:3:0:0:
409,24,69049,5,0,0:0:0:0:
455,38,69162,1,0,0:0:0:0:
491,69,69276,2,0,P|501:106|497:155,1,68.75,0|0,3:0|0:0,0:0:0:0:
383,58,69504,1,0,0:0:0:0:
407,100,69617,1,0,0:0:0:0:
410,148,69731,2,0,P|391:182|354:214,1,68.75,8|0,3:3|0:0,0:0:0:0:
313,59,69958,2,0,P|324:97|320:146,1,68.75,0|0,0:0|0:0,0:0:0:0:
182,65,70185,2,0,P|216:85|248:122,1,68.75,0|0,3:0|0:0,0:0:0:0:
94,162,70413,2,0,P|132:152|181:156,1,68.75,0|0,0:0|0:0,0:0:0:0:
253,257,70640,1,8,3:3:0:0:
18,257,70867,5,0,0:0:0:0:
65,286,70980,1,0,0:0:0:0:
118,300,71094,2,0,P|155:305|192:299,1,68.75,0|0,3:0|0:0,0:0:0:0:
307,132,71322,1,0,0:0:0:0:
254,145,71435,1,0,0:0:0:0:
207,173,71549,2,0,P|178:196|156:227,1,68.75,8|0,3:3|0:0,0:0:0:0:
323,275,71776,2,0,P|294:253|272:222,1,68.75,0|0,0:0|0:0,0:0:0:0:
340,126,72004,5,0,3:0:0:0:
363,76,72117,1,0,0:0:0:0:
385,26,72231,1,0,0:0:0:0:
172,126,72458,1,8,3:3:0:0:
150,76,72571,1,0,0:0:0:0:
128,26,72685,1,0,0:0:0:0:
327,120,72913,5,0,3:0:0:0:
327,69,73026,1,0,0:0:0:0:
366,34,73140,1,0,0:0:0:0:
185,119,73367,1,8,3:3:0:0:
186,67,73480,1,0,0:0:0:0:
147,34,73594,1,0,0:0:0:0:
416,192,73822,5,8,3:0:0:0:
96,192,74049,1,8,3:0:0:0:
443,192,74276,1,8,3:3:0:0:
70,192,74503,1,8,3:0:0:0:
146,194,74617,1,0,0:0:0:0:
70,192,74731,6,0,B|80:263|80:263|76:344,1,137.5,0|0,3:0|0:0,0:0:0:0:
443,192,75185,2,0,B|431:264|431:264|436:344,1,137.5,8|0,3:3|0:0,0:0:0:0:
43,192,75640,2,0,B|35:264|35:264|50:367,1,137.5,0|0,3:0|0:0,0:0:0:0:
470,192,76094,2,0,B|475:265|475:265|463:367,1,137.5,8|0,3:3|0:0,0:0:0:0:
70,192,76549,6,0,P|79:123|76:40,1,137.5,0|0,3:0|0:0,0:0:0:0:
443,192,77003,2,0,P|431:125|436:40,1,137.5,8|0,3:3|0:0,0:0:0:0:
43,192,77458,2,0,P|39:122|50:18,1,137.5,0|0,3:0|0:0,0:0:0:0:
470,192,77912,2,0,P|474:121|463:18,1,137.5,8|0,3:3|0:0,0:0:0:0:
140,223,78367,2,0,P|166:317|291:343,1,165.000006294251,0|0,3:0|0:0,0:0:0:0:
215,251,78822,2,0,P|241:157|342:144,1,165.000006294251,8|0,3:3|0:0,0:0:0:0:
288,222,79276,2,0,B|153:113,1,165.000006294251,0|0,3:0|0:0,0:0:0:0:
160,217,79731,2,0,P|241:169|240:76,1,165.000006294251,8|0,3:3|0:0,0:0:0:0:
81,175,80185,5,0,3:0:0:0:
359,145,80413,1,0,0:0:0:0:
58,129,80640,1,8,3:3:0:0:
401,176,80868,1,0,0:0:0:0:
200,294,81094,5,0,3:0:0:0:
230,16,81322,1,0,3:0:0:0:
273,352,81549,1,8,3:3:0:0:
239,59,81777,1,0,3:0:0:0:
31,261,82004,6,0,P|123:248|150:196,1,137.5,0|0,3:0|0:0,0:0:0:0:
122,140,82344,1,0,0:0:0:0:
42,151,82458,2,0,L|32:72,1,68.75,8|0,3:3|0:0,0:0:0:0:
124,114,82685,2,0,L|134:35,1,68.75,0|0,0:0|0:0,0:0:0:0:
216,30,82913,2,0,P|308:43|335:95,1,137.5,0|0,3:0|0:0,0:0:0:0:
252,109,83254,1,0,0:0:0:0:
174,143,83367,2,0,P|222:191|288:188,1,137.5,8|0,3:3|0:0,0:0:0:0:
441,117,83822,6,0,P|501:183|376:240,1,275,0|8,3:0|3:3,0:0:0:0:
316,71,84504,2,0,P|280:61|208:66,1,68.75,0|0,0:0|0:0,0:0:0:0:
190,128,84731,2,0,P|155:125|122:116,1,68.75,0|0,0:0|0:0,0:0:0:0:
73,43,84958,2,0,P|38:45|5:54,1,68.75,0|0,0:0|0:0,0:0:0:0:
33,138,85186,2,0,L|37:267,1,68.75,8|0,0:3|0:0,0:0:0:0:
15,291,85413,2,0,L|11:420,1,68.75,0|0,0:0|0:0,0:0:0:0:
97,373,85640,5,4,3:2:0:0:
340,293,85867,1,0,0:0:0:0:
98,322,86095,1,8,3:0:0:0:
341,242,86322,1,0,0:0:0:0:
99,271,86549,1,0,3:0:0:0:
342,191,86776,5,0,0:0:0:0:
236,357,87004,1,8,3:0:0:0:
130,191,87231,1,0,0:0:0:0:
384,353,87458,5,0,3:0:0:0:
128,353,87686,1,0,0:0:0:0:
256,97,87913,1,8,3:0:0:0:
255,364,88140,5,0,0:0:0:0:
94,95,88367,1,0,3:0:0:0:
418,95,88595,1,0,0:0:0:0:
255,344,88822,5,8,3:0:0:0:
111,104,89049,1,0,0:0:0:0:
400,104,89276,6,0,P|400:160|394:231,1,110,0|0,3:0|0:0,0:0:0:0:
111,104,89731,2,0,P|112:160|117:231,1,110,8|0,3:0|0:0,0:0:0:0:
310,57,90186,2,0,P|255:55|201:57,1,110,0|0,3:0|0:0,0:0:0:0:
158,353,90640,1,8,3:0:0:0:
354,353,90867,1,0,0:0:0:0:
353,157,91095,5,0,3:0:0:0:
157,157,91322,1,0,0:0:0:0:
400,216,91549,1,8,3:0:0:0:
112,216,91776,1,0,0:0:0:0:
255,63,92004,5,0,3:0:0:0:
255,321,92231,1,0,3:0:0:0:
127,63,92458,1,8,3:0:0:0:
385,63,92685,1,0,0:0:0:0:
352,321,92913,6,0,P|256:368|160:320,1,220,0|8,3:0|3:0,0:0:0:0:
161,61,93822,2,0,P|256:14|352:62,1,220,0|8,3:0|3:0,0:0:0:0:
256,289,94731,5,0,3:0:0:0:
62,128,94958,1,0,0:0:0:0:
95,280,95186,1,8,3:0:0:0:
256,289,95413,5,0,0:0:0:0:
450,128,95640,1,0,3:0:0:0:
417,280,95868,1,0,3:0:0:0:
255,66,96095,5,8,3:0:0:0:
256,351,96322,1,0,3:0:0:0:
256,30,96549,6,0,L|99:52,1,110,0|0,3:0|0:0,0:0:0:0:
334,77,97004,2,0,L|491:99,1,110,8|0,3:0|0:0,0:0:0:0:
200,165,97458,2,0,L|43:187,1,110,0|0,3:0|0:0,0:0:0:0:
345,214,97913,2,0,L|502:236,1,110,8|0,3:0|0:0,0:0:0:0:
151,289,98367,6,0,P|104:309|49:367,1,110,0|0,3:0|0:0,0:0:0:0:
361,347,98822,2,0,P|416:364|486:336,1,110,8|0,3:0|0:0,0:0:0:0:
476,97,99276,1,0,3:0:0:0:
255,98,99504,1,0,3:0:0:0:
414,273,99731,1,8,3:0:0:0:
370,156,99958,5,0,0:0:0:0:
256,192,105640,12,0,106549,0:0:0:0:
137,52,106776,5,8,3:1:0:0:
308,54,107004,5,8,3:1:0:0:
496,127,107231,5,8,3:1:0:0:
479,196,107344,1,8,3:1:0:0:
462,266,107458,2,0,L|435:366,1,82.5000031471254,4|0,3:2|0:0,0:0:0:0:
382,227,107686,1,0,0:0:0:0:
378,283,107799,1,0,0:0:0:0:
344,330,107913,2,0,P|306:343|240:340,1,82.5000031471254,8|0,3:3|0:0,0:0:0:0:
305,243,108140,5,0,0:0:0:0:
254,267,108253,1,0,0:0:0:0:
196,261,108367,2,0,P|165:234|135:175,1,82.5000031471254,0|0,3:0|0:0,0:0:0:0:
60,367,108595,1,0,0:0:0:0:
113,347,108708,1,0,0:0:0:0:
149,302,108822,2,0,P|151:260|131:198,1,82.5000031471254,8|0,3:3|0:0,0:0:0:0:
14,140,109049,2,0,P|11:181|31:243,1,82.5000031471254,0|0,0:0|0:0,0:0:0:0:
65,287,109276,5,0,3:0:0:0:
256,61,109504,1,0,0:0:0:0:
447,287,109731,1,8,3:3:0:0:
65,97,109958,5,0,0:0:0:0:
256,323,110186,1,0,3:0:0:0:
447,97,110413,1,0,0:0:0:0:
65,97,110640,1,8,3:3:0:0:
352,224,110867,5,0,0:0:0:0:
355,182,110980,1,0,0:0:0:0:
359,141,111095,2,0,P|354:98|340:54,1,82.5000031471254,0|0,3:0|0:0,0:0:0:0:
199,202,111322,1,0,0:0:0:0:
246,187,111435,1,0,0:0:0:0:
285,155,111550,2,0,P|311:119|333:78,1,82.5000031471254,8|0,3:3|0:0,0:0:0:0:
120,73,111776,5,0,0:0:0:0:
162,112,111889,1,0,0:0:0:0:
221,118,112004,2,0,P|264:112|308:98,1,82.5000031471254,0|0,3:0|0:0,0:0:0:0:
448,34,112231,2,0,P|404:39|360:53,1,82.5000031471254,0|0,0:0|0:0,0:0:0:0:
368,247,112458,2,0,P|362:203|348:159,1,82.5000031471254,8|0,3:3|0:0,0:0:0:0:
284,20,112685,2,0,P|289:63|303:107,1,82.5000031471254,0|0,0:0|0:0,0:0:0:0:
410,116,112913,5,0,3:0:0:0:
451,141,113026,1,0,0:0:0:0:
477,183,113140,1,0,0:0:0:0:
480,232,113253,1,0,0:0:0:0:
461,277,113367,2,0,P|443:322|453:372,1,82.5000031471254,8|0,3:3|0:0,0:0:0:0:
400,232,113595,5,0,0:0:0:0:
374,274,113708,1,0,0:0:0:0:
332,300,113822,1,0,3:0:0:0:
283,302,113935,1,0,0:0:0:0:
238,284,114049,2,0,P|193:265|143:275,1,82.5000031471254,0|0,0:0|0:0,0:0:0:0:
14,362,114276,2,0,P|54:363|91:346,1,82.5000031471254,8|0,3:3|0:0,0:0:0:0:
34,234,114504,1,0,0:0:0:0:
289,356,114731,5,0,3:0:0:0:
36,157,114958,1,0,0:0:0:0:
291,279,115185,5,8,3:3:0:0:
476,157,115413,1,0,0:0:0:0:
221,279,115640,6,0,P|163:223|136:127,1,165.000006294251,0|0,3:0|0:0,0:0:0:0:
443,292,116095,2,0,P|411:328|356:338,1,82.5000031471254,8|0,3:3|0:0,0:0:0:0:
317,180,116322,2,0,P|353:212|363:267,1,82.5000031471254,0|0,0:0|0:0,0:0:0:0:
255,353,116549,5,0,3:0:0:0:
63,129,116776,1,0,0:0:0:0:
449,129,117004,1,8,3:3:0:0:
160,356,117231,5,0,0:0:0:0:
160,28,117458,1,0,3:0:0:0:
321,357,117686,1,0,0:0:0:0:
321,29,117913,1,8,3:3:0:0:
29,224,118140,5,0,0:0:0:0:
65,180,118253,1,0,0:0:0:0:
120,168,118367,2,0,P|161:186|200:213,1,82.5000031471254,0|0,3:0|0:0,0:0:0:0:
132,292,118595,1,0,0:0:0:0:
168,335,118708,1,0,0:0:0:0:
223,347,118822,2,0,P|263:329|302:302,1,82.5000031471254,8|0,3:3|0:0,0:0:0:0:
314,129,119049,2,0,P|316:175|346:245,1,82.5000031471254,0|0,0:0|0:0,0:0:0:0:
422,369,119276,6,0,P|433:329|434:288,1,82.5000031471254,0|0,3:0|0:0,0:0:0:0:
428,100,119504,1,0,0:0:0:0:
397,137,119617,1,0,0:0:0:0:
407,184,119731,2,0,P|436:214|480:224,1,82.5000031471254,8|0,3:3|0:0,0:0:0:0:
426,26,119958,2,0,P|386:36|358:66,1,82.5000031471254,0|0,0:0|0:0,0:0:0:0:
297,259,120186,5,0,3:0:0:0:
258,300,120299,1,0,0:0:0:0:
202,306,120413,1,0,0:0:0:0:
155,274,120526,1,0,0:0:0:0:
141,219,120640,2,0,L|170:132,1,82.5000031471254,8|0,3:3|0:0,0:0:0:0:
389,182,120867,5,0,0:0:0:0:
350,140,120980,1,0,0:0:0:0:
294,134,121095,2,0,P|259:167|235:224,1,82.5000031471254,8|0,3:0|0:0,0:0:0:0:
317,354,121322,2,0,P|327:314|325:273,1,82.5000031471254,8|0,3:0|0:0,0:0:0:0:
183,127,121549,2,0,P|165:171|167:233,1,82.5000031471254,8|0,3:3|0:0,0:0:0:0:
417,280,121776,2,0,P|402:241|377:209,1,82.5000031471254,8|0,3:0|0:0,0:0:0:0:
156,313,122004,6,0,B|117:313|117:313|58:354|58:354|30:349|6:311,1,165.000006294251,0|0,3:0|0:0,0:0:0:0:
356,313,122458,2,0,B|395:313|395:313|454:354|454:354|482:349|506:311,1,165.000006294251,8|0,3:3|0:0,0:0:0:0:
157,288,122913,2,0,B|118:288|118:288|50:323|50:323|27:306|28:270,1,165.000006294251,0|0,3:0|0:0,0:0:0:0:
355,288,123367,2,0,B|394:288|394:288|462:323|462:323|485:306|484:270,1,165.000006294251,8|0,3:3|0:0,0:0:0:0:
150,107,123822,6,0,B|134:172|138:224|138:224|160:210|171:177,1,165.000006294251,0|0,3:0|0:0,0:0:0:0:
362,107,124276,2,0,B|378:172|374:224|374:224|352:210|341:177,1,165.000006294251,8|0,3:3|0:0,0:0:0:0:
124,147,124731,2,0,B|104:228|109:292|109:292|137:275|151:234,1,165.000006294251,0|0,3:0|0:0,0:0:0:0:
389,147,125185,2,0,B|409:228|404:292|404:292|376:275|362:234,1,165.000006294251,0|0,0:0|0:0,0:0:0:0:
255,33,125640,5,0,3:0:0:0:
481,192,125867,1,0,0:0:0:0:
257,351,126095,1,8,3:3:0:0:
31,192,126322,1,0,0:0:0:0:
383,63,126549,5,0,3:0:0:0:
383,321,126776,1,0,0:0:0:0:
129,321,127004,1,8,3:3:0:0:
129,63,127231,1,0,0:0:0:0:
337,291,127458,6,0,L|364:371,1,82.5000031471254,0|0,3:0|0:0,0:0:0:0:
347,229,127686,2,0,L|374:309,1,82.5000031471254,0|0,0:0|0:0,0:0:0:0:
357,167,127913,2,0,L|384:247,1,82.5000031471254,8|0,3:3|0:0,0:0:0:0:
367,105,128140,2,0,L|394:185,1,82.5000031471254,0|0,0:0|0:0,0:0:0:0:
175,291,128367,6,0,L|148:371,1,82.5000031471254,8|0,3:0|0:0,0:0:0:0:
165,229,128595,2,0,L|138:309,1,82.5000031471254,8|0,3:0|0:0,0:0:0:0:
155,167,128822,2,0,L|128:247,1,82.5000031471254,8|0,3:3|0:0,0:0:0:0:
145,105,129049,2,0,L|118:185,1,82.5000031471254,8|0,3:0|0:0,0:0:0:0:
35,35,129276,5,0,3:0:0:0:
383,95,129504,1,0,0:0:0:0:
383,289,129731,1,8,3:3:0:0:
35,349,129959,1,0,0:0:0:0:
26,27,130186,5,0,3:0:0:0:
391,90,130414,1,0,0:0:0:0:
391,293,130641,1,8,3:3:0:0:
26,356,130867,1,0,0:0:0:0:
299,134,131095,5,0,3:0:0:0:
375,303,131322,1,0,0:0:0:0:
156,120,131549,1,8,3:3:0:0:
213,296,131776,1,0,0:0:0:0:
418,30,132004,5,0,3:0:0:0:
350,352,132232,1,8,3:3:0:0:
94,30,132458,1,0,3:0:0:0:
162,352,132686,1,8,3:3:0:0:
417,127,132913,6,0,L|301:107,1,82.5000031471254,4|0,3:2|0:0,0:0:0:0:
150,86,133140,1,0,0:0:0:0:
142,134,133253,1,0,0:0:0:0:
134,183,133367,2,0,L|120:284,1,82.5000031471254,8|0,3:3|0:0,0:0:0:0:
255,357,133595,1,0,0:0:0:0:
263,309,133708,1,0,0:0:0:0:
271,260,133822,2,0,L|284:158,1,82.5000031471254,0|0,3:0|0:0,0:0:0:0:
150,86,134049,1,0,0:0:0:0:
198,94,134162,1,0,0:0:0:0:
247,102,134276,2,0,P|288:113|341:146,1,82.5000031471254,8|0,3:3|0:0,0:0:0:0:
362,298,134504,5,0,0:0:0:0:
314,290,134617,1,0,0:0:0:0:
265,282,134731,2,0,P|225:277|175:252,1,82.5000031471254,0|0,3:0|0:0,0:0:0:0:
34,175,134958,2,0,P|74:180|124:205,1,82.5000031471254,0|0,0:0|0:0,0:0:0:0:
193,348,135186,2,0,P|168:316|150:263,1,82.5000031471254,8|0,3:3|0:0,0:0:0:0:
105,108,135413,2,0,P|130:140|148:193,1,82.5000031471254,0|0,0:0|0:0,0:0:0:0:
96,344,135640,2,0,P|101:304|126:254,1,82.5000031471254,0|0,3:0|0:0,0:0:0:0:
203,113,135867,2,0,P|197:153|173:203,1,82.5000031471254,0|0,0:0|0:0,0:0:0:0:
35,256,136095,1,8,3:3:0:0:
323,224,136322,5,0,0:0:0:0:
276,240,136435,1,0,0:0:0:0:
240,274,136549,2,0,P|229:321|233:370,1,82.5000031471254,0|0,3:0|0:0,0:0:0:0:
362,200,136776,1,0,0:0:0:0:
314,186,136889,1,0,0:0:0:0:
265,193,137003,2,0,P|229:225|204:267,1,82.5000031471254,0|0,0:0|0:0,0:0:0:0:
41,254,137231,2,0,P|76:221|101:179,1,82.5000031471254,0|0,0:0|0:0,0:0:0:0:
26,49,137458,5,0,3:0:0:0:
31,89,137571,1,0,0:0:0:0:
46,127,137686,2,0,L|104:205,1,82.5000031471254,0|0,0:0|0:0,0:0:0:0:
210,47,137913,2,0,L|160:113,1,82.5000031471254,8|0,3:3|0:0,0:0:0:0:
29,135,138140,2,0,L|99:229,1,82.5000031471254,0|0,0:0|0:0,0:0:0:0:
226,38,138367,5,0,3:0:0:0:
183,77,138480,1,0,0:0:0:0:
159,129,138594,1,0,0:0:0:0:
157,186,138707,1,0,0:0:0:0:
177,240,138822,2,0,P|207:274|260:301,1,82.5000031471254,8|0,3:3|0:0,0:0:0:0:
157,186,139050,5,0,0:0:0:0:
154,243,139163,1,0,0:0:0:0:
173,297,139277,1,0,3:0:0:0:
212,339,139390,1,0,0:0:0:0:
265,362,139505,2,0,P|309:365|365:346,1,82.5000031471254,0|0,3:0|0:0,0:0:0:0:
491,270,139731,2,0,P|446:266|390:285,1,82.5000031471254,8|0,3:3|0:0,0:0:0:0:
458,367,139958,5,0,3:0:0:0:
256,64,140186,1,0,3:0:0:0:
54,367,140413,1,0,0:0:0:0:
477,376,140640,5,8,3:3:0:0:
255,43,140868,1,0,0:0:0:0:
33,376,141095,1,0,3:0:0:0:
427,351,141322,5,0,0:0:0:0:
256,94,141550,1,8,3:3:0:0:
84,351,141777,1,0,0:0:0:0:
431,275,142004,5,0,3:0:0:0:
400,236,142117,1,0,0:0:0:0:
355,215,142231,2,0,P|315:201|272:163,1,82.5000031471254,0|0,0:0|0:0,0:0:0:0:
457,143,142458,1,8,3:3:0:0:
408,137,142571,1,0,0:0:0:0:
362,154,142685,2,0,P|322:172|265:175,1,82.5000031471254,0|0,0:0|0:0,0:0:0:0:
133,108,142913,2,0,P|176:108|229:129,1,82.5000031471254,0|0,3:0|0:0,0:0:0:0:
312,228,143140,2,0,P|271:213|228:175,1,82.5000031471254,0|0,0:0|0:0,0:0:0:0:
182,33,143368,2,0,P|213:64|236:117,1,82.5000031471254,8|0,3:3|0:0,0:0:0:0:
156,195,143595,5,0,0:0:0:0:
109,209,143708,1,0,0:0:0:0:
71,241,143822,2,0,P|58:283|58:326,1,82.5000031471254,0|0,3:0|0:0,0:0:0:0:
204,274,144049,2,0,P|217:316|217:359,1,82.5000031471254,0|0,0:0|0:0,0:0:0:0:
58,237,144276,2,0,P|43:287|43:338,1,82.5000031471254,8|0,3:3|0:0,0:0:0:0:
216,277,144503,2,0,P|231:326|231:377,1,82.5000031471254,0|0,0:0|0:0,0:0:0:0:
441,241,144731,2,0,P|454:283|454:326,1,82.5000031471254,0|0,3:0|0:0,0:0:0:0:
308,274,144958,2,0,P|295:316|295:359,1,82.5000031471254,0|0,0:0|0:0,0:0:0:0:
453,237,145185,2,0,P|468:287|468:338,1,82.5000031471254,8|0,3:3|0:0,0:0:0:0:
295,277,145412,2,0,P|280:326|280:377,1,82.5000031471254,0|0,0:0|0:0,0:0:0:0:
377,200,145640,5,0,3:0:0:0:
327,170,145753,1,0,0:0:0:0:
270,169,145867,1,0,0:0:0:0:
220,196,145980,1,0,0:0:0:0:
189,244,146095,2,0,L|180:350,1,82.5000031471254,8|0,3:3|0:0,0:0:0:0:
64,200,146322,5,0,0:0:0:0:
113,170,146435,1,0,0:0:0:0:
170,169,146549,1,8,3:0:0:0:
220,196,146662,1,0,0:0:0:0:
251,244,146777,2,0,L|260:349,1,82.5000031471254,8|0,3:0|0:0,0:0:0:0:
283,89,147004,2,0,L|275:171,1,82.5000031471254,8|0,3:3|0:0,0:0:0:0:
340,354,147231,2,0,L|330:248,1,82.5000031471254,8|0,3:0|0:0,0:0:0:0:
376,78,147458,6,0,B|417:86|417:86|449:69|496:68|496:68|481:124,1,165.000006294251,0|0,3:0|0:0,0:0:0:0:
136,78,147913,2,0,B|95:86|95:86|63:69|16:68|16:68|31:124,1,165.000006294251,8|0,3:3|0:0,0:0:0:0:
387,66,148367,2,0,B|432:75|432:75|468:56|519:55|519:55|503:117,1,165.000006294251,0|0,3:0|0:0,0:0:0:0:
124,66,148822,2,0,B|79:75|79:75|43:56|-7:55|-7:55|8:117,1,165.000006294251,8|0,3:3|0:0,0:0:0:0:
418,242,149276,6,0,B|388:208|388:208|407:150|359:131|359:131|359:166,1,165.000006294251,0|0,3:0|0:0,0:0:0:0:
94,242,149731,2,0,B|124:208|124:208|105:150|153:131|153:131|153:166,1,165.000006294251,8|0,3:3|0:0,0:0:0:0:
434,242,150186,2,0,B|401:204|401:204|422:140|369:119|369:119|369:158,1,165.000006294251,0|0,3:0|0:0,0:0:0:0:
77,242,150641,2,0,B|110:204|110:204|89:140|142:119|142:119|142:158,1,165.000006294251,8|0,3:3|0:0,0:0:0:0:
192,353,151095,5,0,3:0:0:0:
321,125,151322,1,0,0:0:0:0:
320,353,151549,1,8,3:3:0:0:
191,125,151776,1,0,0:0:0:0:
179,374,152004,5,0,3:0:0:0:
333,103,152231,1,0,0:0:0:0:
332,374,152458,1,8,3:3:0:0:
178,103,152685,1,0,0:0:0:0:
448,255,152913,5,0,3:0:0:0:
64,129,153140,1,0,0:0:0:0:
448,129,153367,1,8,3:3:0:0:
64,255,153594,1,0,0:0:0:0:
467,261,153822,5,8,3:0:0:0:
44,122,154049,1,8,3:0:0:0:
467,122,154276,1,8,3:3:0:0:
44,261,154504,5,8,3:0:0:0:
59,308,154617,1,0,0:0:0:0:
90,346,154731,2,0,L|193:362,1,82.5000031471254,0|0,3:0|0:0,0:0:0:0:
354,302,154958,1,0,0:0:0:0:
310,323,155071,1,0,0:0:0:0:
261,329,155185,2,0,L|177:267,1,82.5000031471254,0|0,0:0|0:0,0:0:0:0:
137,117,155413,2,0,L|220:178,1,82.5000031471254,0|0,0:0|0:0,0:0:0:0:
167,341,155640,2,0,L|152:239,1,82.5000031471254,0|0,3:0|0:0,0:0:0:0:
230,104,155868,2,0,L|245:206,1,82.5000031471254,0|0,0:0|0:0,0:0:0:0:
76,207,156095,5,8,3:3:0:0:
371,109,156322,1,0,0:0:0:0:
84,344,156549,5,0,3:0:0:0:
127,33,156776,1,0,0:0:0:0:
385,33,157004,1,8,3:0:0:0:
428,344,157231,1,0,0:0:0:0:
190,105,157458,5,0,3:0:0:0:
364,196,157686,5,0,0:0:0:0:
206,297,157913,5,0,0:0:0:0:
256,190,158140,5,0,0:0:0:0:
