osu file format v14

[General]
AudioFilename: audio.mp3
AudioLeadIn: 0
PreviewTime: 74276
Countdown: 0
SampleSet: Soft
StackLeniency: 0.4
Mode: 0
LetterboxInBreaks: 0
WidescreenStoryboard: 1

[Editor]
Bookmarks: 10427,10881,16549,22018,32913,38367,40186,52004,82004,100200,105654,106563,106790,107018,107245,107359,107472,129276,147458,158381
DistanceSpacing: 0.7
BeatDivisor: 4
GridSize: 16
TimelineZoom: 1.4

[Metadata]
Title:Altar
TitleUnicode:Altar
Artist:That Poppy
ArtistUnicode:That Poppy
Creator:-NeBu-
Version:HiPat's So Don't You Leave Me For Another
Source:
Tags:that poppy altar pop island umg jump extra insane training nyantiaz asrasz pawlyk here chuuritsutv time capsule creamy candy rdzeniu hipat apo11o vet moreon ciarmin yshadowxop_ theblank num5119 saggi grandsenpai paradogi
BeatmapID:2202602
BeatmapSetID:685822

[Difficulty]
HPDrainRate:5.8
CircleSize:4
OverallDifficulty:8.5
ApproachRate:9.3
SliderMultiplier:2.3
SliderTickRate:1

[Events]
//Background and Video events
0,0,"M151879261822546225.jpg",0,0
//Break Periods
2,100386,105086
//Storyboard Layer 0 (Background)
//Storyboard Layer 1 (Fail)
//Storyboard Layer 2 (Pass)
//Storyboard Layer 3 (Foreground)
//Storyboard Layer 4 (Overlay)
//Storyboard Sound Samples

[TimingPoints]
186,454.545454545455,4,2,1,60,1,0
18367,-66.6666666666667,4,3,1,60,0,1
42572,-100,4,2,1,60,0,0
43822,-200,4,2,1,60,0,0
45640,-100,4,3,1,60,0,0
52913,-100,4,2,1,60,0,0
58367,-133.333333333333,4,2,1,60,0,0
60186,-66.6666666666667,4,2,1,60,0,1
85640,-66.6666666666667,4,2,1,60,0,0
105640,-83.3333333333333,4,2,1,60,0,0
107913,-66.6666666666667,4,2,1,60,0,1
157458,-66.6666666666667,4,2,1,60,0,0

[Colours]
Combo1 : 255,192,0
Combo2 : 255,149,149
Combo3 : 226,226,226
Combo4 : 0,66,21

[HitObjects]
373,202,3822,6,0,P|341:253|281:279,1,115,2|0,0:0|0:0,0:0:0:0:
355,113,4276,1,8,3:0:0:0:
209,227,4504,1,0,0:0:0:0:
210,43,4731,2,0,P|181:96|189:161,1,115,2|0,0:0|0:0,0:0:0:0:
38,116,5186,6,0,P|55:173|106:214,2,115,8|0|2,3:0|0:0|0:0,0:0:0:0:
38,116,5867,1,0,0:0:0:0:
185,244,6095,1,8,3:0:0:0:
185,48,6322,1,0,0:0:0:0:
185,244,6549,6,0,P|244:253|313:241,1,115,2|0,0:0|0:0,0:0:0:0:
492,274,7004,2,0,P|439:302|370:314,2,115,8|0|2,3:0|0:0|0:0,0:0:0:0:
492,274,7686,5,0,0:0:0:0:
337,154,7913,1,8,3:0:0:0:
491,35,8140,1,0,0:0:0:0:
295,35,8367,2,0,P|354:45|418:94,2,115,2|0|8,0:0|0:0|3:0,0:0:0:0:
460,139,9049,1,0,0:0:0:0:
292,240,9276,1,2,0:0:0:0:
465,269,9504,1,0,0:0:0:0:
311,147,9731,1,8,3:0:0:0:
311,147,9958,5,0,0:0:0:0:
121,97,10186,2,0,P|112:157|127:219,1,115,2|0,0:0|0:0,0:0:0:0:
202,31,10640,2,0,P|211:91|196:153,2,115,8|0|2,3:0|0:0|0:0,0:0:0:0:
202,31,11322,5,0,0:0:0:0:
291,204,11549,2,0,L|289:318,1,115,8|0,3:0|0:0,0:0:0:0:
423,176,12004,2,0,L|354:267,1,115,2|0,0:0|0:0,0:0:0:0:
327,74,12458,1,8,3:0:0:0:
219,238,12686,1,0,0:0:0:0:
458,101,12913,2,0,L|348:134,1,115,2|0,0:0|0:0,0:0:0:0:
408,320,13367,6,0,L|303:275,1,115,8|0,3:0|0:0,0:0:0:0:
272,254,13708,1,0,0:0:0:0:
272,254,13822,2,0,P|293:196|272:139,1,115,2|0,0:0|0:0,0:0:0:0:
112,42,14276,2,0,P|97:96|117:149,2,115,8|0|2,3:0|0:0|0:0,0:0:0:0:
112,42,14958,1,0,0:0:0:0:
4,206,15186,6,0,L|97:281,1,115,8|0,3:0|0:0,0:0:0:0:
129,296,15526,1,0,0:0:0:0:
171,287,15640,2,0,P|221:268|279:291,1,115,2|0,0:0|0:0,0:0:0:0:
215,102,16095,1,8,3:0:0:0:
330,259,16322,1,0,0:0:0:0:
124,112,16549,5,2,0:0:0:0:
423,112,17004,1,2,0:0:0:0:
423,112,17458,1,2,0:0:0:0:
273,111,17686,6,0,L|337:219,1,115,0|8,0:0|3:0,0:0:0:0:
314,271,18026,1,0,0:0:0:0:
246,286,18140,1,8,3:0:0:0:
83,42,18367,6,0,P|105:78|117:119,1,86.2500032901765,0|0,3:0|0:0,0:0:0:0:
98,267,18595,2,0,P|102:224|109:181,1,86.2500032901765,0|0,0:0|0:0,0:0:0:0:
17,66,18822,5,8,3:3:0:0:
22,141,18936,1,0,0:0:0:0:
31,212,19049,2,0,L|41:303,1,86.2500032901765,0|0,0:0|0:0,0:0:0:0:
187,289,19276,5,0,3:0:0:0:
192,214,19390,1,0,0:0:0:0:
201,143,19503,2,0,L|211:52,1,86.2500032901765,0|0,0:0|0:0,0:0:0:0:
304,182,19731,5,8,3:3:0:0:
416,86,19845,1,0,0:0:0:0:
359,220,19958,1,0,0:0:0:0:
435,155,20072,1,0,0:0:0:0:
433,249,20186,2,0,P|408:283|355:300,1,86.2500032901765,0|0,3:0|0:0,0:0:0:0:
246,216,20413,5,0,0:0:0:0:
303,330,20526,1,0,0:0:0:0:
246,216,20640,2,0,P|244:162|256:115,1,86.2500032901765,8|0,3:3|0:0,0:0:0:0:
377,157,20867,5,0,0:0:0:0:
319,110,20981,1,0,0:0:0:0:
261,68,21094,2,0,P|226:52|173:43,1,86.2500032901765,0|0,3:0|0:0,0:0:0:0:
104,161,21322,5,0,0:0:0:0:
220,235,21436,1,0,0:0:0:0:
91,226,21549,1,8,3:3:0:0:
165,271,21663,1,0,0:0:0:0:
99,294,21776,1,0,0:0:0:0:
99,294,21890,1,0,0:0:0:0:
237,301,22004,6,0,L|324:300,1,86.2500032901765,0|0,3:0|0:0,0:0:0:0:
454,232,22231,2,0,L|364:232,1,86.2500032901765,0|0,0:0|0:0,0:0:0:0:
276,346,22458,2,0,L|367:322,1,86.2500032901765,8|0,3:3|0:0,0:0:0:0:
412,185,22686,2,0,L|330:232,1,86.2500032901765,0|0,0:0|0:0,0:0:0:0:
198,178,22913,6,0,L|285:193,1,86.2500032901765,0|0,3:0|0:0,0:0:0:0:
396,99,23140,1,0,0:0:0:0:
322,124,23254,1,0,0:0:0:0:
244,122,23367,2,0,P|204:118|152:103,1,86.2500032901765,8|0,3:3|0:0,0:0:0:0:
256,283,23595,5,0,0:0:0:0:
177,191,23708,1,0,0:0:0:0:
339,190,23822,5,0,3:0:0:0:
336,250,23936,1,0,0:0:0:0:
310,304,24049,1,0,0:0:0:0:
263,342,24163,1,0,0:0:0:0:
203,348,24276,5,8,3:3:0:0:
200,287,24390,1,0,0:0:0:0:
178,230,24504,1,0,0:0:0:0:
137,185,24617,1,0,0:0:0:0:
77,174,24731,2,0,P|63:210|68:265,1,86.2500032901765,0|0,3:0|0:0,0:0:0:0:
199,172,24958,2,0,P|215:137|258:100,1,86.2500032901765,0|0,0:0|0:0,0:0:0:0:
396,88,25186,5,8,3:3:0:0:
350,61,25299,1,0,0:0:0:0:
300,47,25413,1,0,0:0:0:0:
247,44,25526,1,0,0:0:0:0:
195,47,25640,6,0,L|153:131,1,86.2500032901765,0|0,3:0|0:0,0:0:0:0:
15,80,25867,2,0,L|44:169,1,86.2500032901765,0|0,0:0|0:0,0:0:0:0:
32,301,26095,5,8,3:3:0:0:
71,261,26208,1,0,0:0:0:0:
122,238,26322,1,0,0:0:0:0:
178,234,26435,1,0,0:0:0:0:
238,242,26549,2,0,L|324:289,1,86.2500032901765,0|0,3:0|0:0,0:0:0:0:
388,260,26776,5,0,0:0:0:0:
458,317,26890,1,0,0:0:0:0:
461,246,27004,1,8,3:3:0:0:
406,312,27117,1,0,0:0:0:0:
489,288,27231,1,0,0:0:0:0:
406,312,27345,1,0,0:0:0:0:
411,226,27458,6,0,L|411:139,1,86.2500032901765,0|0,3:0|0:0,0:0:0:0:
331,103,27686,2,0,P|360:68|425:53,1,86.2500032901765,0|0,0:0|0:0,0:0:0:0:
311,172,27913,5,8,3:3:0:0:
272,228,28026,1,0,0:0:0:0:
221,275,28140,1,0,0:0:0:0:
154,293,28254,1,0,0:0:0:0:
85,291,28367,6,0,P|112:253|140:197,1,86.2500032901765,0|0,3:0|0:0,0:0:0:0:
68,187,28595,1,0,0:0:0:0:
96,124,28708,1,0,0:0:0:0:
27,133,28822,5,8,3:3:0:0:
56,70,28936,1,0,0:0:0:0:
124,64,29049,1,0,0:0:0:0:
162,121,29163,1,0,0:0:0:0:
133,183,29276,6,0,P|178:192|228:182,1,86.2500032901765,0|0,3:0|0:0,0:0:0:0:
242,120,29504,2,0,P|276:148|292:204,1,86.2500032901765,0|0,0:0|0:0,0:0:0:0:
294,255,29731,5,8,3:3:0:0:
221,284,29845,1,0,0:0:0:0:
293,309,29958,1,0,0:0:0:0:
221,339,30072,1,0,0:0:0:0:
295,362,30186,2,0,B|340:362|340:362|356:314,1,86.2500032901765,0|0,3:0|0:0,0:0:0:0:
355,245,30413,5,0,0:0:0:0:
409,299,30526,1,0,0:0:0:0:
479,331,30640,2,0,P|496:283|492:241,1,86.2500032901765,8|0,3:3|0:0,0:0:0:0:
479,159,30867,5,0,0:0:0:0:
425,213,30980,1,0,0:0:0:0:
256,192,31095,12,0,32572,0:0:0:0:
473,343,32686,5,8,3:0:0:0:
473,343,32799,1,0,0:0:0:0:
473,343,32913,2,0,B|336:343|456:270|313:271,1,172.500006580353,0|0,3:2|0:0,0:0:0:0:
109,273,33367,5,8,3:3:0:0:
320,197,33595,1,0,0:0:0:0:
142,60,33822,1,0,3:0:0:0:
353,134,34049,1,0,0:0:0:0:
348,326,34276,5,8,3:3:0:0:
103,152,34504,2,0,B|159:223|159:223|246:253,1,172.500006580353,0|0,0:0|3:0,0:0:0:0:
470,103,34958,1,0,0:0:0:0:
492,300,35186,1,8,3:3:0:0:
317,162,35413,1,0,0:0:0:0:
317,162,35526,1,0,0:0:0:0:
317,162,35640,1,0,3:0:0:0:
182,27,35867,5,0,0:0:0:0:
263,236,36095,1,8,3:3:0:0:
245,12,36322,1,0,0:0:0:0:
198,231,36549,6,0,P|172:263|126:283,1,86.2500032901765,0|0,3:0|0:0,0:0:0:0:
19,286,36776,2,0,P|45:318|91:338,1,86.2500032901765,0|0,0:0|0:0,0:0:0:0:
198,191,37004,2,0,P|172:223|126:243,1,86.2500032901765,8|0,3:3|0:0,0:0:0:0:
19,246,37231,2,0,P|45:278|91:298,1,86.2500032901765,0|0,0:0|0:0,0:0:0:0:
92,167,37458,6,0,P|125:134|167:117,1,86.2500032901765,0|0,3:0|0:0,0:0:0:0:
291,119,37686,2,0,P|320:149|359:167,1,86.2500032901765,0|0,0:0|0:0,0:0:0:0:
399,291,37913,2,0,P|366:258|324:241,1,86.2500032901765,8|0,3:3|0:0,0:0:0:0:
200,244,38140,2,0,P|170:274|131:292,1,86.2500032901765,0|0,0:0|0:0,0:0:0:0:
59,230,38367,5,0,3:0:0:0:
123,172,38481,1,0,0:0:0:0:
38,152,38595,2,0,P|62:113|105:90,1,86.2500032901765,0|0,0:0|0:0,0:0:0:0:
187,43,38822,5,8,3:3:0:0:
251,101,38936,1,0,0:0:0:0:
166,120,39050,2,0,P|187:156|223:179,1,86.2500032901765,0|0,0:0|0:0,0:0:0:0:
336,140,39276,5,0,3:0:0:0:
326,198,39389,1,0,0:0:0:0:
359,246,39503,1,0,3:0:0:0:
415,271,39617,1,0,0:0:0:0:
444,219,39731,5,8,3:3:0:0:
475,268,39844,1,0,0:0:0:0:
460,325,39958,1,0,3:0:0:0:
408,351,40071,1,0,0:0:0:0:
353,325,40186,6,0,P|316:305|252:301,1,86.2500032901765,0|0,3:0|0:0,0:0:0:0:
239,248,40413,2,0,P|213:282|200:323,1,86.2500032901765,0|0,0:0|0:0,0:0:0:0:
94,248,40640,2,0,L|95:153,1,86.2500032901765,8|0,3:3|0:0,0:0:0:0:
34,47,40867,2,0,L|33:133,1,86.2500032901765,0|0,0:0|0:0,0:0:0:0:
131,46,41095,5,0,3:0:0:0:
131,46,41208,1,0,0:0:0:0:
131,46,41322,2,0,P|132:91|161:133,1,86.2500032901765,0|0,0:0|0:0,0:0:0:0:
243,192,41549,5,8,3:3:0:0:
318,297,41663,1,0,0:0:0:0:
310,168,41776,1,0,0:0:0:0:
203,242,41890,1,0,0:0:0:0:
225,114,42004,2,0,P|253:82|303:58,1,86.2500032901765,0|0,3:0|0:0,0:0:0:0:
420,62,42231,2,0,P|457:82|486:114,1,86.2500032901765,0|0,0:0|0:0,0:0:0:0:
367,167,42458,5,8,3:3:0:0:
458,333,42686,2,0,P|472:274|463:211,2,115,0|0|0,0:0|0:0|0:0,0:0:0:0:
379,233,43367,2,0,P|342:277|272:299,1,115,8|2,0:3|0:3,0:0:0:0:
305,224,43822,6,0,P|258:187|202:178,1,115,0|8,3:0|3:0,0:0:0:0:
55,191,44731,6,0,B|102:132|34:160|29:94|29:94|61:95|99:93,1,172.5,0|0,3:0|0:0,0:0:0:0:
197,197,45640,5,2,0:0:0:0:
256,35,45867,1,0,0:0:0:0:
135,158,46095,1,8,3:0:0:0:
271,262,46322,1,0,0:0:0:0:
393,110,46549,5,2,0:0:0:0:
338,297,46776,1,0,0:0:0:0:
463,146,47004,2,0,P|457:198|418:258,1,115,8|0,3:0|0:0,0:0:0:0:
272,128,47458,2,0,P|259:72|224:27,2,115,2|0|8,0:0|0:0|3:0,0:0:0:0:
272,128,48140,5,0,0:0:0:0:
87,191,48367,2,0,P|117:242|170:279,1,115,2|0,0:0|0:0,0:0:0:0:
287,279,48822,2,0,P|223:218|124:88,1,230,8|2,3:0|0:0,0:0:0:0:
436,51,49504,5,0,0:0:0:0:
249,109,49731,1,8,3:0:0:0:
443,127,49958,1,0,0:0:0:0:
269,35,50186,1,2,0:0:0:0:
397,182,50413,5,0,0:0:0:0:
397,182,50640,1,8,3:0:0:0:
209,237,50867,2,0,P|250:273|314:289,1,115,0|2,0:0|0:0,0:0:0:0:
229,134,51322,1,0,0:0:0:0:
358,247,51549,1,8,3:0:0:0:
285,90,51776,6,0,P|239:59|181:42,1,115,0|2,0:0|0:0,0:0:0:0:
39,140,52231,2,0,P|74:191|118:244,2,115,8|12|12,0:0|3:0|3:0,0:0:0:0:
175,246,52913,5,2,0:3:0:0:
249,299,53140,1,0,0:0:0:0:
336,327,53367,1,2,0:3:0:0:
427,338,53595,1,0,0:0:0:0:
387,254,53822,5,8,3:0:0:0:
306,210,54049,1,0,0:0:0:0:
245,140,54276,1,2,0:3:0:0:
202,58,54504,1,0,0:0:0:0:
292,42,54731,6,0,P|322:84|333:147,1,115,2|0,3:3|0:0,0:0:0:0:
223,43,55186,2,0,P|193:85|182:148,1,115,2|0,0:3|0:0,0:0:0:0:
403,49,55640,6,0,P|394:99|357:152,1,115,8|0,3:0|0:0,0:0:0:0:
112,48,56095,2,0,P|120:98|157:151,1,115,2|2,0:3|3:2,0:0:0:0:
285,225,56549,6,0,P|276:275|239:328,2,115,2|0|2,3:3|0:0|0:3,0:0:0:0:
177,329,57231,1,0,0:0:0:0:
246,171,57458,6,0,P|204:201|141:212,2,115,8|0|2,3:0|0:0|0:3,0:0:0:0:
403,242,58140,1,0,0:0:0:0:
442,100,58367,6,0,L|417:138,1,43.1250016450883,2|0,3:3|0:0,0:0:0:0:
348,160,58595,2,0,L|323:198,1,43.1250016450883,0|0,0:3|0:0,0:0:0:0:
274,94,58822,2,0,L|249:132,1,43.1250016450883,0|0,3:3|3:0,0:0:0:0:
179,150,59049,2,0,L|154:188,1,43.1250016450883,0|0,3:0|3:0,0:0:0:0:
81,182,59276,5,8,3:0:0:0:
96,240,59389,1,0,0:0:0:0:
129,290,59503,1,8,3:0:0:0:
177,326,59616,1,8,3:0:0:0:
237,339,59731,5,8,3:0:0:0:
304,325,59844,1,8,3:0:0:0:
351,274,59958,1,8,3:0:0:0:
374,208,60072,1,8,3:0:0:0:
328,68,60186,6,0,L|378:139,1,86.2500032901765,4|0,3:2|0:0,0:0:0:0:
412,321,60413,1,0,0:0:0:0:
437,266,60526,1,0,0:0:0:0:
457,209,60640,1,8,3:3:0:0:
468,155,60754,1,0,0:0:0:0:
389,22,60867,1,0,0:0:0:0:
390,177,60981,1,0,0:0:0:0:
262,86,61095,5,0,3:0:0:0:
338,220,61208,1,0,0:0:0:0:
328,64,61322,1,0,0:0:0:0:
268,207,61436,1,0,0:0:0:0:
277,52,61549,5,8,3:3:0:0:
201,188,61663,1,0,0:0:0:0:
231,36,61776,1,0,0:0:0:0:
139,161,61890,1,0,0:0:0:0:
46,35,62004,2,0,L|82:124,1,86.2500032901765,0|0,3:0|0:0,0:0:0:0:
49,267,62231,5,0,0:0:0:0:
49,267,62345,1,0,0:0:0:0:
49,267,62458,2,0,L|132:308,1,86.2500032901765,8|0,3:3|0:0,0:0:0:0:
280,337,62686,5,0,0:0:0:0:
280,337,62799,1,0,0:0:0:0:
280,337,62913,2,0,P|277:293|291:239,1,86.2500032901765,0|0,3:0|0:0,0:0:0:0:
390,136,63140,2,0,P|354:159|325:192,1,86.2500032901765,0|0,0:0|0:0,0:0:0:0:
280,337,63367,2,0,P|246:308|218:259,1,86.2500032901765,8|0,3:3|0:0,0:0:0:0:
208,116,63595,2,0,P|199:158|202:200,1,86.2500032901765,0|0,0:0|0:0,0:0:0:0:
347,257,63822,5,0,3:0:0:0:
347,257,63936,1,0,0:0:0:0:
347,257,64049,2,0,P|401:252|442:268,1,86.2500032901765,0|0,0:0|0:0,0:0:0:0:
391,167,64276,5,8,3:3:0:0:
396,322,64390,1,0,0:0:0:0:
493,200,64504,1,0,0:0:0:0:
338,200,64617,1,0,0:0:0:0:
482,258,64731,5,0,3:0:0:0:
333,303,64845,1,0,0:0:0:0:
441,192,64958,1,0,0:0:0:0:
294,244,65072,1,0,0:0:0:0:
408,138,65186,5,8,3:3:0:0:
263,192,65299,1,0,0:0:0:0:
383,93,65413,2,0,P|341:99|294:88,1,86.2500032901765,0|0,0:0|0:0,0:0:0:0:
142,88,65640,6,0,L|142:182,1,86.2500032901765,0|0,3:0|0:0,0:0:0:0:
26,233,65867,1,0,0:0:0:0:
75,281,65981,1,0,0:0:0:0:
138,309,66095,2,0,P|189:316|231:310,1,86.2500032901765,8|0,3:3|0:0,0:0:0:0:
355,230,66322,5,0,0:0:0:0:
355,230,66436,1,0,0:0:0:0:
355,230,66549,2,0,P|304:243|264:243,1,86.2500032901765,0|0,3:0|0:0,0:0:0:0:
153,141,66776,2,0,P|187:169|235:188,1,86.2500032901765,0|0,0:0|0:0,0:0:0:0:
361,106,67004,2,0,P|320:122|271:128,1,86.2500032901765,8|0,3:3|0:0,0:0:0:0:
137,61,67231,2,0,P|88:92|70:131,1,86.2500032901765,0|0,0:0|0:0,0:0:0:0:
174,234,67458,5,0,3:0:0:0:
174,234,67572,1,0,0:0:0:0:
174,234,67686,2,0,P|127:224|95:187,1,86.2500032901765,0|0,0:0|0:0,0:0:0:0:
136,133,67913,5,8,3:3:0:0:
60,267,68026,1,0,0:0:0:0:
83,113,68140,1,0,0:0:0:0:
157,249,68254,1,0,0:0:0:0:
162,91,68367,5,0,3:0:0:0:
223,234,68481,1,0,0:0:0:0:
282,90,68595,1,0,0:0:0:0:
283,244,68708,1,0,0:0:0:0:
220,101,68822,5,8,3:3:0:0:
336,204,68936,1,0,0:0:0:0:
327,49,69049,1,0,0:0:0:0:
393,189,69163,1,0,0:0:0:0:
389,34,69276,6,0,P|425:65|450:124,1,86.2500032901765,0|0,3:0|0:0,0:0:0:0:
459,192,69504,2,0,P|454:234|465:276,1,86.2500032901765,0|0,0:0|0:0,0:0:0:0:
310,295,69731,2,0,P|266:315|214:326,1,86.2500032901765,8|0,3:3|0:0,0:0:0:0:
74,307,69958,2,0,P|111:331|161:350,1,86.2500032901765,0|0,0:0|0:0,0:0:0:0:
162,190,70186,6,0,L|159:281,1,86.2500032901765,0|0,3:0|0:0,0:0:0:0:
54,160,70413,2,0,L|57:69,1,86.2500032901765,0|0,0:0|0:0,0:0:0:0:
225,191,70640,2,0,L|222:282,1,86.2500032901765,8|0,3:3|0:0,0:0:0:0:
116,162,70867,2,0,L|119:71,1,86.2500032901765,0|0,0:0|0:0,0:0:0:0:
264,134,71095,5,0,3:0:0:0:
303,283,71208,1,0,0:0:0:0:
387,152,71322,1,0,0:0:0:0:
424,303,71436,1,0,0:0:0:0:
326,183,71549,5,8,3:3:0:0:
360,334,71663,1,0,0:0:0:0:
263,213,71776,1,0,0:0:0:0:
302,363,71890,1,0,0:0:0:0:
377,236,72004,2,0,P|422:229|457:196,1,86.2500032901765,0|0,3:0|0:0,0:0:0:0:
383,73,72231,5,0,0:0:0:0:
383,73,72345,1,0,0:0:0:0:
383,73,72458,2,0,P|338:77|288:70,1,86.2500032901765,8|0,3:3|0:0,0:0:0:0:
140,74,72686,2,0,P|127:117|87:168,1,86.2500032901765,0|0,0:0|0:0,0:0:0:0:
236,234,72913,5,0,3:0:0:0:
91,216,73026,1,0,0:0:0:0:
228,163,73140,1,0,0:0:0:0:
130,273,73254,1,0,0:0:0:0:
274,291,73367,5,8,3:3:0:0:
156,202,73481,1,0,0:0:0:0:
301,223,73595,1,0,0:0:0:0:
186,312,73708,1,0,0:0:0:0:
331,332,73822,6,0,P|366:287|371:251,1,86.2500032901765,8|0,3:0|0:0,0:0:0:0:
350,113,74049,2,0,P|361:154|390:185,1,86.2500032901765,8|0,3:0|0:0,0:0:0:0:
441,47,74276,5,8,3:3:0:0:
457,105,74389,1,0,0:0:0:0:
463,165,74503,1,8,3:0:0:0:
459,225,74616,1,0,0:0:0:0:
438,282,74731,2,0,P|397:304|343:298,1,86.2500032901765,0|0,3:0|0:0,0:0:0:0:
295,170,74958,2,0,L|295:262,1,86.2500032901765,0|0,0:0|0:0,0:0:0:0:
159,317,75186,5,8,3:3:0:0:
206,281,75299,1,0,0:0:0:0:
222,224,75413,1,0,0:0:0:0:
198,170,75526,1,0,0:0:0:0:
145,141,75640,2,0,P|138:186|105:221,1,86.2500032901765,0|0,3:0|0:0,0:0:0:0:
38,89,75867,5,0,0:0:0:0:
95,52,75980,1,0,0:0:0:0:
163,50,76094,1,8,3:3:0:0:
224,82,76207,1,0,0:0:0:0:
286,113,76322,1,0,0:0:0:0:
355,116,76436,1,0,0:0:0:0:
420,95,76549,6,0,P|417:141|381:181,1,86.2500032901765,0|0,3:0|0:0,0:0:0:0:
326,186,76776,1,0,0:0:0:0:
356,247,76890,1,0,0:0:0:0:
342,314,77004,1,8,3:3:0:0:
277,337,77117,1,0,0:0:0:0:
215,305,77231,1,0,0:0:0:0:
207,236,77345,1,0,0:0:0:0:
253,185,77458,6,0,P|210:168|163:183,1,86.2500032901765,0|0,3:0|0:0,0:0:0:0:
136,236,77686,1,0,0:0:0:0:
136,236,77799,1,0,0:0:0:0:
136,236,77913,2,0,P|104:185|113:145,1,86.2500032901765,8|0,3:3|0:0,0:0:0:0:
242,106,78140,2,0,P|274:55|265:15,1,86.2500032901765,0|0,0:0|0:0,0:0:0:0:
326,168,78367,5,0,3:0:0:0:
438,172,78481,1,0,0:0:0:0:
379,267,78595,1,0,0:0:0:0:
380,155,78708,1,0,0:0:0:0:
444,246,78822,1,8,3:3:0:0:
319,243,78936,1,0,0:0:0:0:
505,256,79049,5,0,0:0:0:0:
497,329,79163,1,0,0:0:0:0:
435,354,79276,1,0,3:0:0:0:
383,308,79390,1,0,0:0:0:0:
318,283,79504,1,0,0:0:0:0:
249,277,79617,5,0,0:0:0:0:
183,299,79731,1,8,3:3:0:0:
114,288,79845,1,0,0:0:0:0:
61,245,79958,1,0,0:0:0:0:
52,179,80072,1,0,0:0:0:0:
76,114,80186,6,0,P|103:149|157:176,1,86.2500032901765,0|0,3:0|0:0,0:0:0:0:
117,24,80413,2,0,L|218:24,1,86.2500032901765,0|0,0:0|0:0,0:0:0:0:
215,83,80640,5,8,3:3:0:0:
273,71,80753,1,0,0:0:0:0:
332,85,80867,1,0,0:0:0:0:
380,121,80980,1,0,0:0:0:0:
407,175,81095,6,0,P|436:203|488:217,1,86.2500032901765,0|0,3:0|0:0,0:0:0:0:
356,298,81322,2,0,P|327:326|275:340,1,86.2500032901765,0|0,3:0|0:0,0:0:0:0:
335,201,81549,5,8,3:3:0:0:
289,252,81662,1,0,0:0:0:0:
227,281,81776,1,0,3:0:0:0:
159,282,81889,1,0,0:0:0:0:
98,247,82004,6,0,P|142:221|164:182,1,86.2500032901765,0|0,3:0|0:0,0:0:0:0:
97,58,82231,2,0,P|134:78|159:112,1,86.2500032901765,0|0,0:0|0:0,0:0:0:0:
29,281,82458,2,0,P|55:325|94:347,1,86.2500032901765,8|0,3:3|0:0,0:0:0:0:
35,120,82686,2,0,P|69:144|89:182,1,86.2500032901765,0|0,0:0|0:0,0:0:0:0:
236,178,82913,5,0,3:0:0:0:
236,117,83026,1,0,0:0:0:0:
273,69,83140,1,0,0:0:0:0:
332,55,83254,1,0,0:0:0:0:
390,69,83367,5,8,3:3:0:0:
428,126,83481,1,0,0:0:0:0:
439,194,83595,1,0,0:0:0:0:
423,260,83708,1,0,0:0:0:0:
382,316,83822,2,0,P|338:320|292:309,1,86.2500032901765,0|0,3:0|0:0,0:0:0:0:
167,242,84049,5,0,0:0:0:0:
167,242,84163,1,0,0:0:0:0:
167,242,84276,2,0,P|210:240|256:221,1,86.2500032901765,8|0,3:3|0:0,0:0:0:0:
105,189,84504,2,0,P|73:217|27:237,1,86.2500032901765,0|0,0:0|0:0,0:0:0:0:
160,309,84731,5,0,0:0:0:0:
188,164,84845,1,0,0:0:0:0:
228,304,84958,1,0,0:0:0:0:
260,160,85072,1,0,0:0:0:0:
295,302,85186,5,8,0:3:0:0:
326,159,85299,1,0,0:0:0:0:
361,301,85413,1,0,0:0:0:0:
391,158,85526,1,0,0:0:0:0:
429,299,85640,6,0,P|466:210|474:118,1,172.500006580353,4|0,3:2|0:0,0:0:0:0:
228,304,86095,2,0,P|191:215|183:123,1,172.500006580353,8|0,3:0|0:0,0:0:0:0:
362,300,86549,6,0,P|364:208|407:119,1,172.500006580353,0|0,3:0|0:0,0:0:0:0:
156,307,87004,2,0,P|155:221|122:142,1,172.500006580353,8|0,3:0|0:0,0:0:0:0:
403,59,87458,6,0,L|336:117,1,86.2500032901765,0|0,3:0|0:0,0:0:0:0:
281,50,87686,2,0,L|339:117,1,86.2500032901765,0|0,0:0|0:0,0:0:0:0:
272,171,87913,2,0,L|339:112,1,86.2500032901765,8|0,3:0|0:0,0:0:0:0:
393,179,88140,2,0,L|335:112,1,86.2500032901765,0|0,0:0|0:0,0:0:0:0:
294,254,88367,6,0,L|228:316,1,86.2500032901765,0|0,3:0|0:0,0:0:0:0:
231,313,88595,2,0,L|169:247,1,86.2500032901765,0|0,0:0|0:0,0:0:0:0:
171,250,88822,2,0,L|236:188,1,86.2500032901765,8|0,3:0|0:0,0:0:0:0:
233,190,89049,2,0,L|171:124,1,86.2500032901765,0|0,0:0|0:0,0:0:0:0:
27,140,89276,6,0,P|43:225|88:322,1,172.500006580353,0|0,3:0|0:0,0:0:0:0:
323,143,89731,2,0,P|307:228|262:325,1,172.500006580353,8|0,3:0|0:0,0:0:0:0:
167,32,90186,6,0,P|185:110|129:208,1,172.500006580353,0|0,3:0|0:0,0:0:0:0:
394,33,90640,2,0,P|376:111|432:209,1,172.500006580353,8|0,3:0|0:0,0:0:0:0:
412,342,91095,6,0,L|320:342,1,86.2500032901765,0|0,3:0|0:0,0:0:0:0:
325,342,91322,2,0,P|295:306|236:297,1,86.2500032901765,0|0,0:0|0:0,0:0:0:0:
258,294,91549,2,0,L|166:294,1,86.2500032901765,8|0,3:0|0:0,0:0:0:0:
171,294,91776,2,0,L|172:202,1,86.2500032901765,0|0,0:0|0:0,0:0:0:0:
52,296,92004,6,0,P|43:254|47:209,1,86.2500032901765,0|0,3:0|0:0,0:0:0:0:
61,127,92231,2,0,P|57:176|41:221,1,86.2500032901765,0|0,3:0|0:0,0:0:0:0:
134,144,92458,2,0,P|171:110|216:97,1,86.2500032901765,8|0,3:0|0:0,0:0:0:0:
204,98,92686,2,0,L|291:98,1,86.2500032901765,0|0,0:0|0:0,0:0:0:0:
437,98,92913,6,0,B|437:142|361:180|361:180|360:241,1,172.500006580353,0|0,3:0|0:0,0:0:0:0:
88,344,93367,2,0,P|169:302|210:219,1,172.500006580353,8|0,3:0|0:0,0:0:0:0:
478,346,93822,6,0,B|400:316|400:316|303:316,1,172.500006580353,0|0,3:0|0:0,0:0:0:0:
115,97,94276,2,0,P|62:162|46:260,1,172.500006580353,8|0,3:0|0:0,0:0:0:0:
299,99,94731,5,0,3:0:0:0:
299,99,94845,1,0,0:0:0:0:
299,99,94958,2,0,P|340:130|362:172,1,86.2500032901765,0|0,0:0|0:0,0:0:0:0:
209,169,95186,5,8,3:0:0:0:
209,169,95299,1,0,0:0:0:0:
209,169,95413,2,0,P|187:209|176:258,1,86.2500032901765,0|0,0:0|0:0,0:0:0:0:
324,254,95640,5,0,3:0:0:0:
283,298,95754,1,0,0:0:0:0:
226,316,95867,1,0,3:0:0:0:
165,316,95981,1,0,0:0:0:0:
114,281,96095,5,8,3:0:0:0:
95,224,96208,1,0,0:0:0:0:
103,163,96322,1,0,3:0:0:0:
144,118,96436,1,0,0:0:0:0:
235,70,96549,5,0,3:0:0:0:
388,319,96776,1,0,0:0:0:0:
509,51,97004,1,8,3:0:0:0:
329,282,97231,1,0,0:0:0:0:
509,51,97458,1,0,3:0:0:0:
251,192,97686,1,0,0:0:0:0:
509,51,97913,2,0,P|501:108|416:200,1,172.500006580353,8|0,3:0|0:0,0:0:0:0:
137,166,98367,5,0,3:0:0:0:
414,264,98595,1,0,0:0:0:0:
124,306,98822,1,8,3:0:0:0:
368,144,99049,1,0,0:0:0:0:
88,55,99276,5,0,3:0:0:0:
88,55,99504,1,0,3:0:0:0:
380,55,99731,1,8,3:0:0:0:
144,228,99958,1,0,0:0:0:0:
412,349,100186,1,4,0:0:0:0:
256,192,105640,12,8,107231,3:1:0:0:
293,255,107458,5,4,3:2:0:0:
213,168,107572,1,0,0:0:0:0:
333,199,107686,1,0,0:0:0:0:
217,242,107799,1,0,0:0:0:0:
370,266,107913,5,8,3:3:0:0:
287,135,108026,1,0,0:0:0:0:
419,217,108140,1,0,0:0:0:0:
336,84,108254,1,0,0:0:0:0:
466,166,108367,6,0,P|489:219|472:263,1,86.2500032901765,0|0,3:0|0:0,0:0:0:0:
463,89,108595,2,0,P|421:99|394:132,1,86.2500032901765,0|0,0:0|0:0,0:0:0:0:
279,27,108822,2,0,L|199:88,1,86.2500032901765,8|0,3:3|0:0,0:0:0:0:
60,37,109049,2,0,P|101:64|127:114,1,86.2500032901765,0|0,0:0|0:0,0:0:0:0:
26,218,109276,5,0,3:0:0:0:
62,275,109389,1,0,0:0:0:0:
117,317,109503,1,0,0:0:0:0:
183,337,109616,1,0,0:0:0:0:
172,268,109731,5,8,3:3:0:0:
180,199,109845,1,0,0:0:0:0:
210,137,109958,1,0,0:0:0:0:
266,97,110072,1,0,0:0:0:0:
335,92,110186,6,0,P|380:108|414:158,1,86.2500032901765,0|0,3:0|0:0,0:0:0:0:
337,276,110413,2,0,P|382:260|416:210,1,86.2500032901765,0|0,0:0|0:0,0:0:0:0:
256,192,110640,5,8,3:3:0:0:
177,67,110754,1,0,0:0:0:0:
300,144,110867,1,0,0:0:0:0:
153,131,110981,1,0,0:0:0:0:
228,257,111095,6,0,P|183:269|146:325,1,86.2500032901765,0|0,3:0|0:0,0:0:0:0:
301,318,111322,1,0,0:0:0:0:
301,318,111436,1,0,0:0:0:0:
301,318,111549,2,0,P|346:330|383:386,1,86.2500032901765,8|0,3:3|0:0,0:0:0:0:
481,258,111776,5,0,0:0:0:0:
421,270,111890,1,0,0:0:0:0:
363,252,112004,2,0,P|388:208|397:160,1,86.2500032901765,0|0,3:0|0:0,0:0:0:0:
485,56,112231,5,0,0:0:0:0:
487,142,112345,1,0,0:0:0:0:
416,93,112458,2,0,P|368:88|314:96,1,86.2500032901765,8|0,3:3|0:0,0:0:0:0:
182,97,112686,2,0,P|187:145|179:199,1,86.2500032901765,0|0,0:0|0:0,0:0:0:0:
36,191,112913,6,0,L|118:252,1,86.2500032901765,0|0,3:0|0:0,0:0:0:0:
195,358,113140,2,0,L|195:256,1,86.2500032901765,0|0,0:0|0:0,0:0:0:0:
320,348,113367,2,0,P|285:313|270:273,1,86.2500032901765,8|0,3:3|0:0,0:0:0:0:
403,213,113595,6,0,L|461:292,1,86.2500032901765,0|0,0:0|0:0,0:0:0:0:
471,160,113822,2,0,L|397:216,1,86.2500032901765,0|0,3:0|0:0,0:0:0:0:
296,110,114049,2,0,P|334:137|388:134,1,86.2500032901765,0|0,0:0|0:0,0:0:0:0:
508,82,114276,5,8,3:3:0:0:
451,60,114390,1,0,0:0:0:0:
392,45,114504,1,0,0:0:0:0:
332,38,114617,1,0,0:0:0:0:
271,36,114731,2,0,P|230:37|180:52,1,86.2500032901765,0|0,3:0|0:0,0:0:0:0:
221,191,114958,5,0,0:0:0:0:
139,313,115072,1,0,0:0:0:0:
156,166,115186,1,8,3:3:0:0:
204,303,115299,1,0,0:0:0:0:
288,182,115413,1,0,0:0:0:0:
159,250,115526,1,0,0:0:0:0:
306,252,115640,6,0,P|350:229|377:182,1,86.2500032901765,0|0,3:0|0:0,0:0:0:0:
435,331,115867,2,0,P|449:283|435:231,1,86.2500032901765,0|0,0:0|0:0,0:0:0:0:
408,104,116095,5,8,3:3:0:0:
358,70,116208,1,0,0:0:0:0:
300,49,116322,1,0,0:0:0:0:
240,37,116436,1,0,0:0:0:0:
180,45,116549,2,0,P|214:78|227:130,1,86.2500032901765,0|0,3:0|0:0,0:0:0:0:
104,196,116776,5,0,0:0:0:0:
205,302,116890,1,0,0:0:0:0:
65,256,117004,1,8,3:3:0:0:
208,230,117117,1,0,0:0:0:0:
155,151,117231,1,0,0:0:0:0:
281,226,117345,1,0,0:0:0:0:
139,262,117458,6,0,P|124:308|91:338,1,86.2500032901765,0|0,3:0|0:0,0:0:0:0:
205,302,117686,1,0,0:0:0:0:
266,331,117799,1,0,0:0:0:0:
335,332,117913,5,8,3:3:0:0:
398,304,118026,1,0,0:0:0:0:
438,247,118140,1,0,0:0:0:0:
451,179,118254,1,0,0:0:0:0:
434,112,118367,2,0,P|385:80|354:80,1,86.2500032901765,0|0,3:0|0:0,0:0:0:0:
213,48,118595,5,0,0:0:0:0:
252,93,118708,1,0,0:0:0:0:
277,148,118822,2,0,P|286:195|272:243,1,86.2500032901765,8|0,3:3|0:0,0:0:0:0:
134,264,119049,5,0,0:0:0:0:
95,219,119162,1,0,0:0:0:0:
70,164,119276,2,0,P|61:116|75:69,1,86.2500032901765,0|0,3:0|0:0,0:0:0:0:
182,176,119504,5,0,0:0:0:0:
206,239,119617,1,0,0:0:0:0:
249,292,119731,2,0,P|312:309|365:296,1,86.2500032901765,8|0,3:3|0:0,0:0:0:0:
477,286,119958,5,0,0:0:0:0:
434,230,120072,1,0,0:0:0:0:
409,165,120186,2,0,P|394:113|396:69,1,86.2500032901765,0|0,3:0|0:0,0:0:0:0:
247,96,120413,6,0,L|247:189,1,86.2500032901765,0|0,0:0|0:0,0:0:0:0:
247,96,120640,2,0,L|157:96,1,86.2500032901765,8|0,3:3|0:0,0:0:0:0:
160,96,120867,2,0,L|70:97,1,86.2500032901765,0|0,0:0|0:0,0:0:0:0:
31,239,121095,6,0,P|63:278|98:301,1,86.2500032901765,8|0,3:0|0:0,0:0:0:0:
237,319,121322,2,0,P|298:318|337:302,1,86.2500032901765,8|0,3:0|0:0,0:0:0:0:
383,176,121549,5,8,3:3:0:0:
465,297,121663,1,0,0:0:0:0:
454,165,121776,1,8,3:0:0:0:
390,304,121890,1,0,0:0:0:0:
316,176,122004,2,0,P|276:151|261:107,1,86.2500032901765,0|0,3:0|0:0,0:0:0:0:
402,74,122231,5,0,0:0:0:0:
347,48,122344,1,0,0:0:0:0:
288,34,122458,1,8,3:3:0:0:
228,34,122571,1,0,0:0:0:0:
169,46,122685,1,0,0:0:0:0:
122,84,122799,1,0,0:0:0:0:
95,140,122913,6,0,P|133:165|159:211,1,86.2500032901765,0|0,3:0|0:0,0:0:0:0:
111,253,123140,1,0,0:0:0:0:
158,302,123254,1,0,0:0:0:0:
225,314,123367,1,8,3:3:0:0:
293,304,123481,1,0,0:0:0:0:
352,269,123595,1,0,0:0:0:0:
388,210,123708,1,0,0:0:0:0:
396,141,123822,6,0,P|436:148|478:121,1,86.2500032901765,0|0,3:0|0:0,0:0:0:0:
424,78,124049,1,0,0:0:0:0:
318,180,124163,1,0,0:0:0:0:
366,42,124276,1,8,3:3:0:0:
261,145,124390,1,0,0:0:0:0:
339,102,124504,1,0,0:0:0:0:
193,110,124617,1,0,0:0:0:0:
317,31,124731,6,0,P|271:30|211:46,1,86.2500032901765,0|0,3:0|0:0,0:0:0:0:
120,133,124958,1,0,0:0:0:0:
138,199,125072,1,0,0:0:0:0:
180,253,125186,5,8,3:3:0:0:
230,299,125299,1,0,0:0:0:0:
294,325,125413,1,0,0:0:0:0:
362,331,125526,1,0,0:0:0:0:
426,306,125640,2,0,P|395:267|383:225,1,86.2500032901765,0|0,3:0|0:0,0:0:0:0:
481,161,125867,5,0,0:0:0:0:
481,161,125981,1,0,0:0:0:0:
481,161,126095,2,0,L|406:110,1,86.2500032901765,8|0,3:3|0:0,0:0:0:0:
288,122,126322,5,0,0:0:0:0:
400,41,126436,1,0,0:0:0:0:
254,41,126549,2,0,P|211:74|196:115,1,86.2500032901765,0|0,3:0|0:0,0:0:0:0:
288,218,126776,5,0,0:0:0:0:
140,220,126890,1,0,0:0:0:0:
268,290,127004,2,0,P|226:301|184:294,1,86.2500032901765,8|0,3:3|0:0,0:0:0:0:
322,345,127231,5,0,0:0:0:0:
322,345,127345,1,0,0:0:0:0:
322,345,127458,2,0,P|356:337|411:306,1,86.2500032901765,0|0,3:0|0:0,0:0:0:0:
409,235,127686,1,0,0:0:0:0:
430,178,127799,1,0,0:0:0:0:
429,117,127913,5,8,3:3:0:0:
406,61,128026,1,0,0:0:0:0:
357,24,128140,1,0,0:0:0:0:
298,9,128254,1,0,0:0:0:0:
236,22,128367,6,0,P|231:68|189:97,1,86.2500032901765,8|0,3:0|0:0,0:0:0:0:
58,128,128595,2,0,P|29:164|38:214,1,86.2500032901765,8|0,3:0|0:0,0:0:0:0:
172,244,128822,2,0,L|172:338,1,86.2500032901765,8|0,3:3|0:0,0:0:0:0:
289,242,129049,2,0,L|289:329,1,86.2500032901765,8|0,3:0|0:0,0:0:0:0:
415,237,129276,5,0,3:0:0:0:
460,87,129390,1,0,0:0:0:0:
483,241,129504,1,0,0:0:0:0:
399,111,129617,1,0,0:0:0:0:
352,259,129731,1,8,3:3:0:0:
333,104,129845,1,0,0:0:0:0:
468,178,129958,5,0,0:0:0:0:
468,178,130072,1,0,0:0:0:0:
468,178,130186,2,0,P|425:188|375:183,1,86.2500032901765,0|0,3:0|0:0,0:0:0:0:
110,37,130413,5,0,0:0:0:0:
185,172,130526,1,0,0:0:0:0:
174,17,130640,1,8,3:3:0:0:
115,161,130754,1,0,0:0:0:0:
228,56,130867,1,0,0:0:0:0:
239,211,130981,5,0,0:0:0:0:
239,211,131095,2,0,P|252:257|294:296,1,86.2500032901765,0|0,3:0|0:0,0:0:0:0:
431,299,131322,2,0,L|337:335,1,86.2500032901765,0|0,0:0|0:0,0:0:0:0:
198,294,131549,2,0,P|236:330|284:343,1,86.2500032901765,8|0,3:3|0:0,0:0:0:0:
384,239,131776,2,0,L|469:210,1,86.2500032901765,0|0,0:0|0:0,0:0:0:0:
419,60,132004,5,0,3:0:0:0:
323,181,132117,1,0,0:0:0:0:
463,113,132231,1,8,3:3:0:0:
307,110,132345,1,0,0:0:0:0:
430,17,132458,5,0,3:0:0:0:
277,49,132572,1,0,0:0:0:0:
402,141,132686,1,8,3:3:0:0:
247,147,132799,1,0,0:0:0:0:
130,43,132913,2,0,P|146:78|156:138,1,86.2500032901765,4|0,3:2|0:0,0:0:0:0:
67,242,133140,5,0,0:0:0:0:
157,334,133254,1,0,0:0:0:0:
141,197,133367,1,8,3:3:0:0:
234,298,133481,1,0,0:0:0:0:
214,160,133595,1,0,0:0:0:0:
303,263,133708,1,0,0:0:0:0:
316,125,133822,2,0,P|363:120|406:133,1,86.2500032901765,0|0,3:0|0:0,0:0:0:0:
459,255,134049,5,0,0:0:0:0:
416,297,134163,1,0,0:0:0:0:
362,324,134276,2,0,P|309:335|266:333,1,86.2500032901765,8|0,3:3|0:0,0:0:0:0:
248,188,134504,5,0,0:0:0:0:
196,324,134617,1,0,0:0:0:0:
307,228,134731,1,0,3:0:0:0:
163,259,134845,1,0,0:0:0:0:
211,121,134958,1,0,0:0:0:0:
99,216,135072,1,0,0:0:0:0:
242,248,135186,5,8,3:3:0:0:
134,149,135299,1,0,0:0:0:0:
278,178,135413,1,0,0:0:0:0:
165,85,135526,1,0,0:0:0:0:
309,111,135640,2,0,P|348:132|380:168,1,86.2500032901765,0|0,3:0|0:0,0:0:0:0:
329,301,135867,5,0,0:0:0:0:
384,277,135980,1,0,0:0:0:0:
426,234,136094,1,0,0:0:0:0:
454,181,136208,1,0,0:0:0:0:
465,121,136322,1,0,0:0:0:0:
463,60,136436,1,0,0:0:0:0:
426,12,136549,6,0,P|410:67|391:97,1,86.2500032901765,0|0,3:0|0:0,0:0:0:0:
336,74,136776,2,0,L|234:73,1,86.2500032901765,0|0,0:0|0:0,0:0:0:0:
250,134,137004,2,0,P|289:172|308:221,1,86.2500032901765,8|0,3:3|0:0,0:0:0:0:
244,217,137231,2,0,P|245:273|274:315,1,86.2500032901765,0|0,0:0|0:0,0:0:0:0:
314,276,137458,5,0,3:0:0:0:
300,332,137571,1,0,0:0:0:0:
246,353,137685,1,0,0:0:0:0:
189,334,137799,1,0,0:0:0:0:
181,273,137913,5,8,3:3:0:0:
141,227,138026,1,0,0:0:0:0:
80,226,138140,1,0,0:0:0:0:
42,273,138254,1,0,0:0:0:0:
46,332,138367,6,0,P|88:340|136:325,1,86.2500032901765,0|0,3:0|0:0,0:0:0:0:
218,210,138595,2,0,P|196:172|147:147,1,86.2500032901765,0|0,0:0|0:0,0:0:0:0:
18,189,138822,2,0,L|18:102,1,86.2500032901765,8|0,3:3|0:0,0:0:0:0:
160,66,139049,2,0,P|207:87|237:125,1,86.2500032901765,0|0,0:0|0:0,0:0:0:0:
342,206,139276,6,0,P|340:160|364:117,1,86.2500032901765,0|0,3:0|0:0,0:0:0:0:
432,201,139504,2,0,P|398:169|384:122,1,86.2500032901765,0|0,3:0|0:0,0:0:0:0:
491,140,139731,2,0,P|445:142|402:118,1,86.2500032901765,8|0,3:3|0:0,0:0:0:0:
486,64,139958,2,0,P|454:97|407:111,1,86.2500032901765,0|0,3:0|0:0,0:0:0:0:
293,30,140186,5,0,3:0:0:0:
203,153,140299,1,0,0:0:0:0:
330,85,140413,1,0,0:0:0:0:
202,79,140526,1,0,0:0:0:0:
329,155,140640,5,8,3:3:0:0:
205,227,140754,1,0,0:0:0:0:
333,227,140867,1,0,0:0:0:0:
210,298,140981,1,0,0:0:0:0:
352,310,141095,6,0,P|393:292|412:242,1,86.2500032901765,0|0,3:0|0:0,0:0:0:0:
425,105,141322,1,0,0:0:0:0:
425,105,141436,1,0,0:0:0:0:
425,105,141549,2,0,P|391:134|341:153,1,86.2500032901765,8|0,3:3|0:0,0:0:0:0:
206,154,141776,5,0,0:0:0:0:
145,188,141890,1,0,0:0:0:0:
100,240,142004,2,0,P|138:291|177:297,1,86.2500032901765,0|0,3:0|0:0,0:0:0:0:
278,301,142231,5,0,0:0:0:0:
338,294,142345,1,0,0:0:0:0:
385,257,142458,1,8,3:3:0:0:
398,197,142572,1,0,0:0:0:0:
387,137,142686,1,0,0:0:0:0:
344,94,142799,1,0,0:0:0:0:
285,79,142913,5,0,3:0:0:0:
249,127,143026,1,0,0:0:0:0:
189,139,143140,1,0,0:0:0:0:
134,113,143254,1,0,0:0:0:0:
120,54,143367,1,8,3:3:0:0:
160,8,143481,1,0,0:0:0:0:
220,11,143595,1,0,0:0:0:0:
257,57,143708,1,0,0:0:0:0:
250,117,143822,6,0,L|208:197,1,86.2500032901765,0|0,3:0|0:0,0:0:0:0:
92,281,144049,1,0,0:0:0:0:
150,145,144163,1,0,0:0:0:0:
168,298,144276,1,8,3:3:0:0:
271,181,144390,1,0,0:0:0:0:
283,336,144504,1,0,0:0:0:0:
346,195,144617,1,0,0:0:0:0:
414,334,144731,6,0,L|413:239,1,86.2500032901765,0|0,3:0|0:0,0:0:0:0:
363,99,144958,1,0,0:0:0:0:
472,210,145072,1,0,0:0:0:0:
422,62,145186,1,8,3:3:0:0:
511,161,145299,1,0,0:0:0:0:
456,15,145413,1,0,0:0:0:0:
418,164,145526,1,0,0:0:0:0:
456,15,145640,6,0,P|460:75|439:102,1,86.2500032901765,0|0,3:0|0:0,0:0:0:0:
298,45,145867,2,0,P|288:98|319:149,1,86.2500032901765,0|0,0:0|0:0,0:0:0:0:
190,241,146095,2,0,L|166:147,1,86.2500032901765,8|0,3:3|0:0,0:0:0:0:
84,288,146322,2,0,P|111:326|149:351,1,86.2500032901765,0|0,0:0|0:0,0:0:0:0:
297,324,146549,5,8,3:0:0:0:
228,311,146663,1,0,0:0:0:0:
167,279,146776,1,8,3:0:0:0:
123,225,146890,1,0,0:0:0:0:
192,225,147004,5,8,3:3:0:0:
254,197,147117,1,0,0:0:0:0:
303,148,147231,1,8,3:0:0:0:
314,79,147345,1,0,0:0:0:0:
289,14,147458,6,0,P|202:43|96:17,1,172.500006580353,0|0,3:0|0:0,0:0:0:0:
416,138,147913,2,0,P|438:220|419:303,1,172.500006580353,8|0,3:3|0:0,0:0:0:0:
109,308,148367,6,0,B|87:236|157:225|157:225|157:161,1,172.500006580353,0|0,3:0|0:0,0:0:0:0:
466,128,148822,2,0,L|287:128,1,172.500006580353,8|0,3:3|0:0,0:0:0:0:
76,56,149276,6,0,B|164:67|164:67|226:123,1,172.500006580353,0|0,3:0|0:0,0:0:0:0:
439,350,149731,2,0,P|357:320|299:246,1,172.500006580353,8|0,3:3|0:0,0:0:0:0:
39,136,150186,6,0,B|113:125|113:196|113:196|176:206,1,172.500006580353,0|0,3:0|0:0,0:0:0:0:
453,77,150640,2,0,B|419:80|317:52|448:152|280:112,1,172.500006580353,8|0,3:3|0:0,0:0:0:0:
202,145,151095,5,0,3:0:0:0:
171,278,151208,1,0,0:0:0:0:
271,171,151322,1,0,0:0:0:0:
299,306,151436,1,0,0:0:0:0:
207,177,151549,5,8,3:3:0:0:
149,312,151663,1,0,0:0:0:0:
264,217,151776,1,0,0:0:0:0:
301,359,151890,1,0,0:0:0:0:
345,218,152004,2,0,P|373:173|408:148,1,86.2500032901765,0|0,3:0|0:0,0:0:0:0:
307,37,152231,5,0,0:0:0:0:
307,37,152345,1,0,0:0:0:0:
307,37,152458,2,0,P|267:54|225:85,1,86.2500032901765,8|0,3:3|0:0,0:0:0:0:
75,79,152686,5,0,0:0:0:0:
75,79,152799,1,0,0:0:0:0:
75,79,152913,2,0,P|81:124|106:166,1,86.2500032901765,0|0,3:0|0:0,0:0:0:0:
187,288,153140,2,0,B|150:271|150:271|118:223,1,86.2500032901765,0|0,0:0|0:0,0:0:0:0:
277,200,153367,2,0,L|277:289,1,86.2500032901765,8|0,3:3|0:0,0:0:0:0:
424,341,153595,2,0,L|424:249,1,86.2500032901765,0|0,0:0|0:0,0:0:0:0:
426,99,153822,6,0,L|426:189,1,86.2500032901765,8|0,3:0|0:0,0:0:0:0:
277,136,154049,2,0,L|353:192,1,86.2500032901765,8|0,3:0|0:0,0:0:0:0:
402,42,154276,2,0,P|376:91|345:111,1,86.2500032901765,8|0,3:3|0:0,0:0:0:0:
195,88,154504,2,0,L|216:186,1,86.2500032901765,8|0,3:0|0:0,0:0:0:0:
85,82,154731,5,0,3:0:0:0:
155,211,154845,1,0,0:0:0:0:
85,82,154958,1,0,0:0:0:0:
155,211,155072,1,0,0:0:0:0:
0,193,155186,2,0,P|28:231|72:249,1,86.2500032901765,8|0,3:3|0:0,0:0:0:0:
209,247,155413,5,0,0:0:0:0:
275,232,155526,1,0,0:0:0:0:
342,245,155640,2,0,P|410:254|445:240,1,86.2500032901765,0|0,3:0|0:0,0:0:0:0:
469,185,155867,5,0,0:0:0:0:
475,116,155981,1,0,0:0:0:0:
430,62,156095,1,8,3:3:0:0:
362,51,156208,1,0,0:0:0:0:
302,79,156322,1,0,0:0:0:0:
280,144,156436,1,0,0:0:0:0:
305,207,156549,6,0,P|310:250|279:306,1,86.2500032901765,0|0,3:0|0:0,0:0:0:0:
150,321,156776,2,0,L|239:341,1,86.2500032901765,0|0,0:0|0:0,0:0:0:0:
124,240,157004,2,0,L|29:213,1,86.2500032901765,8|0,3:0|0:0,0:0:0:0:
136,105,157231,2,0,B|181:113|181:113|236:103,1,86.2500032901765,0|0,0:0|0:0,0:0:0:0:
380,65,157458,5,0,3:0:0:0:
103,165,157686,1,0,0:0:0:0:
374,274,157913,1,0,0:0:0:0:
103,351,158140,1,0,0:0:0:0:
