osu file format v14

[General]
AudioFilename: audio.mp3
AudioLeadIn: 0
PreviewTime: 244801
Countdown: 0
SampleSet: Soft
StackLeniency: 0.7
Mode: 0
LetterboxInBreaks: 0
WidescreenStoryboard: 0

[Editor]
DistanceSpacing: 1.3
BeatDivisor: 8
GridSize: 4
TimelineZoom: 3.099999

[Metadata]
Title:The Amateur Arsonist's Handbook
TitleUnicode:The Amateur Arsonist's Handbook
Artist:Thank You Scientist
ArtistUnicode:Thank You Scientist
Creator:wafer
Version:Rebel
Source:
Tags:tys featured artist fa alternative alt progressive prog rock Stranger Heads Prevail English dtm9 nowa cheri dj lucky hailie
BeatmapID:2469170
BeatmapSetID:1184482

[Difficulty]
HPDrainRate:5
CircleSize:4
OverallDifficulty:9
ApproachRate:9.2
SliderMultiplier:1.4
SliderTickRate:1

[Events]
//Background and Video events
0,0,"fire.jpg",0,0
//Break Periods
2,245146,254807
//Storyboard Layer 0 (Background)
//Storyboard Layer 1 (Fail)
//Storyboard Layer 2 (Pass)
//Storyboard Layer 3 (Foreground)
//Storyboard Layer 4 (Overlay)
//Storyboard Sound Samples

[TimingPoints]
15,319.148936170213,4,2,1,65,1,0
1929,-100,4,2,2,65,0,0
2089,-100,4,2,1,65,0,0
2408,-100,4,2,2,65,0,0
2568,-100,4,2,1,65,0,0
4483,319.148936170213,4,2,3,65,1,0
4642,-100,4,2,1,65,0,0
4961,-100,4,2,3,65,0,0
5759,-100,4,2,2,65,0,0
6397,-100,4,2,4,58,0,0
6876,-100,4,2,4,65,0,0
7036,-100,4,2,17,65,0,0
7674,-100,4,2,2,58,0,0
7834,-100,4,2,2,65,0,0
8233,-100,4,2,3,65,0,0
8312,-100,4,2,1,65,0,0
8951,-100,4,2,4,58,0,0
9589,-100,4,2,1,65,0,0
9908,-100,4,2,2,65,0,0
9988,-100,4,2,3,65,0,0
10227,-100,4,2,5,65,0,0
10865,-100,4,2,2,65,0,0
11025,-100,4,2,1,65,0,0
11185,-100,4,2,5,65,0,0
11663,-100,4,2,1,65,0,0
11983,-100,4,2,3,65,0,0
12142,-100,4,2,1,65,0,0
12302,-100,4,2,2,65,0,0
12461,-100,4,2,4,65,0,0
12621,-100,4,2,1,65,0,0
13259,-100,4,2,6,65,0,0
13419,324.324324324325,4,2,1,65,1,0
13419,-100,4,2,1,65,0,0
13738,-100,4,2,5,65,0,0
14067,312.5,4,2,1,65,1,0
14067,-100,4,2,1,65,0,0
14376,-100,4,2,4,65,0,0
14536,319.148936170213,4,2,1,65,1,0
14536,-100,4,2,1,65,0,0
15014,-100,4,2,4,65,0,0
15174,-100,4,2,1,65,0,0
15334,319.148936170213,4,2,7,65,1,0
15493,-100,4,2,3,65,0,0
15812,-100,4,2,7,65,0,0
15972,-100,4,2,3,65,0,0
16291,-100,4,2,6,58,0,0
16451,-100,4,2,6,65,0,0
16610,-100,4,2,2,65,0,0
17248,-100,4,2,4,58,0,0
17727,-100,4,2,4,65,0,0
17887,-100,4,2,17,65,0,0
18525,-100,4,2,2,58,0,0
18844,-100,4,2,2,65,0,0
19163,-100,4,2,1,65,0,0
19801,-100,4,2,4,58,0,0
20440,-100,4,2,4,65,0,0
20599,-100,4,2,4,58,0,0
20759,-100,4,2,5,65,0,0
20919,-100,4,2,2,58,0,0
21078,-100,4,2,2,65,0,0
21238,-100,4,2,2,58,0,0
21397,-100,4,2,8,65,0,0
21557,-100,4,2,2,58,0,0
21716,-100,4,2,1,65,0,0
22036,-100,4,2,9,65,0,0
22195,-100,4,2,1,65,0,0
22674,-100,4,2,9,65,0,0
22834,-100,4,2,1,65,0,0
23312,-100,4,2,2,58,0,0
23472,-100,4,2,1,65,0,0
23951,-100,4,2,2,58,0,0
24110,-100,4,2,1,65,0,0
24589,-100,4,2,2,58,0,0
24748,-100,4,2,1,65,0,0
25227,-100,4,2,2,58,0,0
25387,-100,4,2,1,65,0,0
25865,-100,4,2,2,58,0,0
26025,-100,4,2,1,65,0,0
27461,-100,4,2,4,58,0,0
27621,-100,4,2,1,65,0,0
28099,-100,4,2,3,39,0,0
28259,-100,4,2,1,65,0,0
28738,-100,4,2,6,58,0,0
28897,-100,4,2,1,65,0,0
30014,-100,4,2,4,58,0,0
30174,-100,4,2,1,65,0,0
30653,-100,4,2,7,52,0,0
30812,-100,4,2,1,65,0,0
30891,-100,4,2,2,58,0,0
30971,-100,4,2,1,65,0,0
31291,-100,4,2,10,65,0,0
31450,-100,4,2,2,58,0,0
31610,-100,4,2,1,65,0,0
31770,-100,4,2,11,65,0,0
31929,-100,4,2,12,65,0,0
32248,-100,4,2,9,65,0,0
32408,-100,4,2,1,65,0,0
32887,-100,4,2,9,65,0,0
33046,-100,4,2,1,65,0,0
33525,-100,4,2,9,65,0,0
33685,-100,4,2,1,65,0,0
34163,-100,4,2,9,65,0,0
34323,-100,4,2,1,65,0,0
34482,-100,4,2,4,65,0,0
34642,-100,4,2,1,65,0,0
34802,-100,4,2,9,65,0,0
34961,-100,4,2,1,65,0,0
35440,-100,4,2,9,65,0,0
35599,-100,4,2,1,65,0,0
36078,-100,4,2,9,65,0,0
36238,-100,4,2,1,65,0,0
36397,-100,4,2,4,65,0,0
36557,-100,4,2,1,65,0,0
36716,-100,4,2,13,65,0,0
36876,-100,4,2,1,65,0,0
37674,-100,4,2,4,58,0,0
37834,-100,4,2,1,65,0,0
38312,-100,4,2,3,39,0,0
38472,-100,4,2,10,65,0,0
38631,-100,4,2,1,65,0,0
38951,-100,4,2,4,58,0,0
39110,-100,4,2,1,65,0,0
42142,-100,4,2,12,55,0,0
42302,-100,4,2,14,55,0,0
42461,-100,4,2,3,55,0,0
42780,-100,4,2,6,50,0,0
42940,-100,4,2,6,55,0,0
43099,-100,4,2,3,55,0,0
43897,-100,4,2,15,55,0,0
44057,-100,4,2,6,50,0,0
44216,-100,4,2,6,55,0,0
44695,-100,4,2,15,55,0,0
44855,-100,4,2,6,55,0,0
45014,-100,4,2,3,55,0,0
45334,-100,4,2,14,55,0,0
45493,-100,4,2,15,55,0,0
45653,-100,4,2,3,55,0,0
46929,-100,4,2,15,55,0,0
47089,-100,4,2,3,55,0,0
47408,-100,4,2,15,55,0,0
47568,-100,4,2,3,55,0,0
47727,-100,4,2,15,55,0,0
47887,-100,4,2,2,50,0,0
48046,-100,4,2,15,55,0,0
48206,-100,4,2,3,55,0,0
48365,-100,4,2,6,55,0,0
48525,-100,4,2,15,55,0,0
48844,-100,4,2,3,55,0,0
49802,-100,4,2,12,55,0,0
50440,-100,4,2,1,55,0,0
52195,-100,4,2,6,55,0,0
52355,-100,4,2,16,55,0,0
53472,-100,4,2,6,55,0,0
53631,-100,4,2,3,55,0,0
53791,-100,4,2,6,55,0,0
53951,-100,4,2,16,55,0,0
54748,-100,4,2,6,55,0,0
54908,-100,4,2,17,55,0,0
56025,-100,4,2,6,55,0,0
56185,-100,4,2,3,55,0,0
57142,-100,4,2,18,55,0,0
57302,-100,4,2,3,55,0,0
57461,-100,4,2,19,55,0,0
57621,-100,4,2,1,55,0,0
58099,-100,4,2,3,55,0,0
58419,-100,4,2,1,55,0,0
58578,-100,4,2,6,55,0,0
58738,-100,4,2,3,55,0,0
59057,-100,4,2,1,55,0,0
59376,-100,4,2,3,55,0,0
59695,-100,4,2,6,55,0,0
59855,-100,4,2,1,55,0,0
60014,-100,4,2,1,45,0,0
60174,-100,4,2,2,40,0,0
60334,-100,4,2,2,50,0,0
60493,-100,4,2,2,45,0,0
60653,-100,4,2,15,55,0,0
60972,-100,4,2,15,60,0,0
61131,-100,4,2,3,60,0,0
61291,-100,4,2,3,65,0,0
61610,-100,4,2,3,70,0,0
61929,-100,4,2,3,75,0,0
62568,-100,4,2,2,85,0,0
62887,-100,4,2,1,85,0,0
63046,-100,4,2,3,85,0,0
63206,-100,4,2,9,85,0,0
63526,-100,4,2,20,85,0,0
63844,-100,4,2,1,85,0,0
64004,-100,4,2,6,85,0,0
64163,-100,4,2,1,85,0,0
64482,-100,4,2,6,76,0,0
64802,-100,4,2,4,85,0,0
64961,-100,4,2,4,76,0,0
65121,-100,4,2,2,85,0,0
65440,-100,4,2,1,85,0,0
65600,-100,4,2,2,85,0,0
65759,-100,4,2,2,76,0,0
66079,-100,4,2,20,85,0,0
66397,-100,4,2,1,85,0,0
66557,-100,4,2,6,85,0,0
66716,-100,4,2,1,85,0,0
67036,-100,4,2,16,85,0,0
67514,-100,4,2,2,76,0,0
67674,-100,4,2,12,85,0,0
67993,-100,4,2,1,85,0,0
68153,-100,4,2,15,85,0,0
68312,-100,4,2,21,85,0,0
68472,-100,4,2,3,85,0,0
68631,-100,4,2,22,85,0,0
68711,-100,4,2,14,85,0,0
68791,-100,4,2,15,85,0,0
68951,-100,4,2,22,85,0,0
69111,-100,4,2,2,76,0,0
69270,-100,4,2,1,85,0,0
69589,-100,4,2,9,85,0,0
69748,-100,4,2,3,85,0,0
69908,-100,4,2,1,85,0,0
70068,-100,4,2,3,85,0,0
70228,-100,4,2,5,85,0,0
71345,-100,4,2,1,85,0,0
71664,-100,4,2,5,85,0,0
72142,-100,4,2,1,85,0,0
72780,-100,4,2,2,85,0,0
73099,-100,4,2,1,85,0,0
73260,-100,4,2,2,85,0,0
73418,-100,4,2,2,76,0,0
73738,-100,4,2,20,85,0,0
74057,-100,4,2,21,85,0,0
74216,-100,4,2,6,85,0,0
74375,-100,4,2,2,85,0,0
74694,-100,4,2,2,76,0,0
75014,-100,4,2,21,85,0,0
75173,-100,4,2,2,76,0,0
75334,-100,4,2,5,85,0,0
75652,-100,4,2,1,85,0,0
75813,-100,4,2,2,85,0,0
75971,-100,4,2,2,76,0,0
76292,-100,4,2,20,85,0,0
76610,-100,4,2,21,85,0,0
76769,-100,4,2,6,85,0,0
76928,-100,4,2,1,85,0,0
77247,-100,4,2,6,76,0,0
77568,-100,4,2,1,85,0,0
77726,-100,4,2,2,76,0,0
77887,-100,4,2,2,85,0,0
78205,-100,4,2,1,85,0,0
78366,-100,4,2,2,85,0,0
78524,-100,4,2,9,85,0,0
78685,-100,4,2,14,85,0,0
78845,-100,4,2,20,85,0,0
79004,-100,4,2,15,85,0,0
79084,-100,4,2,14,85,0,0
79163,-100,4,2,22,85,0,0
79323,-100,4,2,6,85,0,0
79482,-100,4,2,1,85,0,0
79801,-100,4,2,9,85,0,0
80120,-100,4,2,1,85,0,0
80440,-100,4,2,5,85,0,0
80759,-100,4,2,1,85,0,0
80919,-100,4,2,5,85,0,0
81557,-100,4,2,1,85,0,0
81876,-100,4,2,5,85,0,0
82355,-100,4,2,10,85,0,0
82514,-100,4,2,1,85,0,0
82674,-100,4,2,10,85,0,0
82834,-100,4,2,5,85,0,0
84110,-100,4,2,1,85,0,0
84429,-100,4,2,5,85,0,0
84908,-100,4,2,10,85,0,0
85067,-100,4,2,1,85,0,0
85227,-100,4,2,10,85,0,0
85387,-100,4,2,12,85,0,0
85546,-100,4,2,12,75,0,0
85706,-100,4,2,1,75,0,0
86185,-100,4,2,23,75,0,0
86344,-100,4,2,1,75,0,0
86504,-100,4,2,24,75,0,0
86663,-100,4,2,1,75,0,0
87461,-100,4,2,9,75,0,0
87621,-100,4,2,1,75,0,0
87780,-100,4,2,4,75,0,0
87940,-100,4,2,12,75,0,0
88259,-100,4,2,1,75,0,0
88418,-100,4,2,4,75,0,0
88578,-100,4,2,1,75,0,0
88738,-100,4,2,23,75,0,0
88897,-100,4,2,1,75,0,0
89057,-100,4,2,23,75,0,0
89216,-100,4,2,1,75,0,0
89695,-100,4,2,4,75,0,0
89855,-166.666666666667,4,2,10,75,0,0
90653,-100,4,2,1,65,0,0
91451,319.148936170213,4,2,1,65,1,0
92248,319.148936170213,4,2,1,65,1,0
93046,319.148936170213,4,2,1,65,1,0
93365,-100,4,2,4,65,0,0
93524,-100,4,2,1,65,0,0
93684,-100,4,2,13,65,0,0
93843,-100,4,2,12,65,0,0
94322,-100,4,2,24,65,0,0
94482,-100,4,2,1,65,0,0
94641,-100,4,2,4,58,0,0
94801,-100,4,2,4,65,0,0
95280,-100,4,2,4,58,0,0
95439,-100,4,2,4,65,0,0
95918,-100,4,2,4,58,0,0
96077,-100,4,2,4,65,0,0
96556,-100,4,2,4,58,0,0
96716,-100,4,2,4,65,0,0
97035,-100,4,2,23,65,0,0
97194,-100,4,2,24,65,0,0
97354,-100,4,2,4,65,0,0
97833,-100,4,2,4,58,0,0
97992,-100,4,2,4,65,0,0
98311,-100,4,2,1,65,0,0
98471,-100,4,2,2,58,0,0
98631,-100,4,2,1,65,0,0
98790,-100,4,2,10,65,0,0
98950,-100,4,2,1,65,0,0
99428,-100,4,2,12,75,0,0
100067,-100,4,2,2,68,0,0
100226,-100,4,2,1,75,0,0
100386,-100,4,2,3,45,0,0
100546,-100,4,2,1,75,0,0
101663,-100,4,2,3,45,0,0
101822,-100,4,2,1,75,0,0
101982,-100,4,2,3,45,0,0
102141,-100,4,2,1,75,0,0
103258,-100,4,2,3,45,0,0
103418,-100,4,2,1,75,0,0
103577,-100,4,2,3,45,0,0
103737,-100,4,2,1,75,0,0
104375,-100,4,2,24,75,0,0
104535,-100,4,2,1,75,0,0
105173,-100,4,2,4,68,0,0
105333,-100,4,2,1,75,0,0
105812,-100,4,2,3,45,0,0
105971,-100,4,2,1,75,0,0
107727,-100,4,2,4,68,0,0
107886,-100,4,2,1,75,0,0
108365,-100,4,2,3,45,0,0
108524,-100,4,2,1,75,0,0
109322,-100,4,2,10,75,0,0
109641,-100,4,2,17,75,0,0
110280,-100,4,2,4,68,0,0
110439,-100,4,2,3,75,0,0
110599,-100,4,2,3,45,0,0
110758,-100,4,2,3,75,0,0
110918,-100,4,2,17,75,0,0
111876,-100,4,2,3,45,0,0
112035,-100,4,2,3,75,0,0
112195,-100,4,2,3,45,0,0
112354,-100,4,2,3,75,0,0
112514,-100,4,2,17,75,0,0
113471,-100,4,2,3,45,0,0
113631,-100,4,2,3,75,0,0
114109,-100,4,2,17,75,0,0
114748,-100,4,2,17,65,0,0
115226,-100,4,2,15,65,0,0
115386,-100,4,2,3,65,0,0
115546,-100,4,2,15,65,0,0
115705,-100,4,2,3,65,0,0
115865,-100,4,2,15,65,0,0
116024,-100,4,2,3,65,0,0
116184,-100,4,2,15,65,0,0
116503,-100,4,2,3,65,0,0
116663,-100,4,2,15,65,0,0
117141,-100,4,2,3,65,0,0
117301,-100,4,2,15,65,0,0
117460,-100,4,2,3,65,0,0
117620,-100,4,2,15,65,0,0
117939,-100,4,2,3,65,0,0
118099,-100,4,2,15,65,0,0
118258,-100,4,2,2,58,0,0
118418,-100,4,2,3,65,0,0
118577,-100,4,2,2,58,0,0
118737,-100,4,2,3,65,0,0
119216,-100,4,2,1,65,0,0
119854,-100,4,2,12,65,0,0
120014,-100,4,2,14,65,0,0
120173,-100,4,2,3,65,0,0
120492,-100,4,2,6,58,0,0
120652,-100,4,2,6,65,0,0
120811,-100,4,2,3,65,0,0
121609,-100,4,2,15,65,0,0
121769,-100,4,2,6,58,0,0
121928,-100,4,2,6,65,0,0
122407,-100,4,2,15,65,0,0
122567,-100,4,2,6,65,0,0
122726,-100,4,2,3,65,0,0
123046,-100,4,2,14,65,0,0
123205,-100,4,2,15,65,0,0
123365,-100,4,2,3,65,0,0
124641,-100,4,2,15,65,0,0
124801,-100,4,2,3,65,0,0
125120,-100,4,2,15,65,0,0
125280,-100,4,2,3,65,0,0
125439,-100,4,2,15,65,0,0
125599,-100,4,2,2,58,0,0
125758,-100,4,2,15,65,0,0
125918,-100,4,2,3,65,0,0
126077,-100,4,2,6,65,0,0
126237,-100,4,2,15,65,0,0
126556,-100,4,2,3,65,0,0
127514,-100,4,2,12,65,0,0
128152,-100,4,2,1,65,0,0
129907,-100,4,2,6,65,0,0
130067,-100,4,2,16,65,0,0
131184,-100,4,2,6,65,0,0
131343,-100,4,2,3,65,0,0
131503,-100,4,2,6,65,0,0
131663,-100,4,2,16,65,0,0
132460,-100,4,2,6,65,0,0
132620,-100,4,2,17,65,0,0
133258,-100,4,2,14,65,0,0
133418,-100,4,2,3,65,0,0
133737,-100,4,2,6,65,0,0
133897,-100,4,2,15,65,0,0
134056,-100,4,2,3,65,0,0
134535,-100,4,2,14,65,0,0
134694,-100,4,2,3,65,0,0
134854,-100,4,2,18,65,0,0
135014,-100,4,2,3,65,0,0
135173,-100,4,2,19,65,0,0
135333,-100,4,2,1,65,0,0
135811,-100,4,2,3,65,0,0
136131,-100,4,2,1,65,0,0
136290,-100,4,2,6,65,0,0
136450,-100,4,2,3,65,0,0
136769,-100,4,2,1,65,0,0
137088,-100,4,2,3,65,0,0
137407,-100,4,2,6,65,0,0
137567,-100,4,2,1,65,0,0
137726,-100,4,2,1,45,0,0
137886,-100,4,2,2,40,0,0
138046,-100,4,2,2,50,0,0
138205,-100,4,2,2,45,0,0
138365,-100,4,2,15,55,0,0
138684,-100,4,2,15,60,0,0
138843,-100,4,2,3,60,0,0
139003,-100,4,2,3,65,0,0
139322,-100,4,2,3,70,0,0
139641,-100,4,2,3,75,0,0
140280,-100,4,2,2,85,0,0
140599,-100,4,2,1,85,0,0
140758,-100,4,2,3,85,0,0
140918,-100,4,2,9,85,0,0
141238,-100,4,2,20,85,0,0
141556,-100,4,2,1,85,0,0
141716,-100,4,2,6,85,0,0
141875,-100,4,2,1,85,0,0
142194,-100,4,2,4,76,0,0
142514,-100,4,2,1,85,0,0
142673,-100,4,2,2,76,0,0
142833,-100,4,2,2,85,0,0
143152,-100,4,2,1,85,0,0
143312,-100,4,2,5,85,0,0
143471,-100,4,2,2,76,0,0
143791,-100,4,2,20,85,0,0
144109,-100,4,2,1,85,0,0
144269,-100,4,2,6,85,0,0
144428,-100,4,2,17,85,0,0
145067,-100,4,2,1,85,0,0
145226,-100,4,2,2,76,0,0
145386,-100,4,2,12,85,0,0
145705,-100,4,2,1,85,0,0
145865,-100,4,2,15,85,0,0
146024,-100,4,2,3,85,0,0
146343,-100,4,2,22,85,0,0
146423,-100,4,2,14,85,0,0
146503,-100,4,2,15,85,0,0
146663,-100,4,2,22,85,0,0
146823,-100,4,2,2,76,0,0
146982,-100,4,2,1,85,0,0
147301,-100,4,2,9,85,0,0
147460,-100,4,2,3,85,0,0
147620,-100,4,2,1,85,0,0
147780,-100,4,2,3,85,0,0
147940,-100,4,2,5,85,0,0
149057,-100,4,2,1,85,0,0
149376,-100,4,2,5,85,0,0
149854,-100,4,2,1,85,0,0
150492,-100,4,2,2,85,0,0
150811,-100,4,2,1,85,0,0
150972,-100,4,2,2,85,0,0
151130,-100,4,2,9,85,0,0
151450,-100,4,2,20,85,0,0
151769,-100,4,2,21,85,0,0
151928,-100,4,2,6,85,0,0
152087,-100,4,2,1,85,0,0
152406,-100,4,2,2,76,0,0
152726,-100,4,2,21,85,0,0
152885,-100,4,2,2,76,0,0
153046,-100,4,2,5,85,0,0
153364,-100,4,2,1,85,0,0
153525,-100,4,2,2,85,0,0
153683,-100,4,2,2,76,0,0
154004,-100,4,2,20,85,0,0
154322,-100,4,2,21,85,0,0
154481,-100,4,2,6,85,0,0
154640,-100,4,2,1,85,0,0
154959,-100,4,2,6,76,0,0
155280,-100,4,2,4,85,0,0
155438,-100,4,2,4,76,0,0
155599,-100,4,2,5,85,0,0
155917,-100,4,2,1,85,0,0
156078,-100,4,2,2,85,0,0
156236,-100,4,2,9,85,0,0
156397,-100,4,2,14,85,0,0
156557,-100,4,2,20,85,0,0
156716,-100,4,2,15,85,0,0
156796,-100,4,2,14,85,0,0
156875,-100,4,2,22,85,0,0
157035,-100,4,2,2,76,0,0
157194,-100,4,2,1,85,0,0
157513,-100,4,2,9,85,0,0
157832,-100,4,2,1,85,0,0
158152,-100,4,2,8,85,0,0
158311,-100,4,2,1,85,0,0
158631,-100,4,2,5,85,0,0
159269,-100,4,2,1,85,0,0
159588,-100,4,2,5,85,0,0
160067,-100,4,2,10,85,0,0
160226,-100,4,2,1,85,0,0
160386,-100,4,2,10,85,0,0
160546,-100,4,2,1,85,0,0
160705,-100,4,2,8,85,0,0
160865,-100,4,2,5,85,0,0
161822,-100,4,2,1,85,0,0
162141,-100,4,2,5,85,0,0
162620,-100,4,2,10,85,0,0
162779,-100,4,2,1,85,0,0
162939,-100,4,2,10,85,0,0
163099,-100,4,2,1,85,0,0
163258,-100,4,2,1,65,0,0
163897,-100,4,2,24,65,0,0
164375,-100,4,2,1,65,0,0
164535,-100,4,2,25,65,0,0
164694,-100,4,2,10,65,0,0
165333,-100,4,2,26,65,0,0
165811,-100,4,2,12,65,0,0
166051,-100,4,2,1,65,0,0
166450,-100,4,2,6,58,0,0
166530,-100,4,2,6,65,0,0
166609,-100,4,2,6,58,0,0
166689,-100,4,2,7,65,0,0
166849,-100,4,2,2,58,0,0
167088,-100,4,2,2,65,0,0
167327,-100,4,2,5,65,0,0
167726,-100,4,2,6,65,0,0
167885,-100,4,2,6,58,0,0
168524,-100,4,2,2,65,0,0
168843,-100,4,2,5,65,0,0
169082,-100,4,2,2,58,0,0
169322,-100,4,2,8,65,0,0
169482,-100,4,2,6,65,0,0
169801,-100,4,2,2,65,0,0
170120,-100,4,2,5,65,0,0
170599,-100,4,2,3,65,0,0
170918,-100,4,2,12,65,0,0
171158,-100,4,2,1,65,0,0
171556,-100,4,2,2,58,0,0
171663,-100,4,2,2,65,0,0
171769,-100,4,2,2,58,0,0
171875,-100,4,2,6,65,0,0
171982,-100,4,2,6,58,0,0
172195,-100,4,2,20,65,0,0
172434,-100,4,2,27,65,0,0
172833,-100,4,2,9,65,0,0
172912,-100,4,2,6,58,0,0
173071,-100,4,2,6,65,0,0
173631,-100,4,2,2,65,0,0
173950,-100,4,2,5,65,0,0
174189,-100,4,2,6,58,0,0
174428,-100,4,2,6,65,0,0
174908,-100,4,2,5,65,0,0
175706,-100,4,2,1,65,0,0
176024,-100,4,2,12,75,0,0
176343,-100,4,2,4,75,0,0
176663,348.837209302326,4,2,21,75,1,0
176663,-100,4,2,21,75,0,0
177012,309.278350515464,4,2,21,75,1,0
177301,-100,4,2,12,75,0,0
177321,309.278350515464,4,2,21,75,1,0
177620,-100,4,2,1,75,0,0
177939,319.148936170213,4,2,21,75,1,0
177939,-100,4,2,21,75,0,0
178099,-100,4,2,6,75,0,0
178258,340.909090909092,4,2,6,75,1,0
178418,-100,4,2,19,75,0,0
178427,301.507537688443,4,2,19,75,1,0
178577,348.837209302327,4,2,19,75,1,0
178751,317.460317460318,4,2,12,75,1,0
178751,-100,4,2,12,75,0,0
179216,-100,4,2,16,75,0,0
179535,-100,4,2,21,75,0,0
179862,317.460317460318,4,2,12,75,1,0
179862,-100,4,2,1,75,0,0
180020,312.500000000001,4,2,12,75,1,0
180020,-100,4,2,12,75,0,0
180332,319.148936170213,4,2,12,75,1,0
180492,-100,4,2,10,75,0,0
180652,-100,4,2,1,75,0,0
180811,-100,4,2,10,75,0,0
180971,-100,4,2,8,75,0,0
181130,346.820809248556,4,2,12,75,1,0
181131,-100,4,2,12,75,0,0
181389,294.117647058823,4,2,12,75,1,0
181450,-100,4,2,21,75,0,0
181608,357.142857142857,4,2,21,75,1,0
181788,319.148936170213,4,2,21,75,1,0
182426,331.491712707183,4,2,12,75,1,0
182426,-100,4,2,12,75,0,0
182675,307.692307692308,4,2,12,75,1,0
182904,284.36018957346,4,2,1,75,1,0
182904,-100,4,2,1,75,0,0
183044,319.148936170213,4,2,21,75,1,0
183044,-100,4,2,21,75,0,0
183205,-100,4,2,2,68,0,0
183365,-100,4,2,21,75,0,0
183444,-100,4,2,6,75,0,0
183682,324.324324324325,4,2,8,75,1,0
183682,-100,4,2,8,75,0,0
183843,-100,4,2,12,75,0,0
184330,314.136125654451,4,2,16,75,1,0
184330,-100,4,2,16,75,0,0
184641,-100,4,2,2,75,0,0
184720,-100,4,2,2,68,0,0
184958,319.148936170213,4,2,2,68,1,0
185117,-100,4,2,12,75,0,0
185436,-100,4,2,28,75,0,0
185596,-100,4,2,16,75,0,0
185915,329.67032967033,4,2,18,75,1,0
185915,-100,4,2,18,75,0,0
186244,309.278350515464,4,2,2,75,1,0
186244,-100,4,2,2,75,0,0
186476,-100,4,2,1,75,0,0
186707,352.941176470589,4,2,1,75,1,0
186882,314.136125654451,4,2,21,75,1,0
186882,-100,4,2,21,75,0,0
187511,324.324324324324,4,2,12,75,1,0
187511,-100,4,2,12,75,0,0
187833,-100,4,2,1,75,0,0
188159,319.148936170213,4,2,12,75,1,0
188159,-100,4,2,9,75,0,0
188311,-100,4,2,6,75,0,0
188631,-100,4,2,9,75,0,0
188797,300,4,2,12,75,1,0
188797,-100,4,2,9,75,0,0
188946,319.148936170213,4,2,12,75,1,0
188946,-100,4,2,2,75,0,0
189265,-100,4,2,1,75,0,0
189424,333.333333333333,4,2,12,75,1,0
189424,-100,4,2,8,75,0,0
189758,315.789473684211,4,2,12,75,1,0
189758,-100,4,2,21,75,0,0
190073,319.148936170213,4,2,12,75,1,0
190073,-100,4,2,1,75,0,0
190226,-100,4,2,2,75,0,0
190545,-100,4,2,1,75,0,0
190711,297.029702970297,4,2,12,75,1,0
190711,-100,4,2,5,75,0,0
190860,322.580645161291,4,2,12,75,1,0
191021,344.827586206897,4,2,12,75,1,0
191021,-100,4,2,29,75,0,0
191343,-100,4,2,12,75,0,0
191365,304.568527918782,4,2,12,75,1,0
191821,377.358490566038,4,2,12,75,1,0
191821,-100,4,2,1,75,0,0
192010,314.136125654451,4,2,12,75,1,0
192010,-100,4,2,21,75,0,0
192141,-100,4,2,3,75,0,0
192301,-100,4,2,1,75,0,0
192381,-100,4,2,3,75,0,0
192481,288.461538461539,4,2,12,75,1,0
192625,314.136125654451,4,2,12,75,1,0
192625,-100,4,2,12,75,0,0
192859,-100,4,2,1,75,0,0
193253,319.148936170213,4,2,12,75,1,0
193253,-100,4,2,21,75,0,0
193418,-100,4,2,6,75,0,0
193891,319.148936170213,4,2,12,75,1,0
193891,-100,4,2,7,75,0,0
194050,-100,4,2,12,75,0,0
194369,-100,4,2,10,75,0,0
194529,-100,4,2,16,75,0,0
194848,-100,4,2,2,75,0,0
194927,-100,4,2,2,68,0,0
195327,304.568527918782,4,2,2,68,1,0
195327,-100,4,2,12,75,0,0
195631,324.324324324325,4,2,12,75,1,0
195795,329.67032967033,4,2,12,75,1,0
196125,319.148936170213,4,2,12,75,1,0
196204,-100,4,2,2,68,0,0
196444,319.148936170213,4,2,2,68,1,0
196603,-100,4,2,12,85,0,0
197481,-100,4,2,2,76,0,0
197880,-100,4,2,12,85,0,0
198997,-100,4,2,3,65,0,0
201556,-100,4,2,12,75,0,0
201869,-76.9230769230769,4,2,1,75,0,0
202188,-76.9230769230769,4,2,1,75,0,0
202348,-76.9230769230769,4,2,1,75,0,0
202827,-76.9230769230769,4,2,1,75,0,0
202986,-45.4545454545455,4,2,1,75,0,0
203465,-45.4545454545455,4,2,1,75,0,0
203625,-45.4545454545455,4,2,1,75,0,0
204103,-45.4545454545455,4,2,1,75,0,0
204263,-76.9230769230769,4,2,1,75,0,0
205380,-66.6666666666667,4,2,1,75,0,0
205858,-133.333333333333,4,2,1,75,0,0
206497,-133.333333333333,4,2,1,75,0,0
206656,-100,4,2,12,75,0,0
206816,-100,4,2,24,75,0,0
206976,-100,4,2,1,75,0,0
207614,-76.9230769230769,4,2,1,75,0,0
207774,-76.9230769230769,4,2,24,75,0,0
207933,-41.6666666666667,4,2,1,75,0,0
208571,-41.6666666666667,4,2,1,75,0,0
209210,-41.6666666666667,4,2,1,75,0,0
209529,-41.6666666666667,4,2,1,75,0,0
209688,-66.6666666666667,4,2,1,75,0,0
210008,-66.6666666666667,4,2,24,75,0,0
210095,-66.6666666666667,4,2,24,75,0,0
210247,-66.6666666666667,4,2,1,75,0,0
210486,-66.6666666666667,4,2,10,75,0,0
210646,-66.6666666666667,4,2,1,75,0,0
210805,-83.3333333333333,4,2,1,75,0,0
211125,-83.3333333333333,4,2,30,75,0,0
211763,-83.3333333333333,4,2,12,75,0,0
211869,-83.3333333333333,4,2,1,75,0,0
212454,-83.3333333333333,4,2,24,75,0,0
212508,-83.3333333333333,4,2,1,75,0,0
217029,-83.3333333333333,4,2,24,75,0,0
217188,-83.3333333333333,4,2,31,75,0,0
217508,-83.3333333333333,4,2,30,75,0,0
217667,-83.3333333333333,4,2,24,75,0,0
217827,-83.3333333333333,4,2,1,75,0,0
219024,-83.3333333333333,4,2,24,75,0,0
219103,-83.3333333333333,4,2,1,75,0,0
219422,-83.3333333333333,4,2,12,75,0,0
219529,-83.3333333333333,4,2,1,75,0,0
220061,-83.3333333333333,4,2,10,75,0,0
220380,-83.3333333333333,4,2,1,75,0,0
220699,-83.3333333333333,4,2,10,75,0,0
221018,-83.3333333333333,4,2,12,75,0,0
221337,-83.3333333333333,4,2,10,75,0,0
221577,-83.3333333333333,4,2,2,68,0,0
221657,-83.3333333333333,4,2,10,75,0,0
221736,-83.3333333333333,4,2,2,68,0,0
221816,-83.3333333333333,4,2,1,75,0,0
221896,-83.3333333333333,4,2,2,68,0,0
221975,-100,4,2,12,75,0,0
222135,-100,4,2,24,75,0,0
222295,-100,4,2,4,75,0,0
222614,-100,4,2,13,75,0,0
222774,-100,4,2,1,75,0,0
222933,-100,4,2,4,75,0,0
223093,-100,4,2,1,75,0,0
223252,-100,4,2,4,75,0,0
223412,-100,4,2,1,75,0,0
223571,-100,4,2,4,75,0,0
223731,-100,4,2,1,75,0,0
223891,-100,4,2,10,75,0,0
224210,-100,4,2,10,75,0,0
224369,-100,4,2,12,75,0,0
224529,-100,4,2,12,75,0,0
224848,-100,4,2,23,75,0,0
225008,-100,4,2,1,75,0,0
225167,-100,4,2,13,75,0,0
225327,-100,4,2,24,75,0,0
225486,-100,4,2,4,75,0,0
225646,-100,4,2,1,75,0,0
225805,-100,4,2,4,75,0,0
225965,-100,4,2,24,75,0,0
226125,-100,4,2,4,75,0,0
226284,-100,4,2,1,75,0,0
226444,-100,4,2,13,75,0,0
226524,-100,4,2,1,75,0,0
226603,-100,4,2,4,75,0,0
226763,-100,4,2,13,75,0,0
226922,-100,4,2,12,75,0,0
227242,-100,4,2,24,75,0,0
227401,-100,4,2,4,75,0,0
227561,-100,4,2,1,75,0,0
227720,-100,4,2,13,75,0,0
227880,-100,4,2,1,75,0,0
228040,-100,4,2,4,75,0,0
228199,-100,4,2,1,75,0,0
228359,-100,4,2,4,75,0,0
228518,-100,4,2,1,75,0,0
228678,-100,4,2,23,75,0,0
228837,-100,4,2,1,75,0,0
228997,-100,4,2,13,75,0,0
229077,-100,4,2,1,75,0,0
230114,-100,4,2,24,75,0,0
230194,-100,4,2,1,75,0,0
230433,-100,4,2,24,75,0,0
230513,-100,4,2,1,75,0,0
230832,-100,4,2,24,75,0,0
230912,-100,4,2,1,75,0,0
232827,-100,4,2,13,75,0,0
232986,-100,4,2,1,75,0,0
233146,-100,4,2,4,75,0,0
233252,-100,4,2,1,75,0,0
233465,-100,4,2,4,75,0,0
233625,-100,4,2,4,68,0,0
233704,-100,4,2,1,75,0,0
233784,-100,4,2,4,75,0,0
233864,-100,4,2,24,75,0,0
233944,-100,4,2,1,75,0,0
234024,-100,4,2,24,75,0,0
234103,-100,4,2,1,75,0,0
234422,-100,4,2,4,75,0,0
234502,-100,4,2,1,75,0,0
234582,-100,4,2,24,75,0,0
234742,-100,4,2,12,75,0,0
234821,-100,4,2,1,75,0,0
235220,-100,4,2,24,75,0,0
235380,-100,4,2,13,75,0,0
235460,-100,4,2,1,75,0,0
235699,-100,4,2,4,75,0,0
235779,-100,4,2,24,75,0,0
235938,-100,4,2,1,75,0,0
236018,-100,4,2,4,75,0,0
236178,-100,4,2,4,68,0,0
236337,-100,4,2,4,75,0,0
236497,-100,4,2,1,75,0,0
236657,-100,4,2,24,75,0,0
236976,-100,4,2,1,75,0,0
237295,-100,4,2,9,75,0,0
237614,-100,4,2,1,75,0,0
238252,-100,4,2,4,75,0,0
238412,-100,4,2,1,75,0,0
238678,-100,4,2,24,75,0,0
238891,-100,4,2,4,75,0,0
238970,-100,4,2,1,75,0,0
239529,-100,4,2,4,75,0,0
239635,-100,4,2,1,75,0,0
239848,-100,4,2,13,75,0,0
239954,-100,4,2,24,75,0,0
240167,-100,4,2,1,75,0,0
240274,-100,4,2,24,75,0,0
240486,-100,4,2,1,75,0,0
240593,-100,4,2,24,75,0,0
240805,-100,4,2,1,75,0,0
240912,-100,4,2,24,75,0,0
241125,-100,4,2,10,75,0,0
241284,-100,4,2,1,75,0,0
241444,-100,4,2,10,75,0,0
241603,-100,4,2,1,75,0,0
241922,-100,4,2,10,75,0,0
242407,317.460317460318,4,2,10,55,1,0
242407,-110.497237569061,4,2,10,55,0,0
242447,-110.497237569061,4,2,1,35,0,0
244946,319.148936170213,4,2,10,55,1,0
255557,-100,4,2,8,45,0,0
255637,-100,4,2,1,45,0,0
256116,-125,4,2,10,45,0,0
256594,-125,4,2,1,45,0,0
256754,-125,4,2,6,45,0,0
256914,-125,4,2,8,45,0,0
257073,-125,4,2,10,45,0,0
257392,-125,4,2,30,45,0,0
257711,-125,4,2,24,45,0,0
258031,-125,4,2,10,45,0,0
258350,-125,4,2,8,45,0,0
258509,-125,4,2,10,45,0,0
259148,-125,4,2,32,45,0,0
259626,-125,4,2,30,45,0,0
259946,-125,4,2,8,45,0,0
260105,-125,4,2,10,45,0,0
260265,-125,4,2,33,45,0,0
260584,-125,4,2,8,45,0,0
260743,-125,4,2,10,45,0,0
260903,-125,4,2,8,45,0,0
261063,-125,4,2,30,45,0,0
261222,-125,4,2,25,45,0,0
261701,-125,4,2,32,45,0,0
261860,-125,4,2,24,45,0,0
262180,-125,4,2,34,45,0,0
262499,-125,4,2,11,45,0,0
262658,-125,4,2,1,45,0,0
263297,-125,4,2,10,45,0,0
263456,-125,4,2,32,45,0,0
263616,-125,4,2,11,45,0,0
263775,-125,4,2,10,45,0,0
264414,-125,4,2,8,45,0,0
264733,-125,4,2,10,45,0,0
264892,-125,4,2,11,45,0,0
265211,-125,4,2,1,45,0,0
265371,-125,4,2,25,45,0,0
265690,-125,4,2,8,45,0,0
265850,-125,4,2,10,45,0,0
266169,-125,4,2,1,45,0,0
266328,-125,4,2,11,45,0,0
266488,-125,4,2,6,45,0,0
266807,-125,4,2,11,45,0,0
267126,-125,4,2,1,45,0,0
267286,-125,4,2,7,45,0,0
267446,-125,4,2,35,45,0,0
267685,-125,4,2,6,45,0,0
267765,-125,4,2,8,45,0,0
267844,-125,4,2,6,45,0,0
267924,-125,4,2,1,45,0,0
268243,-125,4,2,8,45,0,0
268403,-125,4,2,10,45,0,0
268563,-125,4,2,8,45,0,0
268722,-125,4,2,1,45,0,0
269041,-125,4,2,10,45,0,0
269520,-125,4,2,11,45,0,0
269839,326.08695652174,4,2,7,45,1,0
269839,-125,4,2,7,45,0,0
269999,-125,4,2,1,45,0,0
270158,-125,4,2,6,45,0,0
270318,-125,4,2,35,45,0,0
270491,306.122448979593,4,2,35,45,1,0
270797,319.148936170213,4,2,35,45,1,0
270956,-125,4,2,6,45,0,0
271435,-125,4,2,19,45,0,0
271754,319.148936170213,4,2,19,55,1,0
271754,-125,4,2,19,55,0,0
272073,-125,4,2,36,55,0,0
272233,-125,4,2,19,55,0,0
272392,-125,4,2,36,55,0,0
272552,-125,4,2,19,55,0,0
272871,-125,4,2,1,55,0,0
273031,-125,4,2,1,75,0,0
273190,-125,4,2,3,75,0,0
273669,-125,4,2,14,75,0,0
273828,-125,4,2,3,75,0,0
273988,-125,4,2,19,65,0,0
274148,-125,4,2,6,65,0,0
274307,-125,4,2,37,65,0,0
274626,-125,4,2,14,65,0,0
274786,-125,4,2,3,65,0,0
275105,-125,4,2,14,65,0,0
275265,-125,4,2,16,65,0,0
275584,-66.6666666666667,4,2,16,75,0,0
276222,-66.6666666666667,4,2,4,68,0,0
276541,-66.6666666666667,4,2,3,75,0,0
276701,-66.6666666666667,4,2,35,75,0,0
276860,-66.6666666666667,4,2,17,75,0,0
277499,-55.5555555555556,4,2,16,75,0,0
278456,-66.6666666666667,4,2,16,75,0,0
278775,-66.6666666666667,4,2,4,68,0,0
279094,-66.6666666666667,4,2,17,75,0,0
280052,-66.6666666666667,4,2,16,75,0,0
280531,-66.6666666666667,4,2,15,75,0,0
280690,-66.6666666666667,4,2,16,75,0,0
281169,-66.6666666666667,4,2,1,75,0,0
281328,-66.6666666666667,4,2,4,68,0,0
281648,-66.6666666666667,4,2,3,75,0,0
281807,-66.6666666666667,4,2,1,75,0,0
282286,-66.6666666666667,4,2,3,75,0,0
282605,-66.6666666666667,4,2,10,75,0,0
282924,-66.6666666666667,4,2,3,75,0,0
283243,-66.6666666666667,4,2,12,75,0,0
283563,-66.6666666666667,4,2,2,75,0,0
283882,-66.6666666666667,4,2,17,75,0,0
284201,-66.6666666666667,4,2,2,75,0,0
284520,-66.6666666666667,4,2,1,75,0,0
284839,-66.6666666666667,4,2,3,75,0,0
285477,-83.3333333333333,4,2,3,75,0,0
285797,-55.5555555555556,4,2,12,75,0,0
286435,-55.5555555555556,4,2,4,68,0,0
286754,-55.5555555555556,4,2,1,75,0,0
287392,-133.333333333333,4,2,1,75,0,0
287711,-62.5,4,2,8,75,0,0
288031,-55.5555555555556,4,2,1,75,0,0
288350,-55.5555555555556,4,2,12,75,0,0
288988,-55.5555555555556,4,2,4,68,0,0
289307,-55.5555555555556,4,2,1,75,0,0
289946,-90.9090909090909,4,2,3,75,0,0
290265,-55.5555555555556,4,2,10,75,0,0
290584,-66.6666666666667,4,2,3,75,0,0
290903,-100,4,2,12,75,0,0
291541,-100,4,2,4,68,0,0
291860,-62.5,4,2,5,75,0,0
292499,-133.333333333333,4,2,5,75,0,0
292818,-55.5555555555556,4,2,10,75,0,0
293137,-55.5555555555556,4,2,3,75,0,0
293456,-55.5555555555556,4,2,1,75,0,0
294094,-55.5555555555556,4,2,4,68,0,0
294414,-55.5555555555556,4,2,7,75,0,0
294733,329.67032967033,4,2,7,75,1,0
294952,-100,4,2,3,75,0,0
295392,-100,4,2,10,75,0,0
295612,-100,4,2,12,75,0,0
296051,319.148936170213,4,2,12,75,1,0
296051,-55.5555555555556,4,2,12,75,0,0
296689,-55.5555555555556,4,2,4,68,0,0
297008,-55.5555555555556,4,2,1,75,0,0
297646,-133.333333333333,4,2,1,75,0,0
297965,-50,4,2,8,75,0,0
298444,-50,4,2,12,75,0,0
298604,-55.5555555555556,4,2,12,75,0,0
299242,-55.5555555555556,4,2,4,68,0,0
299561,-55.5555555555556,4,2,1,75,0,0
300199,-52.6315789473684,4,2,3,75,0,0
300519,-52.6315789473684,4,2,10,75,0,0
300838,-52.6315789473684,4,2,3,75,0,0
301157,-52.6315789473684,4,2,10,75,0,0
301316,-52.6315789473684,4,2,1,75,0,0
301636,-100,4,2,1,75,0,0
302114,-100,4,2,5,75,0,0
302434,-100,4,2,12,75,0,0
302593,-100,4,2,17,75,0,0
303072,-100,4,2,5,75,0,0
303232,-100,4,2,3,75,0,0
303471,-100,4,2,2,68,0,0
303551,-100,4,2,3,75,0,0
304668,-100,4,2,19,65,0,0
305146,-100,4,2,38,65,0,0
305465,-100,4,2,1,65,0,0
305625,-100,4,2,1,55,0,0
306263,-76.9230769230769,4,2,2,65,0,0
306741,-76.9230769230769,4,2,3,65,0,0
306901,-76.9230769230769,4,2,3,39,0,0
307221,-133.333333333333,4,2,2,65,0,0
307540,-100,4,2,4,68,0,0
307859,-100,4,2,3,45,0,0
308497,-76.9230769230769,4,2,1,75,0,0
308816,-76.9230769230769,4,2,2,75,0,0
309455,-76.9230769230769,4,2,3,45,0,0
309774,-76.9230769230769,4,2,2,75,0,0
310093,-76.9230769230769,4,2,4,68,0,0
310731,-76.9230769230769,4,2,17,75,0,0
311051,-100,4,2,8,75,0,0
311369,-100,4,2,12,75,0,0
311848,-100,4,2,15,75,0,0
312007,-100,4,2,17,75,0,0
312326,-100,4,2,15,75,0,0
312406,-100,4,2,14,75,0,0
313285,-100,4,2,3,45,0,0
313443,-100,4,2,3,75,0,0
313923,-100,4,2,5,85,0,0
315040,-100,4,2,1,85,0,0
315359,-100,4,2,5,85,0,0
315519,-100,4,2,2,85,0,0
315837,-100,4,2,1,85,0,0
316475,-100,4,2,2,85,0,0
317113,-100,4,2,3,51,0,0
317433,-100,4,2,2,85,0,0
317752,-100,4,2,17,85,0,0
317992,-100,4,2,6,85,0,0
318231,-100,4,2,8,85,0,0
318391,-100,4,2,6,85,0,0
318497,-100,4,2,13,85,0,0
318709,-100,4,2,6,85,0,0
319029,-100,4,2,2,85,0,0
319666,-100,4,2,3,51,0,0
319987,-100,4,2,2,85,0,0
320305,-100,4,2,16,85,0,0
320465,-100,4,2,2,76,0,0
320625,-100,4,2,3,51,0,0
320783,-100,4,2,3,85,0,0
320944,-100,4,2,10,85,0,0
321263,-100,4,2,1,85,0,0
321582,-100,4,2,2,85,0,0
322219,-100,4,2,3,51,0,0
322380,-100,4,2,14,85,0,0
322540,-100,4,2,5,85,0,0
322699,-100,4,2,15,85,0,0
322779,-100,4,2,14,85,0,0
323177,-100,4,2,3,51,0,0
324135,-100,4,2,8,85,0,0
324294,-100,4,2,1,85,0,0
324614,-100,4,2,5,85,0,0
325252,-100,4,2,1,85,0,0
325571,-100,4,2,5,85,0,0
326050,-100,4,2,10,85,0,0
326209,-100,4,2,1,85,0,0
326369,-100,4,2,10,85,0,0
326529,-100,4,2,1,85,0,0
326688,-100,4,2,8,85,0,0
326848,-100,4,2,5,85,0,0
327805,-100,4,2,1,85,0,0
328124,-100,4,2,5,85,0,0
328603,-100,4,2,12,85,0,0
329242,-100,4,2,12,75,0,0
329401,-100,4,2,1,75,0,0
329561,-100,4,2,2,75,0,0
330039,-100,4,2,1,75,0,0
330199,-100,4,2,29,75,0,0
330359,-100,4,2,2,75,0,0
330997,-100,4,2,1,75,0,0
331156,-100,4,2,2,75,0,0
331316,-100,4,2,29,75,0,0
331476,-100,4,2,2,75,0,0
331715,-100,4,2,2,5,0,0
331795,-100,4,2,1,75,0,0
332114,-100,4,2,2,75,0,0
332592,-100,4,2,1,75,0,0
332752,-100,4,2,29,75,0,0
332912,-100,4,2,2,75,0,0
333231,-100,4,2,1,75,0,0
333709,-100,4,2,16,75,0,0
333869,-100,4,2,1,75,0,0
334188,-100,4,2,3,75,0,0
334348,-100,4,2,12,75,0,0
334508,-100,4,2,1,75,0,0
334668,-100,4,2,2,75,0,0
334988,-100,4,2,8,75,0,0
335146,-100,4,2,1,75,0,0
335466,-100,4,2,2,75,0,0
335625,-100,4,2,3,45,0,0
335785,-100,4,2,1,75,0,0
336264,-100,4,2,5,75,0,0
336423,-100,4,2,1,75,0,0
336582,-100,4,2,3,75,0,0
336743,-100,4,2,2,75,0,0
336902,-100,4,2,1,75,0,0
337222,-100,4,2,5,75,0,0
337699,-100,4,2,1,75,0,0
338020,-100,4,2,2,75,0,0
338178,-100,4,2,3,45,0,0
338339,-100,4,2,5,75,0,0
338658,-100,4,2,1,75,0,0
338816,319.148936170213,4,2,5,75,1,0
338975,-100,4,2,29,75,0,0
339135,-100,4,2,15,75,0,0
339294,-100,4,2,5,75,0,0
339455,-100,4,2,15,75,0,0
339773,-100,4,2,5,75,0,0
340092,-100,4,2,2,75,0,0
340731,-100,4,2,6,68,0,0
341210,-100,4,2,2,75,0,0
341529,-100,4,2,6,75,0,0
341688,-100,4,2,3,75,0,0
342008,-100,4,2,2,68,0,0
342168,-100,4,2,2,75,0,0
342566,-100,4,2,3,75,0,0
342645,-100,4,2,1,75,0,0
344241,-100,4,2,5,75,0,0
344321,-100,4,2,3,75,0,0
344560,-100,4,2,5,75,0,0
344720,-100,4,2,1,75,0,0
344879,-100,4,2,5,75,0,0
345198,-100,4,2,12,80,0,0
345277,-100,4,2,1,80,0,0
345518,-100,4,2,13,80,0,0
345597,-100,4,2,1,80,0,0
345837,-100,4,2,4,80,0,0
345917,-100,4,2,1,80,0,0
346076,-100,4,2,14,80,0,0
346156,-100,4,2,21,80,0,0
346236,-100,4,2,3,80,0,0
346475,-100,4,2,20,80,0,0
346635,-100,4,2,1,80,0,0
346794,-100,4,2,13,80,0,0
346874,-100,4,2,1,80,0,0
347113,-100,4,2,4,80,0,0
347193,-100,4,2,1,80,0,0
347273,-100,4,2,5,80,0,0
347353,-100,4,2,1,80,0,0
347433,-100,4,2,4,80,0,0
347512,-100,4,2,2,80,0,0
347592,-100,4,2,1,80,0,0
347752,-100,4,2,4,80,0,0
347831,-100,4,2,24,80,0,0
347991,-100,4,2,1,80,0,0
348072,-100,4,2,9,80,0,0
348151,-100,4,2,1,80,0,0
348390,-100,4,2,4,80,0,0
348470,-100,4,2,1,80,0,0
348629,-100,4,2,14,80,0,0
348709,-100,4,2,3,80,0,0
349028,-100,4,2,5,80,0,0
349108,-100,4,2,1,80,0,0
349427,-100,4,2,13,80,0,0
349507,-100,4,2,1,80,0,0
349826,-100,4,2,39,80,0,0
349906,-100,4,2,1,80,0,0
350305,-100,4,2,12,80,0,0
350384,-100,4,2,1,80,0,0
350625,-100,4,2,13,80,0,0
350704,-100,4,2,1,80,0,0
350944,-100,4,2,4,80,0,0
351024,-100,4,2,1,80,0,0
351183,-100,4,2,14,80,0,0
351263,-100,4,2,21,80,0,0
351343,-100,4,2,3,80,0,0
351582,-100,4,2,20,80,0,0
351742,-100,4,2,1,80,0,0
351901,-100,4,2,13,80,0,0
351981,-100,4,2,1,80,0,0
352220,-100,4,2,4,80,0,0
352300,-100,4,2,1,80,0,0
352380,-100,4,2,5,80,0,0
352460,-100,4,2,1,80,0,0
352540,-100,4,2,4,80,0,0
352619,-100,4,2,2,80,0,0
352699,-100,4,2,1,80,0,0
352859,-100,4,2,4,80,0,0
352938,-100,4,2,24,80,0,0
353098,-100,4,2,1,80,0,0
353180,-100,4,2,9,80,0,0
353258,-100,4,2,1,80,0,0
353497,-100,4,2,4,80,0,0
353577,-100,4,2,1,80,0,0
353736,-100,4,2,14,80,0,0
353816,-100,4,2,3,80,0,0
354135,-100,4,2,27,80,0,0
354215,-100,4,2,1,80,0,0
354534,-100,4,2,39,80,0,0
354614,-100,4,2,5,80,0,0
354694,-100,4,2,1,80,0,0
354933,-100,4,2,5,80,0,0
355013,-100,4,2,1,80,0,0
355412,-100,4,2,20,80,0,0
355492,-100,4,2,1,80,0,0
355730,-100,4,2,5,80,0,0
355810,-100,4,2,39,80,0,0
355890,-100,4,2,1,80,0,0
356209,-100,4,2,20,80,0,0
356289,-100,4,2,1,80,0,0
356688,-100,4,2,5,80,0,0
356768,-100,4,2,1,80,0,0
357087,-100,4,2,39,80,0,0
357167,-100,4,2,2,80,0,0
357247,-100,4,2,1,80,0,0
357486,-100,4,2,27,80,0,0
357566,-100,4,2,1,80,0,0
357965,-100,4,2,5,80,0,0
358045,-100,4,2,1,80,0,0
359241,-100,4,2,38,80,0,0

[Colours]
Combo1 : 221,189,211
Combo2 : 188,201,160
Combo3 : 215,159,159
Combo4 : 167,207,160

[HitObjects]
88,289,15,5,10,0:2:0:0:
57,57,174,1,10,0:2:0:0:
144,98,334,6,0,B|50:98|100:157|-5:166,1,140,2|2,0:2|0:2,0:0:0:0:
25,161,812,1,2,0:2:0:0:
95,216,972,1,2,0:2:0:0:
201,158,1132,1,2,0:2:0:0:
201,158,1451,5,2,0:2:0:0:
270,103,1611,1,2,0:2:0:0:
376,161,1771,1,2,0:2:0:0:
311,232,1929,2,0,B|323:168|323:168|315:144|315:144|335:26,1,210,2|2,0:2|0:2,0:0:0:0:
503,223,2568,5,10,0:2:0:0:
246,186,2727,1,10,0:2:0:0:
311,232,2887,6,0,B|217:232|267:291|162:300,1,140,2|2,0:2|0:2,0:0:0:0:
192,295,3365,1,2,0:2:0:0:
121,241,3525,1,2,0:2:0:0:
16,299,3685,1,2,0:2:0:0:
16,299,4004,5,2,0:2:0:0:
70,228,4164,1,2,0:2:0:0:
19,129,4324,1,2,3:2:0:0:
19,117,4376,1,0,3:0:0:0:
17,105,4429,1,0,3:0:0:0:
8,96,4483,6,0,B|77:79|70:154|167:129,1,140,10|2,0:2|3:2,0:0:0:0:
276,13,4961,1,10,0:2:0:0:
137,60,5121,1,0,3:0:0:0:
185,197,5280,1,0,3:0:0:0:
335,100,5440,2,0,B|289:89|289:89|219:149,1,122.5,10|0,0:2|0:0,0:0:0:0:
251,158,5759,6,0,B|361:115|345:232|457:194,1,210,6|0,3:2|3:0,0:0:0:0:
504,127,6397,2,0,P|483:238|477:291,1,140,12|0,0:2|0:0,0:0:0:0:
502,342,6876,1,0,3:0:0:0:
454,274,7036,1,4,3:2:0:0:
454,274,7195,1,0,0:0:0:0:
360,370,7355,5,2,3:2:0:0:
430,299,7514,2,0,B|341:282|369:343|280:330,1,140,2|0,3:2|3:0,0:0:0:0:
160,302,7993,1,2,3:2:0:0:
243,261,8153,1,0,3:0:0:0:
91,368,8312,6,0,B|79:275|169:251|128:166,1,210,6|0,3:2|3:0,0:0:0:0:
17,129,8951,2,0,P|28:82|107:42,1,140,12|0,0:2|0:0,0:0:0:0:
172,89,9429,1,0,0:0:0:0:
266,47,9589,5,2,3:2:0:0:
291,39,9668,1,0,3:0:0:0:
316,32,9748,1,0,3:0:0:0:
342,26,9828,1,0,3:0:0:0:
367,22,9908,1,2,3:2:0:0:
260,134,10227,5,14,0:2:0:0:
234,126,10306,1,0,3:0:0:0:
209,119,10386,1,0,3:0:0:0:
183,113,10466,1,0,3:0:0:0:
158,109,10546,1,6,3:2:0:0:
361,201,10865,5,6,3:2:0:0:
413,143,11025,1,2,0:2:0:0:
337,268,11185,2,0,L|330:199,1,70,10|0,0:2|0:0,0:0:0:0:
409,108,11504,1,10,0:2:0:0:
409,108,11663,1,2,0:2:0:0:
454,210,11823,1,2,3:2:0:0:
390,28,11983,2,0,L|382:97,1,70,10|2,0:2|0:3,0:0:0:0:
482,205,12302,5,2,3:2:0:0:
363,271,12461,1,2,0:2:0:0:
420,377,12621,1,10,0:2:0:0:
476,294,12780,2,0,B|427:310|427:310|405:338|405:338|348:358,1,140,2|10,3:2|0:2,0:0:0:0:
209,291,13259,1,2,3:2:0:0:
209,291,13339,1,0,0:0:0:0:
209,291,13419,5,2,3:2:0:0:
151,343,13581,1,2,3:2:0:0:
277,268,13743,2,0,L|207:260,1,70,10|0,0:2|0:0,0:0:0:0:
116,339,14067,1,10,0:2:0:0:
116,339,14223,1,0,3:0:0:0:
218,384,14379,1,2,0:2:0:0:
36,320,14536,2,0,L|105:312,1,70,10|2,0:2|0:3,0:0:0:0:
243,188,14855,5,10,0:2:0:0:
177,69,15014,1,2,0:2:0:0:
81,123,15121,1,0,3:0:0:0:
71,129,15174,1,2,3:2:0:0:
62,136,15227,1,0,0:0:0:0:
179,172,15334,5,10,3:2:0:0:
185,81,15493,1,2,3:2:0:0:
115,25,15653,1,2,3:2:0:0:
282,52,15812,1,10,3:2:0:0:
376,82,15972,2,0,B|341:92|341:92|329:111|329:111|286:127,1,105,2|0,3:2|0:0,0:0:0:0:
238,201,16291,2,0,P|222:183|287:149,1,122.5,8|0,0:2|0:0,0:0:0:0:
268,177,16610,6,0,B|158:134|174:251|62:213,1,210,6|0,3:2|3:0,0:0:0:0:
12,141,17248,2,0,P|33:252|39:305,1,140,12|0,0:2|0:0,0:0:0:0:
21,356,17727,1,0,3:0:0:0:
69,288,17887,1,4,3:2:0:0:
69,288,18046,1,0,0:0:0:0:
163,384,18206,5,2,3:2:0:0:
93,313,18365,2,0,B|182:296|154:357|243:344,1,140,2|0,3:2|0:0,0:0:0:0:
355,305,18844,1,2,3:2:0:0:
243,263,19004,1,2,3:2:0:0:
421,368,19163,6,0,B|438:328|438:328|367:228|367:228|384:166,1,210,6|0,3:2|3:0,0:0:0:0:
495,129,19802,2,0,P|484:82|333:55,1,210,12|0,0:2|0:0,0:0:0:0:
381,171,20440,1,0,3:0:0:0:
275,77,20599,5,8,0:2:0:0:
300,70,20678,1,8,0:2:0:0:
325,65,20758,1,10,0:2:0:0:
235,193,20919,1,8,0:2:0:0:
235,193,21238,1,8,0:2:0:0:
159,164,21397,1,2,3:2:0:0:
91,135,21557,1,8,0:2:0:0:
8,285,21716,5,6,3:2:0:0:
98,229,21876,1,2,3:2:0:0:
4,110,22036,2,0,P|11:144|18:179,1,70,10|2,0:2|0:2,0:0:0:0:
116,53,22355,2,0,P|108:87|102:121,1,70,2|2,0:3|3:2,0:0:0:0:
17,13,22674,1,10,0:2:0:0:
116,53,22834,2,0,B|168:41|148:14|218:10,1,105,2|0,3:2|0:0,0:0:0:0:
232,20,23153,1,2,3:2:0:0:
207,98,23312,1,8,0:2:0:0:
289,208,23472,2,0,P|285:173|282:138,1,70,2|2,0:2|3:3,0:0:0:0:
386,56,23791,2,0,P|383:91|380:126,1,70,2|10,3:2|0:2,0:0:0:0:
469,9,24110,1,2,3:2:0:0:
475,101,24270,6,0,P|478:66|482:32,1,70,2|2,3:2|3:2,0:0:0:0:
389,181,24589,1,8,0:2:0:0:
479,249,24748,2,0,B|427:261|447:288|377:292,1,105,2|0,0:2|0:0,0:0:0:0:
364,282,25067,2,0,P|346:261|360:209,1,70,2|8,3:2|0:2,0:0:0:0:
495,325,25387,2,0,P|440:369|360:362,1,140,2|2,3:2|3:2,0:0:0:0:
293,322,25865,1,8,0:2:0:0:
366,206,26025,5,2,3:2:0:0:
366,206,26105,1,0,0:0:0:0:
366,206,26185,1,6,3:2:0:0:
296,158,26344,1,2,3:2:0:0:
385,2,26504,2,0,P|373:53|363:104,1,105,14|0,0:2|0:0,0:0:0:0:
298,146,26823,6,0,P|249:117|149:152,1,140,0|0,3:0|0:0,0:0:0:0:
100,44,27302,2,0,B|73:168|184:136|157:258,1,210,2|4,3:2|3:2,0:0:0:0:
45,306,27940,2,0,P|51:272|65:219,1,70,10|4,0:2|0:2,0:0:0:0:
139,347,28259,1,10,0:2:0:0:
139,347,28419,1,4,3:2:0:0:
208,310,28578,2,0,P|201:275|193:241,1,70,2|12,3:2|0:2,0:0:0:0:
156,370,28897,1,2,0:2:0:0:
261,379,29057,2,0,P|286:356|342:360,1,70,4|2,3:2|0:2,0:0:0:0:
467,287,29376,6,0,P|410:292|334:218,1,140,6|4,3:2|3:2,0:0:0:0:
229,296,29855,2,0,B|256:172|344:248|371:126,1,210,2|4,3:2|3:2,0:0:0:0:
261,63,30493,2,0,P|269:96|279:150,1,70,2|4,3:2|0:2,0:0:0:0:
438,86,30812,1,10,0:2:0:0:
419,57,30891,1,8,0:2:0:0:
385,51,30971,1,12,3:2:0:0:
314,197,31131,5,10,0:2:0:0:
244,56,31291,1,2,3:2:0:0:
147,92,31450,1,8,0:2:0:0:
78,73,31610,2,0,L|58:6,1,70,2|2,3:2|3:2,0:0:0:0:
160,120,31929,5,6,3:2:0:0:
11,163,32089,1,2,3:2:0:0:
76,234,32249,2,0,P|83:200|90:165,1,70,10|2,0:2|0:2,0:0:0:0:
182,277,32568,2,0,P|174:243|168:209,1,70,2|2,0:3|3:2,0:0:0:0:
104,322,32887,1,10,0:2:0:0:
222,372,33047,2,0,B|271:359|271:359|281:341|281:341|324:329,1,105,2|0,3:2|0:0,0:0:0:0:
331,345,33365,2,0,P|363:316|360:280,1,70,2|10,3:2|0:2,0:0:0:0:
304,178,33685,2,0,P|300:212|297:247,1,70,2|2,3:2|3:3,0:0:0:0:
374,69,34004,2,0,P|377:103|380:138,1,70,2|10,3:2|0:2,0:0:0:0:
443,3,34323,1,2,3:2:0:0:
340,63,34482,6,0,P|345:112|348:154,1,70,2|2,3:2|3:2,0:0:0:0:
433,212,34801,1,10,0:2:0:0:
343,280,34961,2,0,B|395:292|375:319|445:323,1,105,2|0,0:2|0:0,0:0:0:0:
458,313,35280,2,0,P|476:292|462:240,1,70,2|10,3:2|0:2,0:0:0:0:
333,361,35599,6,0,B|274:330|260:405|185:379,1,140,2|2,3:2|3:2,0:0:0:0:
67,328,36077,1,10,0:2:0:0:
115,261,36238,1,2,3:2:0:0:
37,172,36397,1,2,0:2:0:0:
82,109,36557,1,2,3:2:0:0:
0,41,36716,2,0,L|14:165,1,105,10|0,0:2|0:0,0:0:0:0:
72,198,37036,6,0,B|137:161|132:234|221:204,1,140,6|6,3:2|0:2,0:0:0:0:
390,238,37515,2,0,B|280:214|309:311|201:288,1,175,2|0,3:2|0:0,0:0:0:0:
195,326,37993,2,0,B|260:289|255:362|344:332,1,140,6|4,3:2|0:2,0:0:0:0:
460,299,38472,1,2,3:2:0:0:
460,299,38632,1,4,3:2:0:0:
408,222,38791,2,0,P|415:187|423:153,1,70,2|12,3:2|0:2,0:0:0:0:
351,309,39110,2,0,P|358:343|365:377,1,70,2|4,0:2|3:2,0:0:0:0:
429,226,39429,1,10,0:2:0:0:
316,57,39589,5,0,0:0:0:0:
394,114,39748,1,0,3:0:0:0:
394,126,39802,1,0,3:0:0:0:
392,138,39855,1,0,3:0:0:0:
383,147,39908,6,0,B|434:153|428:105|501:113,1,105,10|0,0:2|0:0,0:0:0:0:
504,124,40227,5,10,0:2:0:0:
383,63,40387,1,10,0:2:0:0:
80,187,40706,1,10,0:2:0:0:
308,377,41025,5,10,0:2:0:0:
283,300,41185,1,10,0:2:0:0:
475,199,41344,1,0,3:0:0:0:
471,218,41397,1,0,3:0:0:0:
468,236,41450,1,0,3:0:0:0:
464,254,41503,1,10,0:2:0:0:
304,257,41663,6,0,B|410:238|372:336|472:339,1,192.5,6|0,3:2|0:0,0:0:0:0:
475,351,42142,6,0,P|406:356|382:371,1,70,6|2,3:2|3:2,0:0:0:0:
294,281,42461,1,2,0:2:0:0:
351,183,42621,1,2,3:2:0:0:
263,137,42780,2,0,B|193:141|213:78|131:100,1,140,8|0,0:2|3:0,0:0:0:0:
37,209,43259,2,0,P|79:194|101:167,1,70,2|0,0:2|3:0,0:0:0:0:
118,78,43578,2,0,P|77:58|43:62,1,70,2|0,0:2|3:0,0:0:0:0:
172,194,43897,1,2,3:2:0:0:
116,260,44057,6,0,B|138:290|138:290|309:266|309:266|336:322,1,262.5,12|0,0:2|0:0,0:0:0:0:
329,349,44695,6,0,P|291:351|236:329,1,70,6|2,3:2|3:2,0:0:0:0:
218,255,45014,1,2,3:2:0:0:
275,157,45174,1,2,3:2:0:0:
225,99,45333,2,0,B|155:103|175:40|93:62,1,140,10|2,0:2|3:2,0:0:0:0:
346,4,45812,2,0,P|314:35|305:69,1,70,2|0,0:2|3:0,0:0:0:0:
421,168,46131,2,0,P|407:135|381:113,1,70,2|2,0:2|3:2,0:0:0:0:
300,168,46450,1,2,3:2:0:0:
353,220,46610,2,0,B|432:211|402:259|484:256,1,140,10|2,0:2|3:2,0:0:0:0:
506,167,47089,1,2,0:2:0:0:
368,304,47248,5,0,3:0:0:0:
368,304,47408,1,2,3:2:0:0:
281,247,47568,2,0,B|267:217|267:217|283:177,2,70,2|2|8,3:2|3:2|0:2,0:0:0:0:
354,300,48046,1,2,3:2:0:0:
242,366,48206,1,2,3:2:0:0:
188,308,48365,2,0,P|140:303|113:293,1,70,0|2,3:0|3:2,0:0:0:0:
264,177,48685,1,0,3:0:0:0:
184,126,48844,2,0,P|174:92|172:57,2,70,2|0|10,3:2|3:0|0:2,0:0:0:0:
279,184,49323,1,2,3:2:0:0:
371,125,49482,2,0,P|335:93|301:94,1,70,2|10,3:2|0:2,0:0:0:0:
338,295,49802,6,0,B|405:300|385:240|469:239,3,140,6|0|14|0,3:2|3:0|0:2|3:0,0:0:0:0:
174,295,51078,2,0,B|107:300|127:240|43:239,3,140,6|0|10|0,3:2|3:0|0:2|3:0,0:0:0:0:
35,93,52195,1,0,3:0:0:0:
35,93,52275,1,0,3:0:0:0:
35,93,52355,6,0,P|59:157|56:185,1,70,6|2,3:2|0:2,0:0:0:0:
234,115,52674,1,2,3:2:0:0:
177,213,52834,1,2,3:2:0:0:
242,262,52993,2,0,B|310:247|283:195|359:192,1,140,10|2,0:2|3:2,0:0:0:0:
470,113,53472,2,0,P|431:90|396:90,1,70,2|2,3:2|3:2,0:0:0:0:
420,263,53791,2,0,P|461:244|480:215,1,70,2|2,3:2|3:2,0:0:0:0:
309,114,54110,1,2,3:2:0:0:
239,173,54270,6,0,B|189:152|189:152|77:265|77:265|28:248,1,262.5,14|0,0:2|0:0,0:0:0:0:
15,263,54908,6,0,L|29:348,1,70,6|2,3:2|0:2,0:0:0:0:
195,270,55227,1,2,3:2:0:0:
132,327,55387,1,2,3:2:0:0:
196,367,55546,2,0,B|266:371|246:308|328:330,1,140,10|2,0:2|3:2,0:0:0:0:
445,377,56025,2,0,P|477:346|486:312,1,70,2|2,3:2|3:2,0:0:0:0:
376,209,56344,2,0,P|373:243|386:275,1,70,2|2,3:2|3:2,0:0:0:0:
491,159,56663,1,2,3:2:0:0:
438,107,56823,2,0,B|359:116|389:68|307:71,1,140,10|2,0:2|3:2,0:0:0:0:
240,128,57302,1,2,0:2:0:0:
424,30,57461,5,2,3:2:0:0:
424,30,57621,1,0,3:0:0:0:
321,148,57781,2,0,B|307:178|307:178|323:218,2,70,2|0|10,3:2|3:0|0:2,0:0:0:0:
420,56,58259,1,0,3:0:0:0:
266,0,58419,1,2,3:2:0:0:
212,58,58578,2,0,P|164:63|137:73,1,70,0|2,3:0|3:2,0:0:0:0:
332,189,58898,1,2,3:2:0:0:
237,247,59057,2,0,P|227:281|225:316,2,70,2|0|10,3:2|3:0|0:2,0:0:0:0:
332,189,59536,1,0,3:0:0:0:
430,261,59695,2,0,P|394:293|360:292,1,70,2|0,3:2|3:0,0:0:0:0:
332,189,60014,5,10,0:2:0:0:
380,133,60174,1,8,0:2:0:0:
250,155,60334,5,0,3:0:0:0:
220,71,60494,1,8,0:2:0:0:
192,218,60653,5,10,3:2:0:0:
69,195,60813,1,10,3:2:0:0:
320,218,60972,5,10,3:2:0:0:
504,183,61132,1,10,3:2:0:0:
250,155,61291,5,10,3:2:0:0:
421,353,61451,1,10,0:2:0:0:
316,68,61610,5,10,0:2:0:0:
207,381,61770,1,10,3:2:0:0:
307,49,61929,5,10,3:2:0:0:
512,311,62568,6,0,B|423:273|446:356|354:337,1,140,6|2,3:2|0:3,0:0:0:0:
184,258,63046,1,2,3:2:0:0:
105,354,63206,2,0,P|93:268|82:224,1,105,10|0,0:2|0:0,0:0:0:0:
60,238,63525,5,2,3:2:0:0:
118,157,63685,1,0,3:0:0:0:
19,57,63844,1,2,0:3:0:0:
39,128,64004,1,0,3:0:0:0:
207,32,64163,1,0,3:0:0:0:
136,12,64323,1,0,3:0:0:0:
256,192,64482,5,12,0:2:0:0:
424,93,64802,2,0,B|368:77|378:143|304:124,1,122.5,2|0,3:2|0:0,0:0:0:0:
229,169,65121,6,0,B|343:151|327:257|455:225,1,210,6|6,3:2|3:2,0:0:0:0:
459,339,65759,2,0,P|391:318|368:317,1,70,8|0,0:2|0:0,0:0:0:0:
181,303,66078,5,2,3:2:0:0:
262,245,66238,1,0,3:0:0:0:
335,373,66397,1,2,0:3:0:0:
263,347,66557,1,0,3:0:0:0:
377,238,66716,1,2,3:3:0:0:
401,315,66876,1,0,3:0:0:0:
256,192,67035,5,14,0:2:0:0:
465,202,67355,2,0,P|425:173|437:105,1,122.5
512,70,67674,6,0,B|426:95|462:20|354:44,1,140,6|2,3:2|0:3,0:0:0:0:
184,126,68152,1,2,3:2:0:0:
105,30,68312,2,0,P|93:116|82:160,1,105,10|0,0:2|0:0,0:0:0:0:
59,169,68631,5,2,3:2:0:0:
22,89,68791,1,2,3:2:0:0:
179,156,68951,1,2,0:2:0:0:
147,227,69111,1,8,0:2:0:0:
18,268,69270,1,2,3:3:0:0:
48,200,69429,1,0,3:0:0:0:
256,192,69589,5,10,0:2:0:0:
405,348,69908,1,2,0:3:0:0:
405,348,70068,1,2,3:2:0:0:
361,263,70227,6,0,P|326:283|308:323,2,70,14|0|0,0:2|3:0|3:0,0:0:0:0:
320,159,70706,2,0,P|300:124|260:106,2,70,14|0|0,0:2|3:0|3:0,0:0:0:0:
395,63,71185,2,0,P|430:43|448:3,2,70,14|2|0,0:2|3:2|3:0,0:0:0:0:
456,152,71663,2,0,P|476:187|516:205,2,70,14|0|0,0:2|3:0|3:0,0:0:0:0:
317,37,72142,5,10,0:2:0:0:
260,135,72302,1,0,3:0:0:0:
107,47,72461,2,0,B|80:33|80:33|91:140,1,122.5,10|0,0:2|0:0,0:0:0:0:
31,179,72780,6,0,B|117:141|107:227|189:205,1,140,6|2,3:2|0:3,0:0:0:0:
135,384,73258,1,2,3:2:0:0:
188,313,73418,2,0,P|268:280|287:277,1,105,8|0,0:2|0:0,0:0:0:0:
318,284,73737,5,2,3:2:0:0:
254,363,73897,1,0,3:0:0:0:
418,383,74056,1,2,0:2:0:0:
337,359,74216,1,0,3:0:0:0:
497,263,74375,1,0,3:0:0:0:
417,297,74535,1,0,3:0:0:0:
256,192,74694,5,8,0:2:0:0:
256,192,75014,6,0,B|198:207|222:248|165:269,1,122.5,2|0,3:2|0:0,0:0:0:0:
407,167,75334,6,0,B|333:163|333:163|306:118|306:118|203:105,1,210,6|2,3:2|3:2,0:0:0:0:
19,29,75972,2,0,L|108:11,1,70,8|0,0:2|0:0,0:0:0:0:
223,107,76291,5,2,3:2:0:0:
135,77,76451,1,0,3:0:0:0:
46,261,76610,1,2,0:2:0:0:
11,199,76770,1,0,3:0:0:0:
206,285,76929,1,0,3:0:0:0:
168,353,77089,1,0,3:0:0:0:
256,192,77248,5,12,0:2:0:0:
256,192,77568,6,0,B|323:185|307:250|365:258,1,122.5,2|0,0:2|0:0,0:0:0:0:
458,295,77887,6,0,B|372:257|382:343|300:321,1,140,6|2,3:2|0:3,0:0:0:0:
194,374,78365,1,2,3:2:0:0:
140,302,78525,2,0,P|94:279|43:267,1,105,10|0,0:2|0:0,0:0:0:0:
41,234,78844,5,2,3:2:0:0:
6,172,79004,1,2,3:2:0:0:
139,108,79163,1,2,0:2:0:0:
160,32,79323,1,0,3:0:0:0:
51,115,79482,1,2,3:3:0:0:
15,55,79642,1,0,3:0:0:0:
256,192,79801,5,10,0:2:0:0:
256,192,80121,1,2,0:3:0:0:
64,368,80440,5,14,0:2:0:0:
22,297,80599,1,0,3:0:0:0:
87,216,80759,1,2,3:2:0:0:
259,316,80919,5,14,0:2:0:0:
188,358,81078,1,0,3:0:0:0:
107,293,81238,1,0,3:0:0:0:
259,136,81397,5,14,0:2:0:0:
183,346,81557,1,2,3:2:0:0:
262,155,81716,1,0,3:0:0:0:
169,225,81876,5,14,0:2:0:0:
105,83,82036,1,0,3:0:0:0:
171,212,82195,1,0,3:0:0:0:
318,71,82355,5,2,3:2:0:0:
330,69,82434,1,0,3:0:0:0:
342,67,82514,1,0,3:0:0:0:
354,65,82594,1,0,3:0:0:0:
364,64,82674,2,0,L|376:100,1,35,2|0,3:2|3:0,0:0:0:0:
449,116,82834,2,0,L|432:149,1,35,0|0,3:0|3:0,0:0:0:0:
330,178,82993,5,14,0:2:0:0:
259,136,83152,1,0,3:0:0:0:
178,201,83312,1,0,3:0:0:0:
278,373,83472,5,14,0:2:0:0:
320,302,83631,1,0,3:0:0:0:
255,221,83791,1,0,3:0:0:0:
132,361,83950,5,14,0:2:0:0:
342,285,84110,1,2,3:2:0:0:
151,364,84269,1,0,3:0:0:0:
250,209,84429,5,14,0:2:0:0:
79,207,84589,1,0,3:0:0:0:
259,236,84748,1,0,3:0:0:0:
399,157,84908,5,2,3:2:0:0:
411,155,84987,1,0,3:0:0:0:
423,153,85067,1,0,3:0:0:0:
435,151,85147,1,0,3:0:0:0:
445,161,85227,5,2,3:2:0:0:
454,162,85306,1,0,3:0:0:0:
464,164,85386,1,0,3:0:0:0:
473,165,85466,1,0,3:0:0:0:
491,163,85546,6,0,B|475:199|475:199|488:230,2,70,6|2|2,3:2|0:2|0:2,0:0:0:0:
365,36,86025,1,2,3:2:0:0:
416,96,86185,1,10,0:2:0:0:
512,45,86344,2,0,B|487:22|487:22|443:24,1,70,2|2,0:2|3:2,0:0:0:0:
313,114,86663,2,0,B|260:108|260:108|243:88|243:88|161:79,1,140,2|10,3:2|0:2,0:0:0:0:
207,168,87142,1,2,3:2:0:0:
318,203,87302,2,0,B|332:169|332:169|322:137,2,70,2|10|2,3:2|0:2|3:2,0:0:0:0:
386,289,87780,1,2,0:2:0:0:
386,289,87940,1,2,3:2:0:0:
491,163,88099,6,0,B|475:199|475:199|488:230,2,70,6|2|2,3:2|0:2|0:2,0:0:0:0:
365,36,88578,1,2,3:2:0:0:
416,96,88738,1,10,0:2:0:0:
512,45,88897,2,0,B|487:22|487:22|443:24,1,70,2|2,0:2|3:2,0:0:0:0:
313,114,89216,2,0,B|260:108|260:108|243:88|243:88|161:79,1,140,2|10,3:2|0:2,0:0:0:0:
62,218,89695,1,2,0:2:0:0:
118,274,89855,6,0,B|189:265|189:265|212:238|212:238|294:229,1,188.999994232178,10|0,3:2|0:0,0:0:0:0:
311,243,90653,6,0,B|395:272|395:59|527:112,1,280,2|2,3:2|0:3,0:0:0:0:
201,243,91451,2,0,B|117:272|117:59|-15:112,1,280,14|2,3:2|0:3,0:0:0:0:
259,295,92248,2,0,B|230:211|443:211|390:79,1,280,6|2,3:2|0:3,0:0:0:0:
254,32,93046,5,14,0:2:0:0:
317,111,93205,1,2,3:3:0:0:
439,16,93365,2,0,B|404:-5|404:-5|377:4,1,70,2|10,3:2|0:2,0:0:0:0:
239,114,93684,1,14,0:2:0:0:
391,81,93843,1,0,3:0:0:0:
240,193,94003,6,0,B|178:184|197:138|124:141,1,122.5,14|0,3:2|0:0,0:0:0:0:
102,128,94322,6,0,P|73:177|108:277,1,140,6|8,3:2|0:2,0:0:0:0:
0,326,94801,2,0,B|124:353|92:242|214:269,1,210,2|8,3:2|0:2,0:0:0:0:
262,381,95439,2,0,P|228:375|175:361,1,70,2|0,3:2|0:0,0:0:0:0:
303,287,95758,1,2,3:2:0:0:
303,287,95918,1,8,0:2:0:0:
266,218,96077,2,0,P|231:225|197:233,1,70,2|0,0:2|3:0,0:0:0:0:
326,270,96396,1,2,3:2:0:0:
369,203,96556,2,0,P|392:178|388:122,1,70,8|2,0:2|0:2,0:0:0:0:
418,9,96875,6,0,P|361:4|285:78,1,140,0|10,3:0|0:2,0:0:0:0:
180,0,97354,2,0,B|207:124|295:48|322:170,1,210,2|8,3:2|0:2,0:0:0:0:
213,236,97992,2,0,P|221:203|231:149,1,70,2|0,3:2|0:0,0:0:0:0:
379,235,98311,1,2,3:2:0:0:
360,264,98390,1,0,3:0:0:0:
326,270,98470,1,8,0:2:0:0:
221,163,98630,5,2,3:2:0:0:
186,300,98790,1,10,3:2:0:0:
89,264,98949,1,0,3:0:0:0:
20,302,99109,1,10,0:2:0:0:
205,187,99269,1,10,0:2:0:0:
125,189,99428,6,0,L|78:177,1,35,6|0,3:2|0:0,0:0:0:0:
387,189,99748,2,0,L|434:177,1,35,2|0,3:2|0:0,0:0:0:0:
474,114,99907,2,0,L|521:102,1,35,2|0,3:2|0:0,0:0:0:0:
38,114,100226,2,0,L|-9:102,1,35,2|0,3:2|0:0,0:0:0:0:
387,195,100546,6,0,L|434:207,1,35,2|0,3:2|0:0,0:0:0:0:
474,270,100705,2,0,L|521:282,1,35,2|0,3:2|0:0,0:0:0:0:
474,114,101024,2,0,L|521:102,1,35,2|0,3:2|0:0,0:0:0:0:
125,195,101343,2,0,L|78:207,1,35,10|0,0:2|0:0,0:0:0:0:
38,270,101503,2,0,L|-9:282,1,35,2|0,3:2|0:0,0:0:0:0:
38,114,101822,2,0,L|-9:102,1,35,2|0,3:2|0:0,0:0:0:0:
387,189,102141,6,0,L|434:177,1,35,2|0,3:2|0:0,0:0:0:0:
474,114,102301,2,0,L|521:102,1,35,2|0,3:2|0:0,0:0:0:0:
38,114,102620,2,0,L|-9:102,1,35,10|0,0:2|0:0,0:0:0:0:
125,195,102939,2,0,L|78:207,1,35,2|0,3:2|0:0,0:0:0:0:
38,270,103098,2,0,L|-9:282,1,35,2|0,3:2|0:0,0:0:0:0:
474,270,103418,6,0,L|521:282,1,35,10|0,0:2|0:0,0:0:0:0:
387,189,103737,2,0,L|434:177,1,35,2|0,3:2|0:0,0:0:0:0:
474,114,103896,2,0,L|521:102,1,35,10|0,0:2|0:0,0:0:0:0:
250,18,104216,6,0,B|258:106,1,70,2|10,3:2|0:2,0:0:0:0:
125,189,104535,6,0,L|78:177,1,35,2|0,3:2|0:0,0:0:0:0:
387,189,104854,2,0,L|420:180,1,35,2|0,3:2|0:0,0:0:0:0:
474,114,105014,2,0,L|521:102,1,35,2|0,3:2|0:0,0:0:0:0:
37,112,105333,2,0,L|4:104,1,35,2|0,3:2|0:0,0:0:0:0:
125,195,105652,2,0,L|91:203,1,35,2|0,3:2|0:0,0:0:0:0:
387,195,105971,2,0,L|420:203,1,35,2|0,3:2|0:0,0:0:0:0:
474,114,106131,2,0,L|507:105,1,35,2|0,3:2|0:0,0:0:0:0:
53,286,106450,6,0,L|19:294,1,35,10|0,0:2|0:0,0:0:0:0:
162,341,106609,6,0,L|195:332,1,35,10|0,3:2|0:0,0:0:0:0:
125,189,106769,6,0,L|133:222,1,35,10|0,0:2|0:0,0:0:0:0:
474,112,107088,6,0,L|508:104,1,35,2|0,3:2|0:0,0:0:0:0:
37,112,107407,2,0,L|4:104,1,35,2|0,3:2|0:0,0:0:0:0:
125,189,107567,2,0,L|91:180,1,35,2|0,3:2|0:0,0:0:0:0:
387,189,107886,2,0,L|420:180,1,35,2|0,3:2|0:0,0:0:0:0:
474,270,108205,2,0,L|507:278,1,35,2|0,3:2|0:0,0:0:0:0:
38,270,108524,6,0,L|4:278,1,35,2|0,3:2|0:0,0:0:0:0:
125,189,108684,2,0,L|91:180,1,35,2|0,0:2|0:0,0:0:0:0:
344,290,109003,5,2,3:2:0:0:
377,280,109082,1,10,0:2:0:0:
399,254,109162,1,10,0:2:0:0:
403,220,109242,1,10,0:2:0:0:
387,189,109322,1,2,3:2:0:0:
374,178,109401,1,2,3:2:0:0:
365,163,109481,1,10,3:2:0:0:
363,145,109561,1,10,3:2:0:0:
366,128,109641,6,0,L|355:85,1,35,6|0,3:2|0:0,0:0:0:0:
146,256,109960,6,0,L|157:299,1,35,2|0,3:2|0:0,0:0:0:0:
368,255,110120,2,0,L|357:298,1,35,2|0,3:2|0:0,0:0:0:0:
256,312,110280,1,12,0:2:0:0:
85,211,110439,6,0,L|42:199,1,35,2|0,3:2|0:0,0:0:0:0:
427,211,110758,2,0,L|469:199,1,35,2|0,3:2|0:0,0:0:0:0:
256,216,110918,1,6,3:2:0:0:
126,137,111237,6,0,L|88:126,1,35,6|0,3:2|0:0,0:0:0:0:
385,137,111556,2,0,L|423:126,1,35,14|0,0:2|0:0,0:0:0:0:
256,165,111716,1,2,3:2:0:0:
324,92,112035,2,0,L|313:49,1,35,2|0,3:2|0:0,0:0:0:0:
188,92,112354,2,0,L|199:49,1,35,2|0,3:2|0:0,0:0:0:0:
256,192,112514,5,6,3:2:0:0:
62,283,112833,2,0,L|19:272,1,35,14|0,0:2|0:0,0:0:0:0:
450,283,113152,2,0,L|493:272,1,35,2|0,3:2|0:0,0:0:0:0:
256,272,113311,1,2,3:2:0:0:
408,152,113631,2,0,L|399:185,1,35,2|0,3:2|0:0,0:0:0:0:
104,152,113950,2,0,L|112:185,1,35,2|0,3:2|0:0,0:0:0:0:
256,112,114109,1,14,0:2:0:0:
256,384,114428,2,0,L|256:347,1,35,14|0,0:2|0:0,0:0:0:0:
80,48,114748,5,2,3:2:0:0:
24,149,114907,1,10,0:2:0:0:
267,220,115067,5,2,3:2:0:0:
231,157,115226,1,2,3:2:0:0:
1,337,115386,5,10,0:2:0:0:
76,312,115546,1,2,3:2:0:0:
319,96,115705,5,10,0:2:0:0:
230,69,115865,1,2,3:2:0:0:
398,139,116024,5,10,0:2:0:0:
358,29,116183,1,2,3:2:0:0:
215,53,116343,5,2,3:2:0:0:
88,218,116502,1,10,0:2:0:0:
208,260,116663,5,2,3:2:0:0:
179,194,116822,1,2,3:2:0:0:
297,334,116982,5,2,3:2:0:0:
467,275,117141,1,10,0:2:0:0:
404,363,117301,5,2,3:2:0:0:
345,193,117460,1,10,0:2:0:0:
503,212,117620,5,2,3:2:0:0:
467,275,117779,1,2,3:2:0:0:
253,238,117939,5,10,0:2:0:0:
345,193,118098,1,2,3:2:0:0:
403,241,118258,1,8,0:2:0:0:
168,186,118418,5,2,3:2:0:0:
96,168,118577,1,8,0:2:0:0:
416,168,118737,5,2,3:2:0:0:
344,186,118896,5,2,3:2:0:0:
24,2,119216,5,2,0:3:0:0:
35,291,119854,6,0,P|59:227|56:199,1,70,6|10,3:2|0:2,0:0:0:0:
234,269,120173,1,2,0:2:0:0:
177,171,120333,1,2,3:2:0:0:
242,122,120492,2,0,B|310:137|283:189|359:192,1,140,8|0,0:2|3:0,0:0:0:0:
470,271,120971,2,0,P|431:294|396:294,1,70,2|0,0:2|3:0,0:0:0:0:
420,121,121290,2,0,P|461:140|480:169,1,70,2|0,0:2|3:0,0:0:0:0:
309,270,121609,1,2,3:2:0:0:
239,211,121769,6,0,B|190:186|190:186|205:27|205:27|160:1,1,262.5,12|0,0:2|0:0,0:0:0:0:
119,19,122407,6,0,L|131:116,1,70,6|2,3:2|3:2,0:0:0:0:
140,241,122726,1,2,3:2:0:0:
274,133,122886,1,2,3:2:0:0:
344,188,123045,2,0,B|340:258|403:238|381:320,1,140,10|2,0:2|3:2,0:0:0:0:
502,332,123524,2,0,P|471:364|437:373,1,70,2|0,0:2|3:0,0:0:0:0:
436,194,123843,2,0,P|469:208|491:234,1,70,2|2,0:2|3:2,0:0:0:0:
382,315,124162,1,2,3:2:0:0:
291,341,124322,2,0,B|300:262|252:292|255:210,1,140,10|2,0:2|3:2,0:0:0:0:
329,152,124801,1,2,0:2:0:0:
207,335,124960,5,0,3:0:0:0:
207,335,125120,1,2,3:2:0:0:
104,273,125280,2,0,B|90:243|90:243|106:203,2,70,2|2|8,3:2|3:2|0:2,0:0:0:0:
201,351,125758,1,2,3:2:0:0:
321,308,125918,1,2,3:2:0:0:
375,250,126077,2,0,P|423:245|450:235,1,70,0|2,3:0|3:2,0:0:0:0:
299,119,126397,1,0,3:0:0:0:
379,68,126556,2,0,P|389:34|391:-1,2,70,2|0|10,3:2|3:0|0:2,0:0:0:0:
284,126,127035,1,2,3:2:0:0:
147,96,127194,2,0,P|183:64|217:65,1,70,2|10,3:2|0:2,0:0:0:0:
152,280,127514,6,0,B|147:213|207:233|208:149,3,140,6|0|14|0,3:2|3:0|0:2|3:0,0:0:0:0:
360,280,128790,2,0,B|365:213|305:233|304:149,3,140,6|0|14|0,3:2|3:0|0:2|3:0,0:0:0:0:
40,290,129907,1,0,3:0:0:0:
25,324,129987,1,0,3:0:0:0:
37,351,130067,6,0,P|106:356|130:371,1,70,6|2,3:2|0:2,0:0:0:0:
218,281,130386,1,2,3:2:0:0:
161,183,130546,1,2,3:2:0:0:
249,137,130705,2,0,B|319:141|299:78|381:100,1,140,10|2,0:2|3:2,0:0:0:0:
503,210,131184,2,0,P|461:195|439:168,1,70,2|2,3:2|3:2,0:0:0:0:
397,61,131503,2,0,P|438:41|472:45,1,70,2|2,3:2|3:2,0:0:0:0:
362,179,131822,1,2,3:2:0:0:
401,257,131982,6,0,B|374:290|374:290|203:266|203:266|169:315,1,262.5,14|0,0:2|0:0,0:0:0:0:
147,327,132620,6,0,L|73:316,1,70,6|2,3:2|0:2,0:0:0:0:
216,142,132939,1,2,3:2:0:0:
314,201,133099,1,2,3:2:0:0:
372,151,133258,2,0,B|368:81|431:101|409:19,1,140,10|2,0:2|3:2,0:0:0:0:
498,244,133737,2,0,P|467:212|433:203,1,70,2|2,3:2|3:2,0:0:0:0:
336,335,134056,2,0,P|369:321|391:295,1,70,2|2,3:2|3:2,0:0:0:0:
304,213,134375,1,2,3:2:0:0:
251,265,134535,2,0,B|172:256|202:304|120:301,1,140,10|2,0:2|3:2,0:0:0:0:
36,256,135014,1,2,0:2:0:0:
241,341,135173,5,2,3:2:0:0:
241,341,135333,1,0,3:0:0:0:
326,225,135493,2,0,B|340:255|340:255|324:295,2,70,2|0|10,3:2|3:0|0:2,0:0:0:0:
169,123,135971,1,0,3:0:0:0:
257,267,136131,1,2,3:2:0:0:
371,168,136290,2,0,P|419:173|446:183,1,70,0|2,3:0|3:2,0:0:0:0:
182,206,136610,1,2,3:2:0:0:
87,148,136769,2,0,P|77:114|75:79,2,70,2|0|10,3:2|3:0|0:2,0:0:0:0:
182,206,137248,1,0,3:0:0:0:
282,127,137407,2,0,P|246:95|212:96,1,70,2|0,3:2|3:0,0:0:0:0:
182,206,137726,5,10,0:2:0:0:
134,262,137886,1,8,0:2:0:0:
264,240,138046,5,0,3:0:0:0:
294,324,138206,1,8,0:2:0:0:
322,177,138365,5,10,3:2:0:0:
445,200,138525,1,10,3:2:0:0:
194,177,138684,5,10,3:2:0:0:
10,212,138844,1,10,3:2:0:0:
264,240,139003,5,10,3:2:0:0:
93,42,139163,1,10,0:2:0:0:
198,327,139322,5,10,0:2:0:0:
307,14,139482,1,10,3:2:0:0:
207,346,139641,5,10,3:2:0:0:
512,73,140280,6,0,B|411:77|471:27|354:47,1,140,6|2,3:2|0:3,0:0:0:0:
184,126,140758,1,2,3:2:0:0:
105,30,140918,2,0,P|62:95|76:141,1,105,10|0,0:2|0:0,0:0:0:0:
79,138,141237,5,2,3:2:0:0:
118,227,141397,1,0,3:0:0:0:
19,327,141556,1,2,0:3:0:0:
39,256,141716,1,0,3:0:0:0:
207,352,141875,1,2,3:3:0:0:
136,372,142035,1,0,3:0:0:0:
256,192,142194,5,12,0:2:0:0:
455,324,142514,2,0,B|438:345|394:365|352:289,1,122.5,2|0,3:2|0:0,0:0:0:0:
195,277,142833,6,0,B|305:295|289:189|384:215,1,210,6|6,3:2|3:2,0:0:0:0:
496,250,143471,2,0,P|478:280|446:294,1,70,8|0,0:2|0:0,0:0:0:0:
221,193,143790,5,2,3:2:0:0:
143,131,143950,1,0,3:0:0:0:
5,165,144109,1,2,0:3:0:0:
57,108,144269,1,0,3:0:0:0:
135,244,144428,1,0,3:0:0:0:
54,265,144588,1,0,3:0:0:0:
256,192,144747,5,14,0:2:0:0:
479,210,145067,2,0,B|468:194|433:218|415:253|437:312,1,122.5,2|0,0:3|0:0,0:0:0:0:
512,336,145386,6,0,B|426:311|462:386|354:362,1,140,6|2,3:2|0:3,0:0:0:0:
184,258,145864,1,2,3:2:0:0:
105,354,146024,2,0,P|93:268|82:224,1,105,10|0,0:2|0:0,0:0:0:0:
59,215,146343,5,2,3:2:0:0:
22,295,146503,1,2,3:2:0:0:
179,228,146663,1,2,0:2:0:0:
147,157,146823,1,8,0:2:0:0:
18,116,146982,1,2,3:3:0:0:
48,184,147141,1,0,3:0:0:0:
256,192,147301,5,10,0:2:0:0:
405,36,147620,1,2,0:3:0:0:
405,36,147780,1,2,3:2:0:0:
361,121,147939,6,0,P|326:101|308:61,2,70,14|0|0,0:2|3:0|3:0,0:0:0:0:
320,225,148418,2,0,P|300:260|260:278,2,70,14|0|0,0:2|3:0|3:0,0:0:0:0:
395,321,148897,2,0,P|430:341|448:381,2,70,14|2|0,0:2|3:2|3:0,0:0:0:0:
456,232,149375,2,0,P|476:197|516:179,2,70,14|0|0,0:2|3:0|3:0,0:0:0:0:
317,347,149854,5,10,0:2:0:0:
260,249,150014,1,0,3:0:0:0:
107,337,150173,2,0,B|87:310|87:310|78:217,1,122.5,10|0,0:2|0:0,0:0:0:0:
52,149,150492,6,0,B|132:120|124:200|181:180,1,140,6|2,3:2|0:3,0:0:0:0:
139,359,150970,1,2,3:2:0:0:
192,288,151130,2,0,P|272:255|291:252,1,105,10|0,0:2|0:0,0:0:0:0:
329,268,151449,5,2,3:2:0:0:
259,351,151609,1,0,3:0:0:0:
436,370,151768,1,2,0:2:0:0:
351,353,151928,1,0,3:0:0:0:
499,249,152087,1,2,3:3:0:0:
428,281,152247,1,0,3:0:0:0:
256,192,152406,5,8,0:2:0:0:
256,192,152726,6,0,B|315:199|308:152|377:156,1,122.5,2|0,3:2|0:0,0:0:0:0:
185,245,153046,6,0,B|79:228|123:124|-4:144,1,210,6|2,3:2|3:2,0:0:0:0:
284,56,153684,2,0,P|254:75|235:104,1,70,8|0,0:2|0:0,0:0:0:0:
290,276,154003,5,2,3:2:0:0:
378,306,154163,1,0,3:0:0:0:
467,122,154322,1,2,0:2:0:0:
502,184,154482,1,0,3:0:0:0:
307,98,154641,1,2,3:3:0:0:
345,30,154801,1,0,3:0:0:0:
256,192,154960,5,12,0:2:0:0:
256,192,155280,2,0,B|231:180|217:127|163:124|161:149,1,122.5,2|0,0:2|0:0,0:0:0:0:
27,192,155599,6,0,B|113:154|103:240|185:218,1,140,6|2,3:2|0:3,0:0:0:0:
287,372,156077,1,2,3:2:0:0:
333,308,156237,2,0,P|287:285|236:273,1,105,10|0,0:2|0:0,0:0:0:0:
201,297,156556,5,2,3:2:0:0:
139,332,156716,1,2,3:2:0:0:
15,204,156875,1,2,0:2:0:0:
91,225,157035,1,8,0:2:0:0:
161,103,157194,1,2,3:3:0:0:
125,43,157354,1,0,3:0:0:0:
256,192,157513,5,10,0:2:0:0:
256,192,157833,1,2,0:3:0:0:
448,368,158152,5,14,0:2:0:0:
490,297,158311,1,0,3:0:0:0:
425,216,158471,1,2,3:2:0:0:
253,316,158631,5,14,0:2:0:0:
324,358,158790,1,0,3:0:0:0:
405,293,158950,1,0,3:0:0:0:
253,136,159109,5,14,0:2:0:0:
329,346,159269,1,2,3:2:0:0:
250,155,159428,1,0,3:0:0:0:
343,225,159588,5,14,0:2:0:0:
407,83,159748,1,0,3:0:0:0:
341,212,159907,1,0,3:0:0:0:
194,71,160067,5,2,3:2:0:0:
182,69,160146,1,0,3:0:0:0:
170,67,160226,1,0,3:0:0:0:
158,65,160306,1,0,3:0:0:0:
148,64,160386,2,0,L|136:100,1,35,2|0,3:2|3:0,0:0:0:0:
63,116,160546,2,0,L|80:149,1,35,0|0,3:0|3:0,0:0:0:0:
182,178,160705,5,14,0:2:0:0:
253,136,160864,1,0,3:0:0:0:
334,201,161024,1,0,3:0:0:0:
234,373,161184,5,14,0:2:0:0:
192,302,161343,1,0,3:0:0:0:
257,221,161503,1,0,3:0:0:0:
380,361,161662,5,14,0:2:0:0:
170,285,161822,1,2,3:2:0:0:
361,364,161981,1,0,3:0:0:0:
262,209,162141,5,14,0:2:0:0:
433,207,162301,1,0,3:0:0:0:
253,236,162460,1,0,3:0:0:0:
113,157,162620,5,2,3:2:0:0:
101,155,162699,1,0,3:0:0:0:
89,153,162779,1,0,3:0:0:0:
77,151,162859,1,0,3:0:0:0:
67,161,162939,5,2,3:2:0:0:
58,162,163018,1,0,3:0:0:0:
48,164,163098,1,0,3:0:0:0:
39,165,163178,1,0,3:0:0:0:
21,157,163258,5,6,3:2:0:0:
44,242,163418,1,2,0:2:0:0:
71,313,163577,1,2,0:2:0:0:
142,359,163737,5,2,3:2:0:0:
161,291,163897,1,10,0:2:0:0:
182,234,164056,1,10,0:2:0:0:
223,172,164216,5,10,3:2:0:0:
35,338,164375,1,10,3:2:0:0:
204,245,164535,5,2,3:2:0:0:
75,138,164694,1,10,3:2:0:0:
220,21,164854,5,10,0:2:0:0:
196,98,165014,1,2,3:2:0:0:
328,157,165173,5,2,3:2:0:0:
299,95,165333,1,2,3:2:0:0:
511,5,165492,5,2,3:2:0:0:
256,336,165811,6,0,L|186:329,1,70,6|0,3:2|0:0,0:0:0:0:
125,284,166051,2,0,L|55:277,1,70,6|0,3:2|0:0,0:0:0:0:
3,224,166290,1,6,3:2:0:0:
241,184,166450,5,8,0:2:0:0:
247,202,166529,1,0,3:0:0:0:
274,232,166609,5,8,0:2:0:0:
269,285,166688,1,8,3:2:0:0:
256,336,166769,2,0,P|221:357|212:356,3,35,8|8|8|8,3:2|0:2|0:2|0:2,0:0:0:0:
256,336,167088,6,0,L|326:329,1,70,6|0,3:2|0:0,0:0:0:0:
387,284,167328,2,0,L|457:277,1,70,6|0,3:2|0:0,0:0:0:0:
509,224,167567,1,6,3:2:0:0:
271,184,167726,5,0,3:0:0:0:
265,202,167805,1,0,3:0:0:0:
238,232,167885,5,8,0:2:0:0:
243,285,167966,1,8,0:2:0:0:
256,336,168046,1,8,0:2:0:0:
462,136,168205,5,8,0:2:0:0:
482,96,168285,1,8,0:2:0:0:
256,16,168444,1,8,0:2:0:0:
198,70,168524,6,0,L|110:53,1,70,6|0,3:2|0:0,0:0:0:0:
368,86,168843,1,6,3:2:0:0:
242,198,169003,5,6,3:2:0:0:
191,183,169082,5,8,0:2:0:0:
138,193,169162,5,8,0:2:0:0:
121,188,169242,1,8,0:2:0:0:
103,184,169322,1,0,3:0:0:0:
89,180,169402,1,0,3:0:0:0:
75,176,169482,1,0,3:0:0:0:
61,173,169562,1,0,3:0:0:0:
49,170,169641,1,0,3:0:0:0:
35,167,169721,1,0,3:0:0:0:
16,170,169801,6,0,L|33:258,1,70,6|0,3:2|0:0,0:0:0:0:
0,0,170120,1,6,3:2:0:0:
152,116,170280,1,6,3:2:0:0:
309,22,170439,5,0,3:0:0:0:
326,17,170519,1,0,3:0:0:0:
343,11,170599,6,0,B|330:34|330:34|366:83|366:83|352:125,1,122.5,10|0,0:2|0:0,0:0:0:0:
337,141,170918,5,6,3:2:0:0:
469,76,171157,1,6,3:2:0:0:
278,88,171397,1,6,3:2:0:0:
430,192,171556,5,8,0:2:0:0:
357,217,171663,1,0,3:0:0:0:
290,256,171769,1,8,0:2:0:0:
259,332,171875,1,0,3:0:0:0:
186,318,171982,1,8,0:2:0:0:
109,307,172088,1,8,0:2:0:0:
187,347,172194,5,6,3:2:0:0:
243,173,172433,1,6,3:2:0:0:
380,273,172673,1,6,3:2:0:0:
173,59,172833,5,0,3:0:0:0:
130,51,172912,1,8,0:2:0:0:
71,98,172992,1,8,0:2:0:0:
47,101,173071,1,0,3:0:0:0:
30,103,173152,5,0,3:0:0:0:
20,117,173231,1,0,3:0:0:0:
17,134,173311,1,0,3:0:0:0:
21,151,173391,1,0,3:0:0:0:
30,166,173471,1,0,3:0:0:0:
45,176,173550,1,0,3:0:0:0:
60,179,173631,6,0,B|111:163|111:163|134:172|134:172|169:165,1,105,6|0,3:2|0:0,0:0:0:0:
182,177,173950,1,6,3:2:0:0:
411,113,174109,1,6,3:2:0:0:
301,45,174269,5,8,0:2:0:0:
309,77,174349,1,8,0:2:0:0:
357,135,174428,5,0,3:0:0:0:
366,149,174507,1,0,3:0:0:0:
368,166,174587,1,0,3:0:0:0:
364,183,174667,1,0,3:0:0:0:
356,198,174747,1,0,3:0:0:0:
341,208,174826,1,0,3:0:0:0:
325,213,174907,6,0,B|341:264|341:264|332:287|332:287|339:322,1,105,6|0,3:2|0:0,0:0:0:0:
324,345,175226,1,6,3:2:0:0:
512,195,175385,1,6,3:2:0:0:
249,267,175546,1,0,3:0:0:0:
249,267,175625,1,0,0:0:0:0:
249,267,175705,6,0,B|224:260|224:260|178:320|178:320|148:312,1,122.5,10|0,0:2|0:0,0:0:0:0:
134,322,176024,6,0,B|118:293|118:293|35:290,2,105,6|0|0,3:2|3:0|3:0,0:0:0:0:
290,330,176663,2,0,P|322:308|321:247,1,105,10|0,0:2|0:0,0:0:0:0:
301,239,177012,2,0,B|359:228|341:192|393:187,1,105,2|0,0:2|0:0,0:0:0:0:
418,196,177321,5,6,3:2:0:0:
52,142,177552,1,0,3:0:0:0:
257,22,177784,1,0,3:0:0:0:
344,64,177939,2,0,B|272:74|300:115|235:122,1,105,10|0,0:2|3:0,0:0:0:0:
232,132,178258,5,2,3:2:0:0:
117,88,178427,1,0,3:0:0:0:
45,133,178577,1,2,3:2:0:0:
387,183,178751,6,0,B|434:166|434:166|447:145|447:145|497:131,1,105,6|0,3:2|0:0,0:0:0:0:
510,155,179068,1,0,3:0:0:0:
261,137,179227,1,14,0:2:0:0:
261,137,179543,1,2,0:2:0:0:
261,137,179702,1,0,0:0:0:0:
314,199,179862,1,2,0:3:0:0:
161,34,180020,6,0,P|145:84|132:146,1,105,6|0,3:2|0:0,0:0:0:0:
100,142,180333,1,0,3:0:0:0:
165,305,180492,1,10,3:2:0:0:
94,375,180652,1,0,3:0:0:0:
15,330,180811,2,0,B|-15:313|-15:313|102:280,1,140,10|6,3:2|3:2,0:0:0:0:
262,324,181303,1,2,0:0:0:0:
270,333,181390,5,0,3:0:0:0:
390,306,181609,1,0,3:0:0:0:
191,192,181788,5,8,0:0:0:0:
116,169,182186,5,2,0:0:0:0:
108,177,182266,1,2,0:0:0:0:
256,320,182426,5,6,3:2:0:0:
458,152,182675,1,0,3:0:0:0:
261,37,182904,1,0,3:0:0:0:
166,74,183044,2,0,B|238:84|210:125|275:132,1,105,10|8,0:2|0:2,0:0:0:0:
278,142,183363,5,2,3:2:0:0:
393,98,183522,1,0,3:0:0:0:
465,143,183682,1,0,3:0:0:0:
132,358,183843,6,0,B|85:341|85:341|72:320|72:320|22:306,1,105,6|0,3:2|0:0,0:0:0:0:
0,237,184168,1,0,3:0:0:0:
252,127,184330,1,6,3:2:0:0:
425,237,184644,1,6,3:2:0:0:
427,257,184722,1,8,0:2:0:0:
429,278,184801,1,8,0:2:0:0:
432,299,184879,1,8,0:2:0:0:
434,320,184958,1,8,0:2:0:0:
436,338,185037,1,8,0:2:0:0:
441,359,185117,6,0,B|418:297|472:271|436:200,1,140,6|6,3:2|3:2,0:0:0:0:
70,359,185596,2,0,B|93:297|39:271|75:200,1,140,6|10,3:2|3:2,0:0:0:0:
378,62,186244,6,0,B|394:91|394:91|477:94,2,105,6|2|2,3:2|3:2|3:2,0:0:0:0:
222,54,186882,2,0,P|190:76|191:137,1,105,10|0,0:2|0:0,0:0:0:0:
211,145,187196,2,0,B|153:156|171:192|103:207,1,105,2|0,0:2|0:0,0:0:0:0:
94,188,187510,5,6,3:2:0:0:
460,242,187754,1,2,3:2:0:0:
255,362,187997,1,2,3:2:0:0:
168,320,188159,2,0,B|240:310|212:269|277:262,1,105,10|0,0:2|3:0,0:0:0:0:
280,252,188478,5,2,3:2:0:0:
395,296,188637,1,0,3:0:0:0:
467,251,188797,1,0,3:0:0:0:
125,201,188947,6,0,B|78:218|78:218|65:239|65:239|15:253,1,105,6|0,3:2|0:0,0:0:0:0:
2,229,189265,1,2,3:2:0:0:
251,247,189424,1,14,0:2:0:0:
251,247,189758,1,2,0:2:0:0:
251,247,189915,1,0,0:0:0:0:
198,185,190073,1,2,0:3:0:0:
351,34,190232,6,0,P|367:84|380:146,1,105,6|0,3:2|0:0,0:0:0:0:
412,142,190551,1,2,3:2:0:0:
347,305,190711,1,14,0:2:0:0:
418,375,190859,1,0,3:0:0:0:
483,328,191021,2,0,B|513:311|513:311|396:278,1,140,10|6,0:2|3:2,0:0:0:0:
250,324,191517,1,2,0:0:0:0:
242,333,191593,5,2,0:0:0:0:
122,306,191821,1,2,3:2:0:0:
321,192,192010,5,2,0:0:0:0:
396,169,192402,5,2,0:2:0:0:
404,177,192481,1,2,0:0:0:0:
256,320,192625,5,6,3:2:0:0:
54,152,192859,1,2,0:2:0:0:
259,32,193096,1,2,3:2:0:0:
346,74,193253,2,0,B|274:84|302:125|237:132,1,105,10|0,0:2|0:0,0:0:0:0:
227,130,193572,1,2,3:2:0:0:
211,99,193651,1,0,3:0:0:0:
183,78,193731,1,0,3:0:0:0:
149,70,193811,1,0,3:0:0:0:
116,79,193891,1,8,3:2:0:0:
86,105,193970,1,8,3:2:0:0:
63,144,194050,6,0,B|110:161|110:161|123:182|123:182|173:196,1,105,6|0,3:2|0:0,0:0:0:0:
230,176,194369,1,6,0:2:0:0:
0,358,194529,1,6,3:2:0:0:
425,237,194848,1,6,3:2:0:0:
427,257,194928,1,8,0:2:0:0:
429,278,195008,1,8,0:2:0:0:
432,299,195087,1,8,0:2:0:0:
434,320,195167,1,8,0:2:0:0:
436,338,195247,1,8,0:2:0:0:
441,359,195327,6,0,B|418:297|472:271|436:200,1,140,6|6,3:2|3:2,0:0:0:0:
357,167,195795,2,0,P|340:137|378:79,1,105,6|0,3:2|0:0,0:0:0:0:
399,89,196124,5,6,3:2:0:0:
426,83,196204,1,8,0:2:0:0:
113,89,196364,5,8,0:2:0:0:
66,80,196444,1,8,0:2:0:0:
12,68,196523,1,8,0:2:0:0:
12,68,196603,6,0,B|83:90|33:122|103:147,1,105,6|0,3:2|0:0,0:0:0:0:
171,119,196922,1,6,3:2:0:0:
272,292,197082,6,0,B|222:236|214:295|161:242,1,105,6|0,3:2|0:0,0:0:0:0:
87,237,197401,1,6,3:2:0:0:
85,257,197481,1,8,0:2:0:0:
83,278,197560,1,8,0:2:0:0:
80,299,197640,1,8,0:2:0:0:
78,320,197720,1,8,0:2:0:0:
76,338,197800,1,8,0:2:0:0:
71,359,197880,6,0,B|94:297|40:271|76:200,1,140,6|6,3:2|3:2,0:0:0:0:
233,164,198358,2,0,B|293:136|273:79|348:55,1,140,6|6,3:2|3:2,0:0:0:0:
371,232,198837,1,0,3:0:0:0:
371,232,198917,1,2,0:0:0:0:
371,232,198997,6,0,B|433:255|459:200|530:237,1,140,2|2,3:2|0:2,0:0:0:0:
508,228,199475,1,2,0:2:0:0:
141,232,199795,6,0,B|79:255|53:200|-18:237,1,140,2|2,0:2|0:2,0:0:0:0:
3,228,200273,1,2,0:2:0:0:
256,184,200592,1,2,0:0:0:0:
206,108,200753,1,0,3:0:0:0:
194,104,200806,1,0,3:0:0:0:
183,102,200859,1,0,3:0:0:0:
171,100,200912,5,0,3:0:0:0:
38,52,201151,1,0,3:0:0:0:
73,117,201390,1,0,3:0:0:0:
337,159,201550,6,0,B|360:128|360:128|454:114,1,105,6|0,3:2|0:0,0:0:0:0:
465,249,201869,6,2,B|456:332|172:356|60:261|84:50|217:30|266:24,1,614.249971881868,2|0,3:2|0:0,1:1:0:0:
344,37,202986,6,2,B|388:-22|548:126|677:279|508:485|351:429|149:320|133:344|12:268|53:15|110:22,1,1039.50003172302,2|0,0:0|0:0,1:1:0:0:
130,18,204102,5,2,0:2:0:0:
176,150,204262,1,2,3:2:0:0:
176,150,204342,1,2,0:2:0:0:
176,150,204422,2,2,B|225:163|220:120|280:130,1,90.9999958343508,2|2,3:2|0:0,0:1:0:0:
462,259,204741,5,10,0:2:0:0:
318,212,204900,1,2,0:2:0:0:
318,212,204980,1,2,0:2:0:0:
318,212,205060,2,0,P|293:216|276:245,1,45.4999979171754,2|2,3:2|0:2,0:0:0:0:
200,298,205220,2,0,P|204:323|233:340,1,45.4999979171754,2|2,3:2|0:2,0:0:0:0:
289,301,205380,6,2,B|230:222|315:205|300:80|182:127|170:48,1,288.750011014939,2|0,0:0|0:0,1:1:0:0:
149,52,205858,6,0,L|115:46,1,26.2500010013581,2|0,3:2|0:0,0:0:0:0:
196,186,206017,2,2,B|188:157|276:127|306:105|370:117,1,196.875007510186,10|0,0:0|0:0,1:1:0:0:
443,170,206656,6,0,B|455:187|455:187|437:245,1,70,6|2,3:2|0:2,0:0:0:0:
169,335,206975,1,2,3:2:0:0:
440,233,207134,1,2,3:2:0:0:
345,346,207294,2,2,B|281:343|298:305|224:300,1,105,10|0,0:0|0:0,1:1:0:0:
169,335,207614,2,0,B|164:324|166:324|124:309|101:314,1,45.4999979171754,2|0,0:2|0:0,0:0:0:0:
17,378,207773,2,0,B|22:367|29:363|62:352|85:357,1,45.4999979171754,2|0,3:2|0:0,0:0:0:0:
136,384,207933,6,2,B|85:374|-35:357|-84:374|-84:-15|-51:-52|53:-15|23:-76|238:-15|376:-12|462:-76|494:-15|613:-15|648:208|613:374|509:456|461:411|350:374|279:395|232:411|107:374|44:394|50:332|-47:132|44:169,1,1805.99994488526,2|0,0:2|0:0,0:1:0:0:
77,112,209688,2,0,P|84:136|99:158,1,52.5000020027161,2|0,3:2|0:0,0:0:0:0:
353,97,209847,5,10,0:2:0:0:
77,112,210007,1,2,3:2:0:0:
480,369,210246,5,2,0:2:0:0:
439,351,210326,2,0,P|406:296|393:287,1,52.5000020027161,2|2,3:2|0:2,0:0:0:0:
478,68,210485,5,6,0:2:0:0:
428,126,210592,5,2,0:2:0:0:
351,97,210698,5,2,0:2:0:0:
285,149,210805,6,0,B|227:154|263:95|136:99,1,125.999996154785,2|0,3:2|0:0,0:0:0:0:
42,218,211124,5,10,0:2:0:0:
67,271,211203,1,10,0:2:0:0:
123,292,211283,1,10,0:2:0:0:
163,273,211363,1,10,0:2:0:0:
172,233,211443,1,2,3:2:0:0:
165,199,211523,1,10,0:2:0:0:
151,195,211602,1,10,0:2:0:0:
138,199,211682,1,10,0:2:0:0:
205,244,211762,5,6,3:2:0:0:
263,214,211869,1,2,0:2:0:0:
308,238,211975,1,2,0:2:0:0:
369,292,212082,1,6,3:2:0:0:
430,314,212188,1,2,0:2:0:0:
491,278,212295,1,2,0:2:0:0:
440,213,212401,2,0,L|431:177,1,27.9999991455078,14|2,0:2|0:2,0:0:0:0:
414,177,212507,1,2,0:0:0:0:
486,112,212614,1,2,0:2:0:0:
496,68,212720,1,6,0:2:0:0:
462,28,212826,1,2,0:2:0:0:
385,21,212933,1,2,0:2:0:0:
322,84,213039,1,6,3:2:0:0:
262,120,213146,1,2,0:2:0:0:
192,105,213252,1,2,0:2:0:0:
98,47,213358,1,6,3:2:0:0:
17,61,213465,1,2,0:2:0:0:
4,137,213571,1,2,0:2:0:0:
106,176,213678,1,14,0:2:0:0:
169,229,213784,1,2,0:2:0:0:
92,303,213890,1,2,0:2:0:0:
132,384,213997,1,6,0:2:0:0:
243,346,214103,1,2,0:2:0:0:
283,265,214208,1,2,0:2:0:0:
206,191,214315,1,6,0:2:0:0:
299,20,214475,2,0,P|299:61|314:82,1,41.9999987182618,2|0,3:2|0:0,0:0:0:0:
404,48,214635,2,0,P|406:34|403:20,1,27.9999991455078,2|0,0:2|0:0,0:0:0:0:
347,161,214794,1,2,0:2:0:0:
347,161,214874,1,2,0:2:0:0:
347,161,214953,1,14,0:2:0:0:
437,227,215060,1,2,0:2:0:0:
457,229,215166,1,2,0:2:0:0:
477,254,215273,1,6,3:2:0:0:
345,269,215392,1,2,0:2:0:0:
317,266,215485,1,2,0:2:0:0:
289,243,215592,1,6,0:2:0:0:
293,216,215671,1,2,0:2:0:0:
327,242,215751,1,2,3:2:0:0:
361,292,215831,1,2,0:2:0:0:
350,355,215911,1,6,0:2:0:0:
271,346,215991,2,0,P|262:319|262:309,4,20.9999993591309,10|2|8|2|2,0:2|0:2|0:0|0:2|0:0,0:0:0:0:
192,261,216230,1,14,0:2:0:0:
122,219,216336,1,2,0:2:0:0:
60,236,216443,1,2,0:2:0:0:
45,282,216549,1,6,3:2:0:0:
61,290,216655,1,2,0:2:0:0:
76,275,216762,1,2,0:2:0:0:
63,260,216869,2,0,P|63:237|83:215,1,41.9999987182618,6|2,3:2|0:0,0:0:0:0:
39,189,217029,2,0,P|39:166|19:144,1,41.9999987182618,6|2,3:2|0:0,0:0:0:0:
118,153,217187,1,6,3:2:0:0:
308,241,217348,2,0,B|352:234|341:208|389:203,1,83.9999974365235,2|14,3:2|0:2,0:0:0:0:
480,145,217666,1,0,3:0:0:0:
473,368,217826,1,6,0:2:0:0:
480,346,217932,1,2,0:2:0:0:
450,313,218039,1,2,0:2:0:0:
401,288,218145,1,6,0:2:0:0:
357,309,218251,1,2,0:2:0:0:
305,353,218358,1,2,0:2:0:0:
236,330,218464,1,6,3:2:0:0:
164,286,218570,1,2,0:2:0:0:
78,313,218677,1,2,0:2:0:0:
18,358,218783,2,0,L|7:295,1,55.9999982910157,14|2,0:2|0:2,0:0:0:0:
103,168,218943,2,0,L|91:238,1,41.9999987182618,10|2,0:2|0:2,0:0:0:0:
5,93,219102,1,10,0:2:0:0:
75,49,219209,1,2,0:2:0:0:
129,89,219315,1,2,0:2:0:0:
211,148,219421,1,6,3:2:0:0:
255,146,219528,1,2,0:2:0:0:
285,135,219634,1,2,0:2:0:0:
312,109,219741,1,6,3:2:0:0:
357,103,219847,1,2,0:2:0:0:
396,126,219953,1,2,0:2:0:0:
416,201,220060,1,14,0:2:0:0:
448,215,220166,1,2,0:2:0:0:
454,243,220273,1,2,0:2:0:0:
439,259,220379,2,0,B|355:283|422:295|323:342,1,111.999996582031,6|0,0:2|0:0,0:0:0:0:
153,327,220698,1,6,0:2:0:0:
184,301,220804,1,2,0:2:0:0:
214,305,220911,1,2,0:2:0:0:
217,319,221017,2,0,B|141:300|178:253|73:262,1,146.999995513916,6|0,3:2|0:0,0:0:0:0:
40,195,221337,1,2,3:2:0:0:
38,175,221417,1,10,0:2:0:0:
36,154,221497,1,10,0:2:0:0:
33,133,221576,1,8,0:2:0:0:
31,112,221656,1,2,3:2:0:0:
29,94,221736,1,8,0:2:0:0:
42,82,221816,1,10,0:2:0:0:
44,61,221896,1,8,0:2:0:0:
45,44,221975,6,0,B|105:37|105:37|132:58|132:58|196:54,1,140,6|2,3:2|3:2,0:0:0:0:
288,7,222454,1,0,3:0:0:0:
371,85,222614,2,0,B|348:117|348:117|317:112,1,70,10|2,0:2|0:2,0:0:0:0:
179,39,222933,1,2,3:2:0:0:
112,167,223093,1,2,3:2:0:0:
122,218,223172,1,2,0:0:0:0:
132,264,223252,1,2,3:2:0:0:
8,354,223412,1,2,0:2:0:0:
163,275,223571,1,2,3:2:0:0:
163,275,223731,1,2,3:2:0:0:
15,92,223890,6,0,B|-9:121|-9:121|24:348,1,262.5,14|0,0:2|0:0,0:0:0:0:
44,350,224529,6,0,B|129:333|101:385|184:376,1,140,6|2,3:2|3:2,0:0:0:0:
321,313,225008,1,2,3:2:0:0:
309,299,225087,1,2,0:2:0:0:
283,294,225167,2,0,B|261:313|261:313|271:375,1,70,10|2,0:2|0:2,0:0:0:0:
459,284,225486,1,2,3:2:0:0:
227,234,225646,1,2,3:2:0:0:
349,337,225805,6,0,P|365:301|347:265,1,70,2|10,3:2|0:2,0:0:0:0:
480,122,226125,1,2,3:2:0:0:
462,193,226284,1,2,3:2:0:0:
268,68,226444,1,10,0:2:0:0:
268,68,226524,1,2,0:2:0:0:
268,68,226603,1,2,3:2:0:0:
323,138,226763,2,0,B|381:117|345:82|418:73,1,105,10|0,0:2|0:0,0:0:0:0:
421,65,227082,2,0,P|433:45|433:25,2,35,6|2|2,3:2|0:0|0:2,0:0:0:0:
253,53,227401,5,2,3:2:0:0:
139,117,227561,1,2,3:2:0:0:
112,108,227641,1,2,0:2:0:0:
75,97,227720,2,0,P|65:76|65:61,3,35,10|0|2|0,0:2|0:0|0:2|0:0,0:0:0:0:
119,203,228040,5,2,3:2:0:0:
83,226,228119,1,2,3:2:0:0:
76,266,228199,1,2,3:2:0:0:
96,309,228279,1,2,0:2:0:0:
130,326,228359,1,2,3:2:0:0:
175,317,228438,1,0,0:0:0:0:
198,306,228518,2,0,P|199:276|193:257,2,35,10|2|2,0:2|0:2|3:2,0:0:0:0:
139,117,228837,5,2,3:2:0:0:
171,136,228917,2,0,P|216:121|221:121,2,35,0|10|2,0:0|0:2|0:2,0:0:0:0:
282,160,229157,1,0,3:0:0:0:
321,187,229236,1,2,0:2:0:0:
321,220,229316,1,10,0:2:0:0:
317,236,229396,1,10,0:2:0:0:
311,256,229476,1,10,0:2:0:0:
310,277,229555,1,10,0:2:0:0:
311,333,229635,6,0,B|393:313|347:267|442:253,1,140,6|6,3:2|3:2,0:0:0:0:
502,320,230033,1,2,0:2:0:0:
511,347,230113,1,2,0:2:0:0:
497,370,230193,1,2,0:2:0:0:
449,365,230273,1,14,0:2:0:0:
436,344,230352,1,2,0:2:0:0:
436,333,230432,1,2,0:2:0:0:
449,329,230512,1,2,0:2:0:0:
460,338,230592,1,6,3:2:0:0:
433,288,230671,1,2,0:2:0:0:
427,223,230751,1,2,0:2:0:0:
423,161,230831,1,2,0:2:0:0:
395,94,230911,1,6,3:2:0:0:
386,67,230991,1,2,0:2:0:0:
400,44,231071,1,2,0:2:0:0:
448,49,231151,1,2,0:2:0:0:
461,70,231230,1,6,3:2:0:0:
461,81,231310,1,2,0:2:0:0:
448,85,231390,1,2,0:2:0:0:
437,76,231470,1,2,0:2:0:0:
464,126,231549,1,14,0:2:0:0:
430,180,231629,1,2,0:2:0:0:
366,193,231709,1,2,0:2:0:0:
309,173,231789,1,2,0:2:0:0:
283,129,231868,5,6,3:2:0:0:
221,92,231948,5,2,0:2:0:0:
143,71,232028,5,2,0:2:0:0:
62,123,232108,5,2,0:2:0:0:
152,156,232188,6,0,B|138:184|138:184|161:254|161:254|141:291,1,140,6|2,3:2|3:3,0:0:0:0:
3,353,232667,1,2,3:2:0:0:
236,243,232826,1,10,0:2:0:0:
2,203,232986,1,2,0:2:0:0:
9,218,233066,1,2,0:2:0:0:
16,235,233146,2,0,P|12:260|6:280,2,46.6666666666667,2|0|0,3:2|0:0|3:0,0:0:0:0:
89,321,233465,6,0,P|119:290|172:291,1,70,2|8,3:2|0:2,0:0:0:0:
181,295,233704,1,2,0:2:0:0:
185,314,233784,2,0,P|173:338|162:348,1,35,2|2,3:2|0:2,0:0:0:0:
271,285,233944,2,0,P|296:276|311:277,1,35,2|2,3:2|0:2,0:0:0:0:
206,217,234103,5,14,0:2:0:0:
190,196,234182,1,2,0:2:0:0:
186,170,234262,1,2,0:2:0:0:
193,145,234342,1,2,0:2:0:0:
211,126,234422,2,0,P|227:164|228:172,3,35,2|2|2|2,0:2|0:2|3:2|0:2,0:0:0:0:
328,250,234742,5,6,3:2:0:0:
328,250,234795,1,2,0:2:0:0:
328,250,234848,1,2,0:2:0:0:
328,250,234901,2,0,B|401:235|341:140|421:157,1,140,2|2,0:2|3:2,0:0:0:0:
504,317,235380,1,10,0:2:0:0:
486,349,235460,1,2,0:2:0:0:
455,353,235540,1,2,0:2:0:0:
441,339,235619,1,2,0:2:0:0:
440,324,235699,6,0,B|442:306|442:306|446:300|446:300|447:276,2,35,2|2|2,3:2|0:2|3:2,0:0:0:0:
334,360,235938,1,2,0:2:0:0:
289,339,236018,6,0,B|274:266|179:326|196:246,1,140,2|2,3:2|3:2,0:0:0:0:
355,133,236497,1,2,3:2:0:0:
355,133,236577,1,2,0:2:0:0:
355,133,236657,2,0,B|340:206|245:146|262:226,1,140,2|2,0:2|3:3,0:0:0:0:
65,90,237135,1,0,3:0:0:0:
121,194,237295,2,0,B|144:176|144:176|155:84,1,105,14|0,0:2|0:0,0:0:0:0:
140,88,237614,5,6,3:2:0:0:
6,45,237774,1,2,3:2:0:0:
0,261,237933,2,0,B|89:257|53:205|131:212,1,140,14|2,0:2|3:2,0:0:0:0:
251,340,238412,1,2,3:2:0:0:
233,362,238492,1,2,0:2:0:0:
191,360,238571,2,0,B|226:343|226:343|238:325|238:325|300:306,1,105,14|0,0:2|0:0,0:0:0:0:
461,363,238891,1,2,3:2:0:0:
470,336,238971,1,2,0:2:0:0:
456,313,239051,1,2,3:2:0:0:
431,292,239131,1,2,0:2:0:0:
386,288,239210,1,14,0:2:0:0:
356,329,239290,1,2,0:2:0:0:
372,343,239370,1,2,0:2:0:0:
401,338,239450,1,2,0:2:0:0:
440,317,239529,5,2,3:2:0:0:
415,241,239635,1,2,0:2:0:0:
476,183,239742,1,2,0:2:0:0:
415,123,239848,2,0,P|391:99|376:97,2,46.6666666666667,10|2|2,0:2|0:2|0:2,0:0:0:0:
342,190,240167,5,14,0:2:0:0:
283,229,240274,1,2,0:2:0:0:
216,212,240380,1,2,0:2:0:0:
161,165,240486,1,14,0:2:0:0:
93,127,240593,1,2,0:2:0:0:
19,161,240699,1,2,0:2:0:0:
155,198,240805,5,14,0:2:0:0:
224,137,240912,1,2,0:2:0:0:
232,49,241018,1,2,0:2:0:0:
127,47,241125,6,2,B|125:23|161:-2|200:-4,1,70,14|0,0:0|3:0,1:1:0:0:
361,71,241364,1,2,0:2:0:0:
379,97,241444,6,0,B|381:121|345:146|306:148,1,70,14|2,0:0|3:2,1:0:0:0:
178,118,241683,1,2,0:0:0:0:
190,99,241763,5,10,0:2:0:0:
509,184,241922,1,10,3:2:0:0:
21,168,242082,5,10,3:2:0:0:
21,168,242407,6,2,B|2:181|6:216|27:273|122:262|157:119|168:69|170:43|154:14|154:14|135:33|132:66|135:121|155:179|159:241|170:322|266:378|397:363|451:247|431:103|333:62|242:141|281:202,1,1013.59999458679,2|0,0:0|0:0,1:2:0:0:
432,64,255557,5,0,3:0:0:0:
400,136,255797,5,0,3:0:0:0:
472,200,256116,6,0,B|408:207|428:260|370:264,1,112,2|0,3:2|0:0,0:0:0:0:
283,235,256594,1,0,3:0:0:0:
343,199,256754,1,0,3:0:0:0:
384,263,256914,1,0,3:0:0:0:
312,315,257073,5,2,3:2:0:0:
181,300,257392,6,0,B|237:294|213:246|282:235,2,112,2|2|0,3:2|3:2|3:0,0:0:0:0:
108,255,258190,1,2,3:2:0:0:
45,310,258350,1,0,3:0:0:0:
91,370,258509,1,2,3:2:0:0:
181,300,258669,6,0,P|165:218|146:123,2,168,2|2|2,3:2|3:2|3:2,0:0:0:0:
295,316,259946,1,0,3:0:0:0:
295,316,260105,1,2,3:2:0:0:
382,293,260265,6,0,P|361:248|281:237,1,112,2|0,3:2|3:0,0:0:0:0:
295,316,260743,1,2,3:2:0:0:
304,229,260903,1,0,3:0:0:0:
269,173,261063,1,2,3:2:0:0:
348,97,261222,6,0,P|430:80|512:64,1,168,2|2,3:2|3:2,0:0:0:0:
271,153,261860,6,0,P|205:139|139:126,1,112,2|2,0:2|3:2,0:0:0:0:
98,182,262339,1,0,0:0:0:0:
161,131,262499,1,2,3:2:0:0:
118,69,262658,1,2,0:2:0:0:
15,185,262818,6,0,B|-1:241|81:243|64:291,1,112,2|0,3:2|0:0,0:0:0:0:
16,341,263297,1,2,3:2:0:0:
66,276,263456,1,2,3:2:0:0:
139,307,263616,1,2,3:2:0:0:
302,238,263775,6,0,B|390:234|352:160|460:175,2,168,2|2|2,3:2|3:2|3:2,0:0:0:0:
213,156,265052,1,2,3:2:0:0:
213,156,265211,1,2,0:2:0:0:
164,222,265371,6,0,B|102:219|129:167|53:177,1,112,2|0,3:2|3:0,0:0:0:0:
16,236,265850,1,2,3:2:0:0:
45,164,266009,2,0,P|40:122|34:94,1,56,2|0,0:2|3:0,0:0:0:0:
130,21,266328,5,2,3:2:0:0:
118,101,266488,1,0,3:0:0:0:
198,122,266648,1,0,3:0:0:0:
313,41,266807,2,0,L|437:28,1,112,2|0,3:2|3:0,0:0:0:0:
287,122,267286,5,2,3:2:0:0:
203,244,267605,1,2,3:2:0:0:
196,241,267684,1,0,3:0:0:0:
189,239,267764,1,0,3:0:0:0:
183,236,267844,1,0,3:0:0:0:
174,232,267924,6,0,B|111:242|134:280|52:285,1,112,2|0,3:2|3:0,0:0:0:0:
7,238,268403,1,2,3:2:0:0:
45,164,268563,2,0,P|40:122|34:94,1,56,0|0,3:0|3:0,0:0:0:0:
130,21,268882,5,2,3:2:0:0:
118,101,269042,1,0,3:0:0:0:
198,122,269202,1,0,3:0:0:0:
313,41,269360,1,2,0:2:0:0:
241,97,269520,1,0,3:0:0:0:
288,159,269680,1,2,3:2:0:0:
375,112,269839,6,0,P|366:187|363:229,2,112,2|2|2,3:2|3:2|3:2,0:0:0:0:
441,72,270644,1,0,3:0:0:0:
441,72,270797,5,0,3:0:0:0:
379,116,270956,1,0,3:0:0:0:
257,63,271116,5,0,3:0:0:0:
127,115,271275,1,0,3:0:0:0:
216,150,271435,5,2,3:2:0:0:
30,1,271594,1,2,3:2:0:0:
111,258,271754,5,2,3:2:0:0:
277,33,271914,1,2,3:2:0:0:
40,172,272073,5,2,3:2:0:0:
228,368,272233,1,2,3:2:0:0:
271,52,272392,5,2,3:2:0:0:
98,334,272552,1,2,3:2:0:0:
137,41,272711,5,2,3:2:0:0:
385,352,272871,1,0,3:0:0:0:
385,352,272924,1,0,3:0:0:0:
385,352,272977,1,0,3:0:0:0:
385,352,273031,5,10,0:2:0:0:
67,311,273190,1,10,0:2:0:0:
419,63,273350,5,10,0:2:0:0:
131,112,273509,1,10,0:2:0:0:
227,179,273669,5,10,0:2:0:0:
227,179,273828,1,2,3:2:0:0:
384,28,273988,5,2,3:2:0:0:
322,246,274147,1,2,3:2:0:0:
269,36,274307,5,2,3:2:0:0:
419,125,274466,1,2,3:2:0:0:
419,125,274626,1,2,0:2:0:0:
322,200,274786,1,0,3:0:0:0:
322,200,274839,1,2,3:2:0:0:
322,200,274892,1,0,3:0:0:0:
322,200,274946,5,10,0:2:0:0:
28,83,275105,1,10,0:2:0:0:
190,200,275265,1,10,0:2:0:0:
260,136,275424,1,2,0:2:0:0:
498,352,275584,6,0,B|438:402|349:274|274:348,1,210.000008010865,6|2,3:2|0:2,0:0:0:0:
164,371,276063,1,2,0:2:0:0:
164,371,276142,1,2,0:0:0:0:
164,371,276222,2,0,B|138:360|138:360|112:238,1,105.000004005432,12|0,0:2|0:0,0:0:0:0:
319,45,276541,5,2,0:2:0:0:
121,284,276701,1,2,3:2:0:0:
217,288,276860,2,0,B|195:196|302:209|224:53,1,210.000008010865,6|0,3:2|0:0,0:0:0:0:
0,324,277339,5,2,0:0:0:0:
12,351,277419,1,2,0:0:0:0:
15,379,277499,6,0,B|12:348|54:234|177:165|385:279|411:345,1,472.499985580445,14|0,0:2|0:0,0:0:0:0:
394,343,278137,5,6,3:2:0:0:
496,226,278297,1,2,0:0:0:0:
412,190,278456,2,0,P|397:107|380:30,1,157.500006008148,2|0,0:0|0:0,0:0:0:0:
311,11,278775,2,0,B|280:51|280:51|314:142,1,105.000004005432,12|0,0:2|0:0,0:0:0:0:
498,82,279094,5,2,0:2:0:0:
198,39,279254,1,2,3:2:0:0:
395,262,279414,1,4,3:2:0:0:
320,232,279573,2,0,B|259:226|299:184|186:192,1,105.000004005432,2|0,0:2|0:0,0:0:0:0:
226,191,280052,5,14,0:2:0:0:
265,376,280211,1,2,0:2:0:0:
253,268,280371,5,2,0:2:0:0:
209,330,280531,1,2,3:2:0:0:
26,169,280690,6,0,B|86:119|175:247|250:173,1,210.000008010865,6|0,3:2|0:0,0:0:0:0:
422,101,281169,1,2,0:2:0:0:
422,101,281248,1,2,0:0:0:0:
422,101,281328,2,0,B|411:127|411:127|289:153,1,105.000004005432,12|0,0:2|0:0,0:0:0:0:
189,39,281648,5,2,0:2:0:0:
387,278,281808,1,2,3:2:0:0:
291,282,281967,2,0,B|313:190|206:203|284:47,2,210.000008010865,6|2|14,3:2|0:2|0:2,0:0:0:0:
502,265,282765,5,2,0:0:0:0:
511,291,282844,1,2,0:0:0:0:
507,313,282924,6,0,P|430:308|370:356,1,157.500006008148,2|0,0:2|0:0,0:0:0:0:
382,368,283243,6,0,B|373:286|431:301|423:201,1,157.500006008148,6|0,3:2|0:0,0:0:0:0:
391,188,283563,5,2,0:2:0:0:
342,131,283722,1,0,0:0:0:0:
459,60,283882,6,0,B|432:29|432:29|328:63,1,105.000004005432,14|0,0:2|0:0,0:0:0:0:
197,89,284201,5,2,0:2:0:0:
140,40,284360,1,0,0:0:0:0:
69,162,284520,6,0,B|38:135|38:135|72:31,1,105.000004005432,6|0,3:2|0:0,0:0:0:0:
256,16,284839,5,10,0:2:0:0:
256,16,285158,1,10,0:2:0:0:
125,114,285318,1,2,3:2:0:0:
188,175,285477,2,0,B|150:182|153:219|93:226,1,83.9999974365235,2|0,0:2|3:0,0:0:0:0:
8,139,285797,6,0,P|87:103|464:291,1,503.999984619141,6|12,3:2|0:2,0:0:0:0:
440,252,286754,6,0,B|430:160|507:172|481:36,1,188.999994232178,2|0,0:2|0:0,0:0:0:0:
339,201,287073,2,0,B|329:293|406:281|380:417,1,188.999994232178,6|0,3:2|0:0,0:0:0:0:
511,372,287392,6,0,P|500:342|447:325,1,78.7500030040742
380,383,287711,6,0,B|295:397|327:318|208:343,1,168,14|0,0:2|0:0,0:0:0:0:
193,269,288031,6,0,B|106:254|100:346|17:309,1,188.999994232178,2|0,0:2|0:0,0:0:0:0:
18,310,288350,6,0,P|111:248|501:159,1,503.999984619141,6|12,3:2|0:2,0:0:0:0:
491,162,289307,2,0,P|475:141|464:89,1,62.9999980773926,2|0,0:2|0:0,0:0:0:0:
381,83,289467,2,0,P|393:59|435:27,1,62.9999980773926,2|0,0:2|0:0,0:0:0:0:
391,173,289626,2,0,B|286:167|329:83|191:103,1,188.999994232178,6|0,3:2|0:0,0:0:0:0:
165,53,289946,6,0,B|126:46|103:80|96:117|136:159,1,115.50000352478,2|0,0:2|0:0,0:0:0:0:
255,202,290265,6,0,B|220:170|129:193|96:285|141:342,1,188.999994232178,14|0,0:2|0:0,0:0:0:0:
25,256,290584,6,0,B|61:244|81:172|31:112|-26:121,1,157.500006008148,2|0,0:2|0:0,0:0:0:0:
29,260,290903,6,0,P|167:282|314:346,1,280,6|12,3:2|0:2,0:0:0:0:
300,339,291860,6,0,B|291:256|360:267|336:144,1,168,2|0,0:2|0:0,0:0:0:0:
159,182,292180,2,0,B|150:264|219:254|195:376,1,168,6|0,3:2|0:0,0:0:0:0:
256,200,292499,6,0,P|256:176|256:112,1,78.7500030040742
332,83,292818,6,0,B|348:39|461:76|432:217,1,188.999994232178,14|0,0:2|0:0,0:0:0:0:
368,249,293137,2,0,B|348:291|454:345|533:224,1,188.999994232178,2|0,0:2|0:0,0:0:0:0:
441,185,293456,6,0,P|302:187|-14:392,1,503.999984619141,6|12,3:2|0:2,0:0:0:0:
3,377,294414,2,0,P|19:356|30:304,1,62.9999980773926,2|0,0:2|0:0,0:0:0:0:
113,298,294574,2,0,P|100:274|58:242,1,62.9999980773926,2|0,0:2|0:0,0:0:0:0:
94,373,294733,5,10,3:2:0:0:
264,304,294952,5,0,3:0:0:0:
418,373,295172,5,2,3:2:0:0:
491,170,295392,5,10,3:2:0:0:
414,224,295612,5,0,3:0:0:0:
466,285,295831,5,0,3:0:0:0:
504,139,296051,6,0,P|425:103|48:291,1,503.999984619141,6|12,3:2|0:2,0:0:0:0:
72,252,297008,6,0,B|82:160|5:172|31:36,1,188.999994232178,2|0,0:2|0:0,0:0:0:0:
194,10,297327,2,0,B|204:102|127:90|153:226,1,188.999994232178,6|0,3:2|0:0,0:0:0:0:
20,300,297646,6,0,P|31:270|84:253,1,78.7500030040742
123,355,297965,6,0,B|225:361|194:269|328:291,1,210,14|0,0:2|0:0,0:0:0:0:
487,345,298285,6,0,B|417:344|366:290|388:209|431:177,1,210,2|0,0:2|0:0,0:0:0:0:
503,32,298604,6,0,P|379:108|14:169,1,503.999984619141,6|12,3:2|0:2,0:0:0:0:
27,166,299561,2,0,P|45:140|53:110,1,62.9999980773926,2|0,0:2|0:0,0:0:0:0:
150,89,299721,2,0,P|137:65|95:33,1,62.9999980773926,2|0,3:2|0:0,0:0:0:0:
140,179,299880,2,0,B|245:173|202:89|340:109,1,188.999994232178,6|0,3:2|0:0,0:0:0:0:
411,179,300199,6,0,B|379:225|379:225|289:185|289:185|251:255,1,199.499994672775,2|0,0:2|0:0,0:0:0:0:
345,331,300519,6,0,B|313:285|313:285|223:325|223:325|185:255,1,199.499994672775,14|0,0:2|0:0,0:0:0:0:
89,383,300838,6,0,B|135:351|135:351|95:261|95:261|165:223,1,199.499994672775,2|0,0:2|0:0,0:0:0:0:
34,328,301157,5,14,0:2:0:0:
7,256,301316,1,0,3:0:0:0:
166,86,301476,1,4,3:2:0:0:
126,146,301636,2,0,B|45:152|78:88|-14:102,1,140,10|0,0:2|3:0,0:0:0:0:
235,115,302114,5,14,0:2:0:0:
307,84,302274,1,0,3:0:0:0:
374,135,302433,1,6,3:2:0:0:
483,41,302593,1,10,0:2:0:0:
463,114,302753,5,6,3:2:0:0:
493,183,302913,1,0,3:0:0:0:
377,290,303072,5,14,0:2:0:0:
411,204,303232,1,2,3:2:0:0:
461,368,303391,5,10,0:2:0:0:
452,350,303471,1,8,0:2:0:0:
422,335,303551,1,10,0:2:0:0:
376,324,303630,1,10,0:2:0:0:
331,316,303710,5,10,3:2:0:0:
70,368,303870,1,10,3:2:0:0:
236,214,304029,5,10,3:2:0:0:
15,0,304189,1,10,3:2:0:0:
15,0,304668,5,2,3:2:0:0:
148,340,304828,1,2,3:2:0:0:
173,123,304987,5,2,3:2:0:0:
117,190,305147,1,2,3:2:0:0:
468,331,305465,5,0,3:0:0:0:
468,331,305518,1,0,3:0:0:0:
468,331,305571,1,0,3:0:0:0:
468,331,305625,5,2,3:2:0:0:
397,256,305838,5,2,3:2:0:0:
455,137,306051,5,2,3:2:0:0:
378,225,306263,6,0,B|274:193|305:291|172:258,1,181.999991668702,6|0,3:2|0:0,0:0:0:0:
13,241,306741,1,2,0:2:0:0:
119,380,306901,2,0,P|114:336|91:236,1,136.499993751526,4|0,0:2|0:0,0:0:0:0:
101,228,307221,6,0,P|100:193|130:156,1,78.7500030040742,2|0,3:2|0:0,0:0:0:0:
206,151,307540,6,0,B|113:132|174:59|38:52,1,175,12|0,0:2|0:0,0:0:0:0:
46,73,308019,6,0,P|108:57|221:38,1,175,2|0,0:0|0:0,0:0:0:0:
286,75,308497,2,0,P|348:91|457:90,1,159.249992710114,2|0,0:2|0:0,0:0:0:0:
512,66,308816,6,0,B|404:80|473:156|339:182,1,181.999991668702,6|0,3:2|0:0,0:0:0:0:
510,263,309294,1,2,3:2:0:0:
457,333,309455,2,0,P|373:313|338:312,1,90.9999958343508,4|0,0:2|0:0,0:0:0:0:
184,367,309774,1,2,3:2:0:0:
184,367,310093,2,0,P|209:309|123:240,2,181.999991668702,12|0|6,0:2|0:0|0:2,0:0:0:0:
33,173,311051,2,0,B|79:165|111:99|59:72,1,122.5,0|0,3:0|0:0,0:0:0:0:
0,48,311370,6,0,B|86:73|50:-2|158:22,1,140,6|0,3:2|0:0,0:0:0:0:
328,126,311848,1,2,3:2:0:0:
407,30,312008,2,0,P|419:116|430:160,1,105,6|0,0:2|0:0,0:0:0:0:
499,192,312327,1,2,3:2:0:0:
499,192,312646,2,0,P|446:169|384:246,2,140,14|0|4,0:2|0:0|0:2,0:0:0:0:
107,348,313604,1,0,0:0:0:0:
107,348,313764,1,2,0:2:0:0:
151,263,313923,6,0,P|186:283|204:323,2,70,14|0|0,0:2|3:0|3:0,0:0:0:0:
192,159,314402,2,0,P|212:124|252:106,2,70,10|4|0,0:2|3:2|3:0,0:0:0:0:
117,63,314881,2,0,P|82:43|64:3,2,70,10|2|4,0:2|3:2|3:2,0:0:0:0:
56,152,315359,2,0,P|36:187|-4:205,2,70,10|4|0,0:2|3:2|3:0,0:0:0:0:
195,37,315838,5,10,0:2:0:0:
252,135,315998,1,0,3:0:0:0:
405,47,316157,2,0,B|425:74|425:74|418:124|418:124|434:167,1,122.5,10|0,0:2|0:0,0:0:0:0:
456,238,316476,6,0,B|374:254|403:192|327:207,1,140,6|0,3:2|0:0,0:0:0:0:
373,25,316954,1,2,3:2:0:0:
320,96,317114,2,0,P|240:129|221:132,1,105,4|0,0:2|0:0,0:0:0:0:
183,116,317433,5,2,3:2:0:0:
17,18,317753,1,14,0:2:0:0:
83,110,317992,1,0,3:0:0:0:
33,203,318231,1,0,3:0:0:0:
256,192,318391,6,0,B|256:190|269:167|256:127,2,46.6666666666667,0|0|0,3:0|3:0|3:0,0:0:0:0:
256,192,318710,6,0,B|196:227|192:178|135:228,1,105,2|0,3:2|0:0,0:0:0:0:
327,139,319030,6,0,B|401:167|344:207|398:268,1,140,6|0,3:2|0:0,0:0:0:0:
512,306,319508,2,0,B|439:273|451:342|370:347,1,140,2|0,3:2|0:0,0:0:0:0:
276,294,319987,1,2,0:2:0:0:
89,360,320146,1,0,3:0:0:0:
89,360,320199,1,0,3:0:0:0:
89,360,320253,1,0,3:0:0:0:
89,360,320306,1,14,0:2:0:0:
255,307,320465,1,8,0:2:0:0:
172,253,320785,1,0,3:0:0:0:
256,184,320944,1,4,3:2:0:0:
314,230,321104,1,0,0:0:0:0:
256,80,321263,1,2,3:2:0:0:
256,80,321423,1,8,3:2:0:0:
94,229,321582,6,0,B|180:267|170:181|252:203,1,140,6|0,3:2|0:0,0:0:0:0:
403,44,322061,2,0,P|372:112|294:119,1,140,2|2,3:2|0:2,0:0:0:0:
191,50,322540,1,6,3:2:0:0:
271,8,322699,1,2,3:2:0:0:
437,157,322859,2,0,B|452:131|426:118|356:136|329:288|429:348,1,280,14|4,0:2|0:2,0:0:0:0:
64,16,324029,1,2,0:0:0:0:
64,16,324082,1,2,0:0:0:0:
64,16,324136,5,14,0:2:0:0:
22,87,324295,1,0,3:0:0:0:
87,168,324455,1,6,3:2:0:0:
259,68,324615,5,10,0:2:0:0:
188,26,324774,1,4,3:2:0:0:
107,91,324934,1,0,3:0:0:0:
259,248,325093,5,14,0:2:0:0:
183,38,325253,1,2,3:2:0:0:
262,229,325412,1,4,3:2:0:0:
169,159,325572,5,10,0:2:0:0:
105,301,325732,1,4,3:2:0:0:
171,172,325891,1,0,3:0:0:0:
318,313,326051,5,2,3:2:0:0:
330,315,326130,1,0,3:0:0:0:
342,317,326210,1,0,3:0:0:0:
354,319,326290,1,0,3:0:0:0:
364,320,326370,2,0,L|376:284,1,35,2|0,3:2|3:0,0:0:0:0:
449,268,326530,2,0,L|432:235,1,35,0|0,3:0|3:0,0:0:0:0:
330,206,326689,5,14,0:2:0:0:
240,161,326848,1,0,3:0:0:0:
118,289,327008,1,4,3:2:0:0:
215,141,327168,5,10,0:2:0:0:
269,73,327327,1,4,3:2:0:0:
228,272,327487,1,0,3:0:0:0:
132,23,327646,5,14,0:2:0:0:
342,99,327806,1,2,3:2:0:0:
151,20,327965,1,4,3:2:0:0:
244,174,328125,5,10,0:2:0:0:
90,175,328285,1,4,3:2:0:0:
252,149,328444,1,0,3:0:0:0:
375,360,328604,5,10,3:2:0:0:
163,242,328763,1,10,3:2:0:0:
423,75,328923,1,10,3:2:0:0:
143,378,329242,5,6,3:2:0:0:
256,192,329322,12,0,331715,0:0:0:0:
256,192,331795,12,14,333710,0:2:0:0:
345,338,333870,6,0,B|327:299|327:299|453:285,1,140,2|2,0:2|3:2,0:0:0:0:
424,289,334348,5,6,3:2:0:0:
455,57,334507,1,2,0:2:0:0:
368,98,334667,6,0,B|462:98|412:157|517:166,1,140,2|14,0:2|0:2,0:0:0:0:
487,161,335145,1,2,0:2:0:0:
417,216,335305,1,2,3:2:0:0:
311,158,335465,1,2,3:2:0:0:
311,158,335784,5,2,0:2:0:0:
242,103,335944,1,2,0:2:0:0:
136,161,336104,1,2,0:2:0:0:
201,232,336263,2,0,B|189:168|189:168|197:144|197:144|177:26,1,210,14|2,0:2|3:2,0:0:0:0:
9,223,336901,5,6,3:2:0:0:
266,186,337060,1,2,0:2:0:0:
201,232,337220,6,0,B|295:232|245:291|350:300,1,140,2|14,0:2|0:2,0:0:0:0:
320,295,337698,1,2,0:2:0:0:
391,241,337858,1,2,3:2:0:0:
496,299,338018,1,2,3:2:0:0:
496,299,338338,5,10,0:2:0:0:
442,228,338498,1,2,0:2:0:0:
493,129,338658,1,2,3:2:0:0:
493,117,338710,1,0,3:0:0:0:
495,105,338763,1,0,3:0:0:0:
503,95,338817,6,0,B|434:78|441:153|344:128,1,140,10|2,3:2|3:2,0:0:0:0:
236,13,339295,1,10,0:2:0:0:
375,60,339455,1,2,3:2:0:0:
327,197,339614,1,2,3:2:0:0:
177,100,339774,2,0,B|223:89|223:89|293:149,1,122.5,10|0,0:2|0:0,0:0:0:0:
263,156,340092,6,0,B|165:163|186:257|77:247,1,210,6|0,3:2|3:0,0:0:0:0:
10,125,340730,2,0,P|31:236|37:289,1,140,12|0,0:2|0:0,0:0:0:0:
12,340,341209,1,0,3:0:0:0:
60,272,341369,1,4,3:2:0:0:
60,272,341528,1,0,3:0:0:0:
154,368,341688,5,2,3:2:0:0:
84,297,341847,2,0,B|173:280|145:341|234:328,1,140,2|0,3:2|3:0,0:0:0:0:
354,300,342326,1,2,3:2:0:0:
271,259,342486,1,0,3:0:0:0:
423,366,342645,5,10,0:2:0:0:
392,232,342964,1,10,0:2:0:0:
368,160,343124,1,10,0:2:0:0:
328,32,343443,1,10,0:2:0:0:
328,32,343762,5,10,0:2:0:0:
200,64,344081,1,10,0:2:0:0:
128,88,344241,1,10,0:2:0:0:
0,128,344560,1,10,0:2:0:0:
74,191,344720,1,10,0:2:0:0:
0,128,344879,1,10,0:2:0:0:
65,272,345198,5,6,3:2:0:0:
86,237,345277,1,2,0:2:0:0:
118,222,345357,1,2,0:2:0:0:
152,220,345437,1,2,3:2:0:0:
193,240,345518,5,10,0:2:0:0:
233,266,345597,1,2,0:2:0:0:
275,266,345677,1,2,3:2:0:0:
313,251,345757,1,2,0:2:0:0:
345,217,345837,5,2,0:2:0:0:
375,176,345916,1,2,0:2:0:0:
350,120,345996,1,2,0:2:0:0:
312,80,346076,1,2,0:2:0:0:
312,80,346156,6,0,P|318:44|323:34,3,35,10|2|2|2,0:2|0:2|0:2|0:2,0:0:0:0:
403,164,346475,6,0,P|441:155|449:154,1,35,2|0,3:2|0:0,0:0:0:0:
511,200,346635,1,2,0:2:0:0:
511,200,346714,1,2,3:2:0:0:
511,200,346794,1,10,0:2:0:0:
481,218,346873,1,2,0:2:0:0:
457,243,346953,1,2,3:2:0:0:
446,276,347033,1,2,0:2:0:0:
426,305,347113,1,2,0:2:0:0:
398,325,347192,1,2,0:2:0:0:
354,331,347273,1,10,0:2:0:0:
306,328,347352,1,2,0:2:0:0:
277,291,347432,1,2,0:2:0:0:
287,244,347512,1,2,0:2:0:0:
329,222,347592,1,10,0:2:0:0:
373,239,347671,1,2,0:2:0:0:
396,286,347752,6,0,P|397:307|395:320,3,35,2|2|0|2,3:2|0:2|0:0|3:2,0:0:0:0:
422,197,348071,5,10,0:2:0:0:
392,157,348150,1,2,0:2:0:0:
352,142,348230,1,2,3:2:0:0:
311,144,348310,1,2,0:2:0:0:
265,172,348391,5,2,0:2:0:0:
220,207,348470,1,2,0:2:0:0:
170,211,348550,1,2,0:2:0:0:
115,195,348630,1,2,0:2:0:0:
95,173,348710,5,10,0:2:0:0:
78,138,348789,1,2,0:2:0:0:
100,102,348869,1,2,0:2:0:0:
143,104,348948,1,2,0:2:0:0:
176,143,349028,5,14,0:2:0:0:
175,156,349107,1,10,0:2:0:0:
174,170,349187,1,10,0:2:0:0:
173,184,349267,1,10,0:2:0:0:
172,198,349347,1,10,0:2:0:0:
151,232,349427,5,10,0:2:0:0:
151,242,349506,1,10,0:2:0:0:
152,253,349586,1,10,0:2:0:0:
153,264,349666,1,10,0:2:0:0:
154,276,349746,1,10,0:2:0:0:
166,285,349826,5,10,3:2:0:0:
166,293,349905,1,10,0:2:0:0:
165,301,349985,1,10,0:2:0:0:
164,310,350065,1,10,0:2:0:0:
163,320,350145,1,10,0:2:0:0:
162,333,350225,1,10,0:2:0:0:
161,342,350305,5,6,3:2:0:0:
473,227,350464,1,2,0:2:0:0:
452,192,350543,1,2,3:2:0:0:
420,177,350623,1,10,0:2:0:0:
386,175,350703,1,2,0:2:0:0:
345,195,350784,5,2,3:2:0:0:
305,221,350863,1,2,0:2:0:0:
263,221,350943,1,2,0:2:0:0:
225,206,351023,1,2,0:2:0:0:
193,172,351103,5,2,0:2:0:0:
163,131,351182,1,2,0:2:0:0:
188,75,351262,1,10,0:2:0:0:
226,35,351342,1,2,0:2:0:0:
226,35,351422,6,0,P|220:-1|215:-11,3,35,2|2|2|0,0:2|0:2|3:2|0:0,0:0:0:0:
119,54,351741,6,0,P|81:45|73:44,1,35,2|2,0:2|3:2,0:0:0:0:
23,132,351901,1,10,0:2:0:0:
23,132,351980,1,2,0:2:0:0:
23,132,352060,1,2,3:2:0:0:
66,136,352139,1,2,0:2:0:0:
99,164,352219,1,2,0:2:0:0:
122,201,352299,1,2,0:2:0:0:
156,204,352379,1,10,0:2:0:0:
105,196,352458,1,2,0:2:0:0:
61,223,352538,1,2,0:2:0:0:
44,272,352618,1,2,0:2:0:0:
61,320,352698,1,10,0:2:0:0:
103,342,352778,1,2,0:2:0:0:
151,324,352858,6,0,P|152:303|150:290,3,35,2|2|0|2,3:2|0:2|0:0|3:2,0:0:0:0:
166,141,353177,5,10,0:2:0:0:
196,101,353256,1,2,0:2:0:0:
236,86,353336,1,2,3:2:0:0:
277,88,353416,1,2,0:2:0:0:
323,116,353497,5,2,0:2:0:0:
368,151,353576,1,2,0:2:0:0:
418,155,353656,1,2,0:2:0:0:
473,139,353736,1,2,0:2:0:0:
493,117,353816,5,10,0:2:0:0:
510,82,353895,1,2,0:2:0:0:
500,37,353975,1,2,0:2:0:0:
445,17,354054,1,2,0:2:0:0:
411,48,354135,5,14,3:2:0:0:
412,61,354214,1,10,0:2:0:0:
413,75,354294,1,10,0:2:0:0:
414,89,354374,1,10,0:2:0:0:
415,103,354454,1,10,0:2:0:0:
426,124,354534,5,10,3:2:0:0:
426,134,354613,1,10,0:2:0:0:
425,145,354693,1,10,0:2:0:0:
424,156,354773,1,10,0:2:0:0:
423,168,354853,1,10,0:2:0:0:
414,181,354933,5,14,3:2:0:0:
414,189,355012,1,10,0:2:0:0:
415,197,355092,1,10,0:2:0:0:
416,206,355172,1,10,0:2:0:0:
417,216,355252,1,10,0:2:0:0:
418,229,355332,1,10,0:2:0:0:
428,241,355411,5,10,3:2:0:0:
428,248,355490,1,10,0:2:0:0:
427,255,355570,1,10,0:2:0:0:
426,263,355650,1,10,0:2:0:0:
425,272,355730,1,10,0:2:0:0:
421,282,355810,5,14,3:2:0:0:
421,287,355889,1,10,0:2:0:0:
421,293,355969,1,10,0:2:0:0:
422,299,356049,1,10,0:2:0:0:
423,306,356129,1,10,0:2:0:0:
428,316,356209,5,10,3:2:0:0:
428,319,356288,1,10,0:2:0:0:
428,322,356368,1,10,0:2:0:0:
428,326,356448,1,10,0:2:0:0:
429,331,356528,1,10,0:2:0:0:
429,336,356608,1,10,0:2:0:0:
426,371,356688,5,14,3:2:0:0:
377,359,356767,1,2,3:2:0:0:
337,330,356847,1,2,3:2:0:0:
299,298,356927,1,2,3:2:0:0:
250,290,357007,1,2,3:2:0:0:
192,324,357087,5,6,3:2:0:0:
132,302,357166,1,2,3:2:0:0:
104,239,357246,1,2,3:2:0:0:
109,166,357326,1,2,3:2:0:0:
172,134,357406,1,2,3:2:0:0:
237,164,357486,5,6,3:2:0:0:
257,160,357565,1,2,3:2:0:0:
278,156,357645,1,2,3:2:0:0:
299,152,357725,1,2,3:2:0:0:
319,149,357805,1,2,3:2:0:0:
340,145,357884,1,2,3:2:0:0:
385,172,357964,6,0,P|421:155|424:136,3,35,10|2|2|2,3:2|0:2|0:2|0:2,0:0:0:0:
504,86,358284,1,2,0:2:0:0:
478,110,358363,1,2,0:2:0:0:
465,142,358443,1,2,0:2:0:0:
466,176,358523,1,2,0:2:0:0:
482,208,358603,1,2,0:2:0:0:
499,227,358682,1,2,0:2:0:0:
508,252,358762,1,2,0:2:0:0:
508,278,358842,1,2,0:2:0:0:
498,308,358922,1,2,0:2:0:0:
490,313,359001,1,2,0:2:0:0:
485,320,359081,1,2,3:2:0:0:
482,328,359161,1,2,0:2:0:0:
512,384,359241,5,2,3:2:0:0:
