osu file format v14

[General]
AudioFilename: audio.mp3
AudioLeadIn: 0
PreviewTime: 244801
Countdown: 0
SampleSet: Soft
StackLeniency: 0.7
Mode: 0
LetterboxInBreaks: 0
WidescreenStoryboard: 1

[Editor]
Bookmarks: 31929,62568,90653,114748,140280,165811,186237,201556,221982,255158,275584,296051,329242
DistanceSpacing: 1.3
BeatDivisor: 4
GridSize: 4
TimelineZoom: 2.4

[Metadata]
Title:The Amateur Arsonist's Handbook
TitleUnicode:The Amateur Arsonist's Handbook
Artist:Thank You Scientist
ArtistUnicode:Thank You Scientist
Creator:wafer
Version:Collab Extra
Source:
Tags:tys featured artist fa alternative alt progressive prog rock Stranger Heads Prevail English dtm9 nowa cheri dj lucky hailie
BeatmapID:2474756
BeatmapSetID:1184482

[Difficulty]
HPDrainRate:4.5
CircleSize:4
OverallDifficulty:8.8
ApproachRate:8.6
SliderMultiplier:1.6
SliderTickRate:1

[Events]
//Background and Video events
0,0,"fire.jpg",0,0
//Break Periods
2,245146,254499
2,333910,337998
//Storyboard Layer 0 (Background)
//Storyboard Layer 1 (Fail)
//Storyboard Layer 2 (Pass)
//Storyboard Layer 3 (Foreground)
//Storyboard Layer 4 (Overlay)
//Storyboard Sound Samples

[TimingPoints]
15,319.148936170213,4,2,1,65,1,0
1929,-100,4,2,2,65,0,0
2089,-100,4,2,1,65,0,0
2408,-100,4,2,2,65,0,0
2568,-100,4,2,1,65,0,0
4483,319.148936170213,4,2,3,65,1,0
4642,-100,4,2,1,65,0,0
4961,-100,4,2,3,65,0,0
5759,-100,4,2,2,65,0,0
6397,-100,4,2,4,58,0,0
6876,-100,4,2,4,65,0,0
7036,-100,4,2,17,65,0,0
7674,-100,4,2,2,58,0,0
7834,-100,4,2,2,65,0,0
8233,-100,4,2,3,65,0,0
8312,-100,4,2,1,65,0,0
8951,-100,4,2,4,58,0,0
9589,-100,4,2,1,65,0,0
9908,-100,4,2,2,65,0,0
9988,-100,4,2,3,65,0,0
10227,-100,4,2,5,65,0,0
10865,-100,4,2,2,65,0,0
11025,-100,4,2,1,65,0,0
11185,-100,4,2,5,65,0,0
11663,-100,4,2,1,65,0,0
11983,-100,4,2,3,65,0,0
12142,-100,4,2,1,65,0,0
12302,-100,4,2,2,65,0,0
12461,-100,4,2,4,65,0,0
12621,-100,4,2,1,65,0,0
13259,-100,4,2,6,65,0,0
13419,324.324324324325,4,2,1,65,1,0
13419,-100,4,2,1,65,0,0
13738,-100,4,2,5,65,0,0
14067,312.5,4,2,1,65,1,0
14067,-100,4,2,1,65,0,0
14376,-100,4,2,4,65,0,0
14536,319.148936170213,4,2,1,65,1,0
14536,-100,4,2,1,65,0,0
15014,-100,4,2,4,65,0,0
15174,-100,4,2,1,65,0,0
15334,319.148936170213,4,2,7,65,1,0
15493,-100,4,2,3,65,0,0
15812,-100,4,2,7,65,0,0
15972,-100,4,2,3,65,0,0
16291,-100,4,2,6,58,0,0
16451,-100,4,2,6,65,0,0
16610,-100,4,2,2,65,0,0
17248,-100,4,2,4,58,0,0
17727,-100,4,2,4,65,0,0
17887,-100,4,2,17,65,0,0
18525,-100,4,2,2,58,0,0
18844,-100,4,2,2,65,0,0
19163,-100,4,2,1,65,0,0
19801,-100,4,2,4,58,0,0
20440,-100,4,2,4,65,0,0
20599,-100,4,2,4,58,0,0
20759,-100,4,2,5,65,0,0
20919,-100,4,2,2,58,0,0
21078,-100,4,2,2,65,0,0
21238,-100,4,2,2,58,0,0
21397,-100,4,2,8,65,0,0
21557,-100,4,2,2,58,0,0
21716,-100,4,2,1,65,0,0
22036,-100,4,2,9,65,0,0
22195,-133.333333333333,4,2,1,65,0,0
22674,-133.333333333333,4,2,9,65,0,0
22834,-133.333333333333,4,2,1,65,0,0
23312,-133.333333333333,4,2,2,58,0,0
23472,-133.333333333333,4,2,1,65,0,0
23951,-133.333333333333,4,2,9,65,0,0
24110,-133.333333333333,4,2,1,65,0,0
24589,-133.333333333333,4,2,2,58,0,0
24748,-133.333333333333,4,2,1,65,0,0
25227,-133.333333333333,4,2,2,58,0,0
25387,-133.333333333333,4,2,1,65,0,0
25865,-133.333333333333,4,2,2,58,0,0
26025,-133.333333333333,4,2,1,65,0,0
27461,-133.333333333333,4,2,4,58,0,0
27621,-133.333333333333,4,2,1,65,0,0
28099,-133.333333333333,4,2,3,52,0,0
28259,-133.333333333333,4,2,1,65,0,0
28738,-133.333333333333,4,2,6,58,0,0
28897,-133.333333333333,4,2,1,65,0,0
30014,-133.333333333333,4,2,4,58,0,0
30174,-133.333333333333,4,2,1,65,0,0
30653,-133.333333333333,4,2,7,52,0,0
30812,-133.333333333333,4,2,1,65,0,0
30891,-133.333333333333,4,2,2,58,0,0
30971,-133.333333333333,4,2,1,65,0,0
31291,-133.333333333333,4,2,10,65,0,0
31450,-133.333333333333,4,2,2,58,0,0
31610,-133.333333333333,4,2,1,65,0,0
31770,-133.333333333333,4,2,11,65,0,0
31929,-133.333333333333,4,2,12,65,0,0
32248,-133.333333333333,4,2,9,65,0,0
32408,-133.333333333333,4,2,1,65,0,0
32887,-133.333333333333,4,2,9,65,0,0
33046,-133.333333333333,4,2,1,65,0,0
33525,-133.333333333333,4,2,9,65,0,0
33685,-133.333333333333,4,2,1,65,0,0
34163,-133.333333333333,4,2,9,65,0,0
34323,-133.333333333333,4,2,1,65,0,0
34482,-133.333333333333,4,2,4,65,0,0
34642,-133.333333333333,4,2,1,65,0,0
34802,-133.333333333333,4,2,9,65,0,0
34961,-133.333333333333,4,2,1,65,0,0
35440,-133.333333333333,4,2,9,65,0,0
35599,-133.333333333333,4,2,1,65,0,0
36078,-133.333333333333,4,2,9,65,0,0
36238,-133.333333333333,4,2,1,65,0,0
36397,-133.333333333333,4,2,4,65,0,0
36557,-133.333333333333,4,2,1,65,0,0
36716,-133.333333333333,4,2,13,65,0,0
36876,-133.333333333333,4,2,1,65,0,0
37674,-133.333333333333,4,2,4,58,0,0
37834,-133.333333333333,4,2,1,65,0,0
38312,-133.333333333333,4,2,3,52,0,0
38472,-133.333333333333,4,2,10,65,0,0
38631,-133.333333333333,4,2,1,65,0,0
38951,-133.333333333333,4,2,4,58,0,0
39110,-133.333333333333,4,2,1,65,0,0
42142,-125,4,2,12,55,0,0
42302,-125,4,2,14,55,0,0
42461,-125,4,2,3,55,0,0
42780,-125,4,2,6,50,0,0
42940,-125,4,2,6,55,0,0
43099,-125,4,2,3,55,0,0
43897,-125,4,2,15,55,0,0
44057,-125,4,2,6,50,0,0
44216,-125,4,2,6,55,0,0
44695,-125,4,2,15,55,0,0
44855,-125,4,2,6,55,0,0
45014,-125,4,2,3,55,0,0
45334,-125,4,2,14,55,0,0
45493,-125,4,2,15,55,0,0
45653,-125,4,2,3,55,0,0
46929,-125,4,2,15,55,0,0
47089,-125,4,2,3,55,0,0
47408,-125,4,2,15,55,0,0
47568,-125,4,2,3,55,0,0
47727,-125,4,2,15,55,0,0
47887,-125,4,2,2,50,0,0
48046,-125,4,2,15,55,0,0
48206,-125,4,2,3,55,0,0
48365,-125,4,2,6,55,0,0
48525,-125,4,2,15,55,0,0
48844,-125,4,2,3,55,0,0
49802,-125,4,2,12,55,0,0
50440,-125,4,2,1,55,0,0
52195,-125,4,2,6,55,0,0
52355,-125,4,2,16,55,0,0
53472,-125,4,2,6,55,0,0
53631,-125,4,2,3,55,0,0
53791,-125,4,2,6,55,0,0
53951,-125,4,2,16,55,0,0
54748,-125,4,2,6,55,0,0
54908,-125,4,2,17,55,0,0
56025,-125,4,2,6,55,0,0
56185,-125,4,2,3,55,0,0
57142,-125,4,2,18,55,0,0
57302,-125,4,2,3,55,0,0
57461,-125,4,2,19,55,0,0
57621,-125,4,2,1,55,0,0
58099,-125,4,2,3,55,0,0
58419,-125,4,2,1,55,0,0
58578,-125,4,2,6,55,0,0
58738,-125,4,2,3,55,0,0
59057,-125,4,2,1,55,0,0
59376,-125,4,2,3,55,0,0
59695,-125,4,2,6,55,0,0
59855,-125,4,2,1,55,0,0
60014,-125,4,2,1,45,0,0
60174,-125,4,2,2,40,0,0
60334,-125,4,2,2,50,0,0
60493,-125,4,2,2,45,0,0
60653,-125,4,2,15,55,0,0
60972,-125,4,2,15,60,0,0
61131,-125,4,2,3,60,0,0
61291,-125,4,2,3,65,0,0
61610,-125,4,2,3,70,0,0
61929,-125,4,2,3,75,0,0
62568,-90.9090909090909,4,2,2,85,0,0
62887,-90.9090909090909,4,2,1,85,0,0
63046,-90.9090909090909,4,2,3,85,0,0
63206,-90.9090909090909,4,2,9,85,0,0
63526,-90.9090909090909,4,2,20,85,0,0
63844,-90.9090909090909,4,2,1,85,0,0
64004,-90.9090909090909,4,2,6,85,0,0
64163,-90.9090909090909,4,2,1,85,0,0
64482,-90.9090909090909,4,2,6,76,0,0
64802,-90.9090909090909,4,2,4,85,0,0
64961,-90.9090909090909,4,2,4,76,0,0
65121,-90.9090909090909,4,2,2,85,0,0
65440,-90.9090909090909,4,2,1,85,0,0
65600,-90.9090909090909,4,2,2,85,0,0
65759,-90.9090909090909,4,2,2,76,0,0
66079,-90.9090909090909,4,2,20,85,0,0
66397,-90.9090909090909,4,2,1,85,0,0
66557,-90.9090909090909,4,2,6,85,0,0
66716,-90.9090909090909,4,2,1,85,0,0
67036,-90.9090909090909,4,2,16,85,0,0
67514,-90.9090909090909,4,2,2,76,0,0
67674,-90.9090909090909,4,2,12,85,0,0
67993,-90.9090909090909,4,2,1,85,0,0
68153,-90.9090909090909,4,2,15,85,0,0
68312,-90.9090909090909,4,2,21,85,0,0
68472,-90.9090909090909,4,2,3,85,0,0
68631,-90.9090909090909,4,2,22,85,0,0
68711,-90.9090909090909,4,2,14,85,0,0
68791,-90.9090909090909,4,2,15,85,0,0
68951,-90.9090909090909,4,2,22,85,0,0
69111,-90.9090909090909,4,2,2,76,0,0
69270,-90.9090909090909,4,2,1,85,0,0
69589,-90.9090909090909,4,2,9,85,0,0
69748,-90.9090909090909,4,2,3,85,0,0
69908,-90.9090909090909,4,2,1,85,0,0
70068,-90.9090909090909,4,2,3,85,0,0
70228,-90.9090909090909,4,2,5,85,0,0
71345,-90.9090909090909,4,2,1,85,0,0
71664,-90.9090909090909,4,2,5,85,0,0
72142,-90.9090909090909,4,2,1,85,0,0
72780,-90.9090909090909,4,2,2,85,0,0
73099,-90.9090909090909,4,2,1,85,0,0
73260,-90.9090909090909,4,2,2,85,0,0
73418,-90.9090909090909,4,2,2,76,0,0
73738,-90.9090909090909,4,2,20,85,0,0
74057,-90.9090909090909,4,2,21,85,0,0
74216,-90.9090909090909,4,2,6,85,0,0
74375,-90.9090909090909,4,2,2,85,0,0
74694,-90.9090909090909,4,2,2,76,0,0
75014,-90.9090909090909,4,2,21,85,0,0
75173,-90.9090909090909,4,2,2,76,0,0
75334,-90.9090909090909,4,2,5,85,0,0
75652,-90.9090909090909,4,2,1,85,0,0
75813,-90.9090909090909,4,2,2,85,0,0
75971,-90.9090909090909,4,2,2,76,0,0
76292,-90.9090909090909,4,2,20,85,0,0
76610,-90.9090909090909,4,2,21,85,0,0
76769,-90.9090909090909,4,2,6,85,0,0
76928,-90.9090909090909,4,2,1,85,0,0
77247,-90.9090909090909,4,2,6,76,0,0
77568,-90.9090909090909,4,2,1,85,0,0
77726,-90.9090909090909,4,2,2,76,0,0
77887,-90.9090909090909,4,2,2,85,0,0
78205,-90.9090909090909,4,2,1,85,0,0
78366,-90.9090909090909,4,2,2,85,0,0
78524,-90.9090909090909,4,2,9,85,0,0
78685,-90.9090909090909,4,2,14,85,0,0
78845,-90.9090909090909,4,2,20,85,0,0
79004,-90.9090909090909,4,2,15,85,0,0
79084,-90.9090909090909,4,2,14,85,0,0
79163,-90.9090909090909,4,2,22,85,0,0
79323,-90.9090909090909,4,2,6,85,0,0
79482,-90.9090909090909,4,2,1,85,0,0
79801,-90.9090909090909,4,2,9,85,0,0
80120,-90.9090909090909,4,2,1,85,0,0
80440,-90.9090909090909,4,2,5,85,0,0
80759,-90.9090909090909,4,2,1,85,0,0
80919,-90.9090909090909,4,2,5,85,0,0
81557,-90.9090909090909,4,2,1,85,0,0
81876,-90.9090909090909,4,2,5,85,0,0
82355,-90.9090909090909,4,2,10,85,0,0
82514,-90.9090909090909,4,2,1,85,0,0
82674,-90.9090909090909,4,2,10,85,0,0
82834,-90.9090909090909,4,2,5,85,0,0
84110,-90.9090909090909,4,2,1,85,0,0
84429,-90.9090909090909,4,2,5,85,0,0
84908,-90.9090909090909,4,2,10,85,0,0
85067,-90.9090909090909,4,2,1,85,0,0
85227,-90.9090909090909,4,2,10,85,0,0
85387,-90.9090909090909,4,2,12,85,0,0
85546,-90.9090909090909,4,2,12,75,0,0
85706,-90.9090909090909,4,2,1,75,0,0
86185,-90.9090909090909,4,2,23,75,0,0
86344,-90.9090909090909,4,2,1,75,0,0
86504,-90.9090909090909,4,2,24,75,0,0
86663,-90.9090909090909,4,2,1,75,0,0
87461,-90.9090909090909,4,2,9,75,0,0
87621,-90.9090909090909,4,2,1,75,0,0
87780,-90.9090909090909,4,2,4,75,0,0
87940,-90.9090909090909,4,2,12,75,0,0
88259,-90.9090909090909,4,2,1,75,0,0
88418,-90.9090909090909,4,2,4,75,0,0
88578,-90.9090909090909,4,2,1,75,0,0
88738,-90.9090909090909,4,2,23,75,0,0
88897,-90.9090909090909,4,2,1,75,0,0
89057,-90.9090909090909,4,2,23,75,0,0
89216,-90.9090909090909,4,2,1,75,0,0
89695,-90.9090909090909,4,2,4,75,0,0
89855,-90.9090909090909,4,2,10,75,0,0
90653,-153.846153846154,4,2,1,65,0,0
91451,319.148936170213,4,2,1,65,1,0
91451,-153.846153846154,4,2,1,65,0,0
92248,319.148936170213,4,2,1,65,1,0
92248,-153.846153846154,4,2,1,65,0,0
93046,319.148936170213,4,2,1,65,1,0
93365,-100,4,2,4,65,0,0
93524,-100,4,2,1,65,0,0
93684,-100,4,2,13,65,0,0
93843,-100,4,2,12,65,0,0
94322,-111.111111111111,4,2,24,65,0,0
94482,-111.111111111111,4,2,1,65,0,0
94641,-111.111111111111,4,2,4,58,0,0
94801,-111.111111111111,4,2,4,65,0,0
95280,-111.111111111111,4,2,4,58,0,0
95439,-111.111111111111,4,2,4,65,0,0
95918,-111.111111111111,4,2,4,58,0,0
96077,-111.111111111111,4,2,4,65,0,0
96556,-111.111111111111,4,2,4,58,0,0
96716,-111.111111111111,4,2,4,65,0,0
97035,-111.111111111111,4,2,23,65,0,0
97194,-111.111111111111,4,2,24,65,0,0
97354,-111.111111111111,4,2,4,65,0,0
97833,-111.111111111111,4,2,4,58,0,0
97992,-111.111111111111,4,2,4,65,0,0
98311,-111.111111111111,4,2,1,65,0,0
98471,-111.111111111111,4,2,2,58,0,0
98631,-111.111111111111,4,2,1,65,0,0
98790,-111.111111111111,4,2,10,65,0,0
98950,-111.111111111111,4,2,1,65,0,0
99428,-100,4,2,12,75,0,0
100067,-100,4,2,3,68,0,0
100226,-100,4,2,1,75,0,0
100386,-100,4,2,3,60,0,0
100546,-100,4,2,1,75,0,0
101663,-100,4,2,3,60,0,0
101822,-100,4,2,1,75,0,0
101982,-100,4,2,3,60,0,0
102141,-100,4,2,1,75,0,0
103258,-100,4,2,3,60,0,0
103418,-100,4,2,1,75,0,0
103577,-100,4,2,3,60,0,0
103737,-100,4,2,1,75,0,0
104375,-100,4,2,24,75,0,0
104535,-100,4,2,1,75,0,0
105173,-100,4,2,4,68,0,0
105333,-100,4,2,1,75,0,0
105812,-100,4,2,3,60,0,0
105971,-100,4,2,1,75,0,0
107727,-100,4,2,4,68,0,0
107886,-100,4,2,1,75,0,0
108365,-100,4,2,3,60,0,0
108524,-100,4,2,1,75,0,0
109322,-100,4,2,10,75,0,0
109641,-100,4,2,17,75,0,0
110280,-100,4,2,4,68,0,0
110439,-100,4,2,3,75,0,0
110599,-100,4,2,3,60,0,0
110758,-100,4,2,3,75,0,0
110918,-100,4,2,17,75,0,0
111876,-100,4,2,3,60,0,0
112035,-100,4,2,3,75,0,0
112195,-100,4,2,3,60,0,0
112354,-100,4,2,3,75,0,0
112514,-100,4,2,17,75,0,0
113471,-100,4,2,3,60,0,0
113631,-100,4,2,3,75,0,0
114109,-100,4,2,17,75,0,0
114748,-100,4,2,17,65,0,0
115226,-100,4,2,15,65,0,0
115386,-100,4,2,3,65,0,0
115546,-100,4,2,15,65,0,0
115705,-100,4,2,3,65,0,0
115865,-100,4,2,15,65,0,0
116024,-100,4,2,3,65,0,0
116184,-100,4,2,15,65,0,0
116503,-100,4,2,3,65,0,0
116663,-100,4,2,15,65,0,0
117141,-100,4,2,3,65,0,0
117301,-100,4,2,15,65,0,0
117460,-100,4,2,3,65,0,0
117620,-100,4,2,15,65,0,0
117939,-100,4,2,3,65,0,0
118099,-100,4,2,15,65,0,0
118258,-100,4,2,2,58,0,0
118418,-100,4,2,3,65,0,0
118577,-100,4,2,2,58,0,0
118737,-100,4,2,3,65,0,0
119216,-100,4,2,1,65,0,0
119854,-133.333333333333,4,2,12,65,0,0
120014,-133.333333333333,4,2,14,65,0,0
120173,-133.333333333333,4,2,3,65,0,0
120492,-133.333333333333,4,2,6,58,0,0
120652,-133.333333333333,4,2,6,65,0,0
120811,-133.333333333333,4,2,3,65,0,0
121609,-133.333333333333,4,2,15,65,0,0
121769,-133.333333333333,4,2,6,58,0,0
121928,-133.333333333333,4,2,6,65,0,0
122407,-133.333333333333,4,2,15,65,0,0
122567,-133.333333333333,4,2,6,65,0,0
122726,-133.333333333333,4,2,3,65,0,0
123046,-133.333333333333,4,2,14,65,0,0
123205,-133.333333333333,4,2,15,65,0,0
123365,-133.333333333333,4,2,3,65,0,0
124641,-133.333333333333,4,2,15,65,0,0
124801,-133.333333333333,4,2,3,65,0,0
125120,-133.333333333333,4,2,15,65,0,0
125280,-133.333333333333,4,2,3,65,0,0
125439,-133.333333333333,4,2,15,65,0,0
125599,-133.333333333333,4,2,2,58,0,0
125758,-133.333333333333,4,2,15,65,0,0
125918,-133.333333333333,4,2,3,65,0,0
126077,-133.333333333333,4,2,6,65,0,0
126237,-133.333333333333,4,2,15,65,0,0
126556,-133.333333333333,4,2,3,65,0,0
127514,-133.333333333333,4,2,12,65,0,0
128152,-133.333333333333,4,2,1,65,0,0
129907,-133.333333333333,4,2,6,65,0,0
130067,-133.333333333333,4,2,16,65,0,0
131184,-133.333333333333,4,2,6,65,0,0
131343,-133.333333333333,4,2,3,65,0,0
131503,-133.333333333333,4,2,6,65,0,0
131663,-133.333333333333,4,2,16,65,0,0
132460,-133.333333333333,4,2,6,65,0,0
132620,-133.333333333333,4,2,17,65,0,0
133258,-133.333333333333,4,2,14,65,0,0
133418,-133.333333333333,4,2,3,65,0,0
133737,-133.333333333333,4,2,6,65,0,0
133897,-133.333333333333,4,2,15,65,0,0
134056,-133.333333333333,4,2,3,65,0,0
134535,-133.333333333333,4,2,14,65,0,0
134694,-133.333333333333,4,2,3,65,0,0
134854,-133.333333333333,4,2,18,65,0,0
135014,-133.333333333333,4,2,3,65,0,0
135173,-133.333333333333,4,2,19,65,0,0
135333,-133.333333333333,4,2,1,65,0,0
135811,-133.333333333333,4,2,3,65,0,0
136131,-133.333333333333,4,2,1,65,0,0
136290,-133.333333333333,4,2,6,65,0,0
136450,-133.333333333333,4,2,3,65,0,0
136769,-133.333333333333,4,2,1,65,0,0
137088,-133.333333333333,4,2,3,65,0,0
137407,-133.333333333333,4,2,6,65,0,0
137567,-133.333333333333,4,2,1,65,0,0
137726,-133.333333333333,4,2,1,45,0,0
137886,-133.333333333333,4,2,2,40,0,0
138046,-133.333333333333,4,2,2,50,0,0
138205,-133.333333333333,4,2,2,45,0,0
138365,-133.333333333333,4,2,15,55,0,0
138684,-133.333333333333,4,2,15,60,0,0
138843,-133.333333333333,4,2,3,60,0,0
139003,-133.333333333333,4,2,3,65,0,0
139322,-133.333333333333,4,2,3,70,0,0
139641,-133.333333333333,4,2,3,75,0,0
140280,-90.9090909090909,4,2,2,85,0,0
140599,-90.9090909090909,4,2,1,85,0,0
140758,-90.9090909090909,4,2,3,85,0,0
140918,-90.9090909090909,4,2,9,85,0,0
141238,-90.9090909090909,4,2,20,85,0,0
141556,-90.9090909090909,4,2,1,85,0,0
141716,-90.9090909090909,4,2,6,85,0,0
141875,-90.9090909090909,4,2,1,85,0,0
142194,-90.9090909090909,4,2,4,76,0,0
142514,-90.9090909090909,4,2,1,85,0,0
142673,-90.9090909090909,4,2,2,76,0,0
142833,-90.9090909090909,4,2,2,85,0,0
143152,-90.9090909090909,4,2,1,85,0,0
143312,-90.9090909090909,4,2,5,85,0,0
143471,-90.9090909090909,4,2,2,76,0,0
143791,-90.9090909090909,4,2,20,85,0,0
144109,-90.9090909090909,4,2,1,85,0,0
144269,-90.9090909090909,4,2,6,85,0,0
144428,-90.9090909090909,4,2,17,85,0,0
145067,-90.9090909090909,4,2,1,85,0,0
145226,-90.9090909090909,4,2,2,76,0,0
145386,-90.9090909090909,4,2,12,85,0,0
145705,-90.9090909090909,4,2,1,85,0,0
145865,-90.9090909090909,4,2,15,85,0,0
146024,-90.9090909090909,4,2,3,85,0,0
146343,-90.9090909090909,4,2,22,85,0,0
146423,-90.9090909090909,4,2,14,85,0,0
146503,-90.9090909090909,4,2,15,85,0,0
146663,-90.9090909090909,4,2,22,85,0,0
146823,-90.9090909090909,4,2,2,76,0,0
146982,-90.9090909090909,4,2,1,85,0,0
147301,-90.9090909090909,4,2,9,85,0,0
147460,-90.9090909090909,4,2,3,85,0,0
147620,-90.9090909090909,4,2,1,85,0,0
147780,-90.9090909090909,4,2,3,85,0,0
147940,-90.9090909090909,4,2,5,85,0,0
149057,-90.9090909090909,4,2,1,85,0,0
149376,-90.9090909090909,4,2,5,85,0,0
149854,-90.9090909090909,4,2,1,85,0,0
150492,-90.9090909090909,4,2,2,85,0,0
150811,-90.9090909090909,4,2,1,85,0,0
150972,-90.9090909090909,4,2,2,85,0,0
151130,-90.9090909090909,4,2,9,85,0,0
151450,-90.9090909090909,4,2,20,85,0,0
151769,-90.9090909090909,4,2,21,85,0,0
151928,-90.9090909090909,4,2,6,85,0,0
152087,-90.9090909090909,4,2,1,85,0,0
152406,-90.9090909090909,4,2,2,76,0,0
152726,-90.9090909090909,4,2,21,85,0,0
152885,-90.9090909090909,4,2,2,76,0,0
153046,-90.9090909090909,4,2,5,85,0,0
153364,-90.9090909090909,4,2,1,85,0,0
153525,-90.9090909090909,4,2,2,85,0,0
153683,-90.9090909090909,4,2,2,76,0,0
154004,-90.9090909090909,4,2,20,85,0,0
154322,-90.9090909090909,4,2,21,85,0,0
154481,-90.9090909090909,4,2,6,85,0,0
154640,-90.9090909090909,4,2,1,85,0,0
154959,-90.9090909090909,4,2,6,76,0,0
155280,-90.9090909090909,4,2,4,85,0,0
155438,-90.9090909090909,4,2,4,76,0,0
155599,-90.9090909090909,4,2,5,85,0,0
155917,-90.9090909090909,4,2,1,85,0,0
156078,-90.9090909090909,4,2,2,85,0,0
156236,-90.9090909090909,4,2,9,85,0,0
156397,-90.9090909090909,4,2,14,85,0,0
156557,-90.9090909090909,4,2,20,85,0,0
156716,-90.9090909090909,4,2,15,85,0,0
156796,-90.9090909090909,4,2,14,85,0,0
156875,-90.9090909090909,4,2,22,85,0,0
157035,-90.9090909090909,4,2,2,76,0,0
157194,-90.9090909090909,4,2,1,85,0,0
157513,-90.9090909090909,4,2,9,85,0,0
157832,-90.9090909090909,4,2,1,85,0,0
158152,-90.9090909090909,4,2,8,85,0,0
158311,-90.9090909090909,4,2,1,85,0,0
158631,-90.9090909090909,4,2,5,85,0,0
159269,-90.9090909090909,4,2,1,85,0,0
159588,-90.9090909090909,4,2,5,85,0,0
160067,-90.9090909090909,4,2,10,85,0,0
160226,-90.9090909090909,4,2,1,85,0,0
160386,-90.9090909090909,4,2,10,85,0,0
160546,-90.9090909090909,4,2,1,85,0,0
160705,-90.9090909090909,4,2,8,85,0,0
160865,-90.9090909090909,4,2,5,85,0,0
161822,-90.9090909090909,4,2,1,85,0,0
162141,-90.9090909090909,4,2,5,85,0,0
162620,-90.9090909090909,4,2,10,85,0,0
162779,-90.9090909090909,4,2,1,85,0,0
162939,-90.9090909090909,4,2,10,85,0,0
163099,-90.9090909090909,4,2,1,85,0,0
163258,-90.9090909090909,4,2,1,65,0,0
163897,-90.9090909090909,4,2,24,65,0,0
164375,-90.9090909090909,4,2,1,65,0,0
164535,-90.9090909090909,4,2,25,65,0,0
164694,-90.9090909090909,4,2,10,65,0,0
165333,-90.9090909090909,4,2,26,65,0,0
165811,-100,4,2,12,65,0,0
166051,-100,4,2,1,65,0,0
166450,-100,4,2,6,58,0,0
166530,-100,4,2,6,65,0,0
166609,-100,4,2,6,58,0,0
166689,-100,4,2,7,65,0,0
166849,-100,4,2,2,58,0,0
167088,-100,4,2,2,65,0,0
167327,-100,4,2,5,65,0,0
167726,-100,4,2,6,65,0,0
167885,-100,4,2,6,58,0,0
168524,-100,4,2,2,65,0,0
168843,-100,4,2,5,65,0,0
169082,-100,4,2,2,58,0,0
169322,-100,4,2,8,65,0,0
169482,-100,4,2,6,65,0,0
169801,-100,4,2,2,65,0,0
170120,-100,4,2,5,65,0,0
170599,-100,4,2,3,65,0,0
170918,-100,4,2,12,65,0,0
171158,-100,4,2,1,65,0,0
171556,-100,4,2,2,58,0,0
171663,-100,4,2,2,65,0,0
171769,-100,4,2,2,58,0,0
171875,-100,4,2,6,65,0,0
171982,-100,4,2,6,58,0,0
172195,-100,4,2,20,65,0,0
172434,-100,4,2,27,65,0,0
172833,-100,4,2,9,65,0,0
172912,-100,4,2,6,58,0,0
173071,-100,4,2,6,65,0,0
173631,-100,4,2,2,65,0,0
173950,-100,4,2,5,65,0,0
174189,-100,4,2,6,58,0,0
174428,-100,4,2,6,65,0,0
174908,-100,4,2,5,65,0,0
175706,-100,4,2,1,65,0,0
176024,-100,4,2,12,75,0,0
176343,-100,4,2,4,75,0,0
176663,348.837209302326,4,2,21,75,1,0
176663,-100,4,2,21,75,0,0
177012,309.278350515464,4,2,21,75,1,0
177321,309.278350515464,4,2,21,75,1,0
177321,-100,4,2,12,75,0,0
177620,-100,4,2,1,75,0,0
177939,319.148936170213,4,2,21,75,1,0
177939,-100,4,2,21,75,0,0
178099,-100,4,2,6,75,0,0
178258,340.909090909092,4,2,6,75,1,0
178258,-100,4,2,6,75,0,0
178427,301.507537688443,4,2,19,75,1,0
178427,-100,4,2,19,75,0,0
178577,348.837209302327,4,2,19,75,1,0
178577,-100,4,2,19,75,0,0
178751,317.460317460318,4,2,12,75,1,0
178751,-100,4,2,12,75,0,0
179216,-100,4,2,16,75,0,0
179535,-100,4,2,21,75,0,0
179862,317.460317460318,4,2,12,75,1,0
179862,-100,4,2,1,75,0,0
180020,312.500000000001,4,2,12,75,1,0
180020,-100,4,2,12,75,0,0
180332,319.148936170213,4,2,12,75,1,0
180492,-100,4,2,10,75,0,0
180651,-100,4,2,1,75,0,0
180811,-100,4,2,10,75,0,0
180971,-100,4,2,8,75,0,0
181130,346.820809248556,4,2,12,75,1,0
181131,-100,4,2,12,75,0,0
181389,294.117647058823,4,2,12,75,1,0
181462,-100,4,2,21,75,0,0
181608,357.142857142857,4,2,21,75,1,0
181788,319.148936170213,4,2,21,75,1,0
182426,331.491712707183,4,2,12,75,1,0
182426,-100,4,2,12,75,0,0
182675,307.692307692308,4,2,12,75,1,0
182675,-100,4,2,1,75,0,0
182904,284.36018957346,4,2,1,75,1,0
183044,319.148936170213,4,2,21,75,1,0
183044,-100,4,2,21,75,0,0
183203,-100,4,2,2,68,0,0
183363,-100,4,2,21,75,0,0
183444,-100,4,2,6,75,0,0
183682,324.324324324325,4,2,8,75,1,0
183682,-100,4,2,8,75,0,0
183843,-100,4,2,12,75,0,0
184330,314.136125654451,4,2,16,75,1,0
184330,-100,4,2,16,75,0,0
184641,-100,4,2,2,75,0,0
184720,-100,4,2,2,68,0,0
184958,319.148936170213,4,2,2,68,1,0
184958,-100,4,2,2,68,0,0
185114,-100,4,2,12,75,0,0
185436,-100,4,2,28,75,0,0
185596,-100,4,2,16,75,0,0
185915,329.67032967033,4,2,18,75,1,0
185915,-100,4,2,18,75,0,0
186244,309.278350515464,4,2,2,75,1,0
186244,-100,4,2,2,75,0,0
186476,-100,4,2,1,75,0,0
186707,352.941176470589,4,2,1,75,1,0
186875,-100,4,2,21,75,0,0
186882,314.136125654451,4,2,21,75,1,0
187511,324.324324324324,4,2,12,75,1,0
187511,-100,4,2,12,75,0,0
187830,-100,4,2,1,75,0,0
187835,-100,4,2,1,75,0,0
188159,319.148936170213,4,2,12,75,1,0
188159,-100,4,2,9,75,0,0
188311,-100,4,2,6,75,0,0
188631,-100,4,2,9,75,0,0
188797,300,4,2,12,75,1,0
188797,-100,4,2,9,75,0,0
188946,319.148936170213,4,2,12,75,1,0
188946,-100,4,2,2,75,0,0
189265,-100,4,2,1,75,0,0
189424,333.333333333333,4,2,12,75,1,0
189424,-100,4,2,8,75,0,0
189758,315.789473684211,4,2,12,75,1,0
189758,-100,4,2,21,75,0,0
190073,319.148936170213,4,2,12,75,1,0
190073,-100,4,2,1,75,0,0
190226,-100,4,2,2,75,0,0
190545,-100,4,2,1,75,0,0
190711,297.029702970297,4,2,12,75,1,0
190711,-100,4,2,5,75,0,0
190860,322.580645161291,4,2,12,75,1,0
191021,344.827586206897,4,2,12,75,1,0
191021,-100,4,2,29,75,0,0
191365,304.568527918782,4,2,12,75,1,0
191365,-100,4,2,12,75,0,0
191663,-100,4,2,1,75,0,0
191821,377.358490566038,4,2,12,75,1,0
191821,-100,4,2,1,75,0,0
192010,314.136125654451,4,2,12,75,1,0
192010,-100,4,2,21,75,0,0
192141,-100,4,2,3,75,0,0
192301,-100,4,2,1,75,0,0
192381,-100,4,2,3,75,0,0
192481,288.461538461539,4,2,12,75,1,0
192625,314.136125654451,4,2,12,75,1,0
192625,-100,4,2,12,75,0,0
193253,319.148936170213,4,2,12,75,1,0
193253,-100,4,2,1,75,0,0
193412,-100,4,2,6,75,0,0
193891,319.148936170213,4,2,12,75,1,0
193891,-100,4,2,7,75,0,0
194051,-100,4,2,12,75,0,0
194370,-100,4,2,10,75,0,0
194530,-100,4,2,16,75,0,0
194849,-100,4,2,2,75,0,0
194928,-100,4,2,2,68,0,0
195327,304.568527918782,4,2,2,68,1,0
195327,-100,4,2,12,75,0,0
195631,324.324324324325,4,2,12,75,1,0
195795,329.67032967033,4,2,12,75,1,0
196125,319.148936170213,4,2,12,75,1,0
196204,-100,4,2,2,68,0,0
196444,319.148936170213,4,2,2,68,1,0
196597,-100,4,2,12,85,0,0
197481,-100,4,2,2,76,0,0
197880,-100,4,2,12,85,0,0
198997,-100,4,2,3,65,0,0
201550,-100,4,2,12,75,0,0
201869,-100,4,2,12,75,0,0
202188,-100,4,2,2,68,0,0
202348,-100,4,2,2,75,0,0
202827,-100,4,2,2,68,0,0
202986,-100,4,2,1,75,0,0
203465,-100,4,2,2,68,0,0
203625,-100,4,2,2,75,0,0
204103,-100,4,2,1,75,0,0
206497,-100,4,2,2,68,0,0
206657,-100,4,2,12,75,0,0
206816,-100,4,2,24,75,0,0
206976,-100,4,2,1,75,0,0
207774,-100,4,2,24,75,0,0
207933,-100,4,2,1,75,0,0
208571,-100,4,2,2,68,0,0
209210,-100,4,2,2,75,0,0
209529,-100,4,2,1,75,0,0
210008,-100,4,2,24,75,0,0
210247,-100,4,2,1,75,0,0
210486,-100,4,2,10,75,0,0
210646,-100,4,2,1,75,0,0
211125,-100,4,2,30,75,0,0
211763,-100,4,2,12,75,0,0
211869,-100,4,2,1,75,0,0
212454,-100,4,2,24,75,0,0
212508,-100,4,2,1,75,0,0
217029,-100,4,2,24,75,0,0
217188,-100,4,2,31,75,0,0
217508,-100,4,2,30,75,0,0
217667,-100,4,2,24,75,0,0
217827,-100,4,2,1,75,0,0
219024,-100,4,2,24,75,0,0
219103,-100,4,2,1,75,0,0
219422,-100,4,2,12,75,0,0
219529,-100,4,2,1,75,0,0
220061,-100,4,2,10,75,0,0
220380,-100,4,2,1,75,0,0
220699,-100,4,2,10,75,0,0
221018,-100,4,2,12,75,0,0
221337,-100,4,2,10,75,0,0
221577,-100,4,2,2,68,0,0
221657,-100,4,2,10,75,0,0
221736,-100,4,2,2,68,0,0
221816,-100,4,2,1,75,0,0
221896,-100,4,2,2,68,0,0
221976,-100,4,2,12,75,0,0
222135,-100,4,2,24,75,0,0
222295,-100,4,2,4,75,0,0
222614,-100,4,2,13,75,0,0
222774,-100,4,2,1,75,0,0
222933,-100,4,2,4,75,0,0
223093,-100,4,2,1,75,0,0
223252,-100,4,2,4,75,0,0
223412,-100,4,2,1,75,0,0
223571,-100,4,2,4,75,0,0
223731,-100,4,2,1,75,0,0
223891,-100,4,2,10,75,0,0
224210,-100,4,2,1,75,0,0
224369,-100,4,2,1,75,0,0
224529,-100,4,2,12,75,0,0
224848,-100,4,2,23,75,0,0
225008,-100,4,2,1,75,0,0
225167,-100,4,2,13,75,0,0
225327,-100,4,2,24,75,0,0
225486,-100,4,2,4,75,0,0
225646,-100,4,2,1,75,0,0
225805,-100,4,2,4,75,0,0
225965,-100,4,2,24,75,0,0
226125,-100,4,2,4,75,0,0
226284,-100,4,2,1,75,0,0
226444,-100,4,2,13,75,0,0
226524,-100,4,2,1,75,0,0
226603,-100,4,2,4,75,0,0
226763,-100,4,2,13,75,0,0
226922,-100,4,2,12,75,0,0
227242,-100,4,2,24,75,0,0
227401,-100,4,2,4,75,0,0
227561,-100,4,2,1,75,0,0
227720,-100,4,2,13,75,0,0
227880,-100,4,2,1,75,0,0
228040,-100,4,2,4,75,0,0
228199,-100,4,2,1,75,0,0
228359,-100,4,2,4,75,0,0
228518,-100,4,2,1,75,0,0
228678,-100,4,2,23,75,0,0
228837,-100,4,2,1,75,0,0
228997,-100,4,2,13,75,0,0
229077,-100,4,2,1,75,0,0
230114,-100,4,2,24,75,0,0
230194,-100,4,2,1,75,0,0
230433,-100,4,2,24,75,0,0
230513,-100,4,2,1,75,0,0
230832,-100,4,2,24,75,0,0
230912,-100,4,2,1,75,0,0
232827,-100,4,2,13,75,0,0
232986,-100,4,2,1,75,0,0
233146,-100,4,2,4,75,0,0
233252,-100,4,2,1,75,0,0
233465,-100,4,2,4,75,0,0
233625,-100,4,2,4,68,0,0
233704,-100,4,2,1,75,0,0
233784,-100,4,2,4,75,0,0
233864,-100,4,2,24,75,0,0
233944,-100,4,2,1,75,0,0
234024,-100,4,2,24,75,0,0
234103,-100,4,2,1,75,0,0
234422,-100,4,2,4,75,0,0
234502,-100,4,2,1,75,0,0
234582,-100,4,2,24,75,0,0
234742,-100,4,2,12,75,0,0
234821,-100,4,2,1,75,0,0
235220,-100,4,2,24,75,0,0
235380,-100,4,2,13,75,0,0
235460,-100,4,2,1,75,0,0
235699,-100,4,2,4,75,0,0
235779,-100,4,2,24,75,0,0
235938,-100,4,2,1,75,0,0
236018,-100,4,2,4,75,0,0
236178,-100,4,2,4,68,0,0
236337,-100,4,2,4,75,0,0
236497,-100,4,2,1,75,0,0
236657,-100,4,2,24,75,0,0
236976,-100,4,2,1,75,0,0
237295,-100,4,2,9,75,0,0
237614,-100,4,2,1,75,0,0
238252,-100,4,2,4,75,0,0
238412,-100,4,2,1,75,0,0
238678,-100,4,2,24,75,0,0
238891,-100,4,2,4,75,0,0
238970,-100,4,2,1,75,0,0
239529,-100,4,2,4,75,0,0
239635,-100,4,2,1,75,0,0
239848,-100,4,2,13,75,0,0
239954,-100,4,2,24,75,0,0
240167,-100,4,2,1,75,0,0
240274,-100,4,2,24,75,0,0
240486,-100,4,2,1,75,0,0
240593,-100,4,2,24,75,0,0
240805,-100,4,2,1,75,0,0
240912,-100,4,2,24,75,0,0
241125,-100,4,2,1,75,0,0
241284,-100,4,2,1,75,0,0
241444,-100,4,2,1,75,0,0
241603,-100,4,2,1,75,0,0
241922,-100,4,2,10,75,0,0
242407,317.460317460318,4,2,10,55,1,0
242407,-248.756218905473,4,2,10,55,0,0
242447,-248.756218905473,4,2,1,45,0,0
244946,319.148936170213,4,2,10,55,1,0
255158,-181.818181818181,4,2,10,55,0,0
255557,-181.818181818181,4,2,8,45,0,0
255637,-181.818181818181,4,2,1,45,0,0
256116,-181.818181818181,4,2,10,45,0,0
256594,-181.818181818181,4,2,1,45,0,0
256754,-181.818181818181,4,2,6,45,0,0
256914,-181.818181818181,4,2,8,45,0,0
257073,-181.818181818181,4,2,10,45,0,0
257392,-181.818181818181,4,2,30,45,0,0
257711,-181.818181818181,4,2,24,45,0,0
258031,-181.818181818181,4,2,10,45,0,0
258350,-181.818181818181,4,2,8,45,0,0
258509,-181.818181818181,4,2,10,45,0,0
259148,-181.818181818181,4,2,32,45,0,0
259626,-181.818181818181,4,2,30,45,0,0
259946,-181.818181818181,4,2,8,45,0,0
260105,-181.818181818181,4,2,10,45,0,0
260265,-181.818181818181,4,2,33,45,0,0
260584,-181.818181818181,4,2,8,45,0,0
260743,-181.818181818181,4,2,10,45,0,0
260903,-181.818181818181,4,2,8,45,0,0
261063,-181.818181818181,4,2,30,45,0,0
261222,-181.818181818181,4,2,25,45,0,0
261701,-181.818181818181,4,2,32,45,0,0
261860,-181.818181818181,4,2,24,45,0,0
262180,-181.818181818181,4,2,34,45,0,0
262499,-181.818181818181,4,2,11,45,0,0
262658,-181.818181818181,4,2,1,45,0,0
263297,-181.818181818181,4,2,10,45,0,0
263456,-181.818181818181,4,2,32,45,0,0
263616,-181.818181818181,4,2,11,45,0,0
263775,-181.818181818181,4,2,10,45,0,0
264414,-181.818181818181,4,2,8,45,0,0
264733,-181.818181818181,4,2,10,45,0,0
264892,-181.818181818181,4,2,11,45,0,0
265211,-181.818181818181,4,2,1,45,0,0
265371,-181.818181818181,4,2,25,45,0,0
265690,-181.818181818181,4,2,8,45,0,0
265850,-181.818181818181,4,2,10,45,0,0
266169,-181.818181818181,4,2,1,45,0,0
266328,-181.818181818181,4,2,11,45,0,0
266488,-181.818181818181,4,2,6,45,0,0
266807,-181.818181818181,4,2,11,45,0,0
267126,-181.818181818181,4,2,1,45,0,0
267286,-181.818181818181,4,2,7,45,0,0
267446,-181.818181818181,4,2,35,45,0,0
267685,-181.818181818181,4,2,6,45,0,0
267765,-181.818181818181,4,2,8,45,0,0
267844,-181.818181818181,4,2,6,45,0,0
267924,-181.818181818181,4,2,1,45,0,0
268243,-181.818181818181,4,2,8,45,0,0
268403,-181.818181818181,4,2,10,45,0,0
268563,-181.818181818181,4,2,8,45,0,0
268722,-181.818181818181,4,2,1,45,0,0
269041,-181.818181818181,4,2,10,45,0,0
269520,-181.818181818181,4,2,11,45,0,0
269839,326.08695652174,4,2,7,45,1,0
269839,-181.818181818181,4,2,7,45,0,0
269999,-181.818181818181,4,2,1,45,0,0
270158,-181.818181818181,4,2,6,45,0,0
270328,-181.818181818181,4,2,35,45,0,0
270491,306.122448979593,4,2,35,45,1,0
270797,319.148936170213,4,2,35,45,1,0
270956,-181.818181818181,4,2,6,45,0,0
271435,-181.818181818181,4,2,19,45,0,0
271754,319.148936170213,4,2,19,55,1,0
271754,-181.818181818181,4,2,19,55,0,0
272073,-181.818181818181,4,2,36,55,0,0
272233,-181.818181818181,4,2,19,55,0,0
272392,-181.818181818181,4,2,36,55,0,0
272552,-181.818181818181,4,2,19,55,0,0
272871,-181.818181818181,4,2,1,55,0,0
273031,-181.818181818181,4,2,1,75,0,0
273190,-181.818181818181,4,2,3,75,0,0
273669,-181.818181818181,4,2,14,75,0,0
273828,-181.818181818181,4,2,3,75,0,0
273988,-181.818181818181,4,2,19,65,0,0
274148,-181.818181818181,4,2,6,65,0,0
274307,-181.818181818181,4,2,37,65,0,0
274626,-181.818181818181,4,2,14,65,0,0
274786,-181.818181818181,4,2,3,65,0,0
275105,-181.818181818181,4,2,14,65,0,0
275265,-181.818181818181,4,2,16,65,0,0
275584,-83.3333333333333,4,2,16,75,0,0
276222,-83.3333333333333,4,2,4,68,0,0
276541,-83.3333333333333,4,2,3,75,0,0
276701,-83.3333333333333,4,2,35,75,0,0
276860,-83.3333333333333,4,2,17,75,0,0
277499,-83.3333333333333,4,2,16,75,0,0
278775,-83.3333333333333,4,2,4,68,0,0
279094,-83.3333333333333,4,2,17,75,0,0
280052,-83.3333333333333,4,2,16,75,0,0
280531,-83.3333333333333,4,2,15,75,0,0
280690,-100,4,2,16,75,0,0
281169,-100,4,2,1,75,0,0
281328,-100,4,2,4,68,0,0
281648,-100,4,2,3,75,0,0
281807,-100,4,2,1,75,0,0
282286,-100,4,2,3,75,0,0
282605,-100,4,2,10,75,0,0
282924,-100,4,2,3,75,0,0
283243,-100,4,2,12,75,0,0
283563,-100,4,2,2,75,0,0
283882,-100,4,2,17,75,0,0
284201,-100,4,2,2,75,0,0
284520,-100,4,2,1,75,0,0
284839,-100,4,2,3,75,0,0
285797,-83.3333333333333,4,2,12,75,0,0
286435,-83.3333333333333,4,2,4,68,0,0
286754,-83.3333333333333,4,2,1,75,0,0
287392,-181.818181818181,4,2,1,75,0,0
287711,-83.3333333333333,4,2,8,75,0,0
288031,-83.3333333333333,4,2,1,75,0,0
288350,-83.3333333333333,4,2,12,75,0,0
288988,-83.3333333333333,4,2,4,68,0,0
289307,-83.3333333333333,4,2,1,75,0,0
289946,-83.3333333333333,4,2,3,75,0,0
290265,-83.3333333333333,4,2,10,75,0,0
290584,-83.3333333333333,4,2,3,75,0,0
290903,-100,4,2,12,75,0,0
291541,-100,4,2,4,68,0,0
291860,-83.3333333333333,4,2,5,75,0,0
292499,-333.333333333333,4,2,5,75,0,0
292818,-76.9230769230769,4,2,10,75,0,0
293137,-76.9230769230769,4,2,3,75,0,0
293456,-76.9230769230769,4,2,1,75,0,0
294094,-76.9230769230769,4,2,4,68,0,0
294414,-76.9230769230769,4,2,7,75,0,0
294733,329.67032967033,4,2,7,75,1,0
294952,-100,4,2,3,75,0,0
295392,-100,4,2,10,75,0,0
295612,-100,4,2,12,75,0,0
296051,319.148936170213,4,2,12,75,1,0
296689,-100,4,2,4,68,0,0
297008,-100,4,2,1,75,0,0
297965,-100,4,2,8,75,0,0
298444,-100,4,2,12,75,0,0
299242,-100,4,2,4,68,0,0
299561,-100,4,2,1,75,0,0
300200,-100,4,2,3,75,0,0
300519,-100,4,2,10,75,0,0
300838,-100,4,2,3,75,0,0
301157,-100,4,2,10,75,0,0
301316,-100,4,2,1,75,0,0
302114,-100,4,2,5,75,0,0
302434,-100,4,2,12,75,0,0
302593,-100,4,2,17,75,0,0
303072,-100,4,2,5,75,0,0
303232,-100,4,2,3,75,0,0
303471,-100,4,2,2,68,0,0
303551,-100,4,2,3,75,0,0
304668,-100,4,2,19,65,0,0
305146,-100,4,2,38,65,0,0
305465,-100,4,2,1,65,0,0
305625,-100,4,2,1,55,0,0
306263,-83.3333333333333,4,2,2,65,0,0
306741,-83.3333333333333,4,2,3,65,0,0
306901,-83.3333333333333,4,2,3,52,0,0
307221,-83.3333333333333,4,2,2,65,0,0
307540,-83.3333333333333,4,2,4,68,0,0
307859,-83.3333333333333,4,2,3,60,0,0
308497,-83.3333333333333,4,2,1,75,0,0
308816,-83.3333333333333,4,2,2,75,0,0
309455,-83.3333333333333,4,2,3,60,0,0
309774,-83.3333333333333,4,2,2,75,0,0
310093,-83.3333333333333,4,2,4,68,0,0
310731,-83.3333333333333,4,2,17,75,0,0
311051,-83.3333333333333,4,2,8,75,0,0
311369,-83.3333333333333,4,2,12,75,0,0
311848,-83.3333333333333,4,2,15,75,0,0
312007,-83.3333333333333,4,2,17,75,0,0
312326,-83.3333333333333,4,2,15,75,0,0
312406,-83.3333333333333,4,2,14,75,0,0
313285,-83.3333333333333,4,2,3,60,0,0
313443,-83.3333333333333,4,2,3,75,0,0
313923,-83.3333333333333,4,2,5,85,0,0
315040,-83.3333333333333,4,2,1,85,0,0
315359,-83.3333333333333,4,2,5,85,0,0
315519,-83.3333333333333,4,2,2,85,0,0
315837,-83.3333333333333,4,2,1,85,0,0
316475,-83.3333333333333,4,2,2,85,0,0
317113,-83.3333333333333,4,2,3,68,0,0
317433,-83.3333333333333,4,2,2,85,0,0
317752,-83.3333333333333,4,2,17,85,0,0
317992,-83.3333333333333,4,2,6,85,0,0
318231,-83.3333333333333,4,2,8,85,0,0
318391,-83.3333333333333,4,2,6,85,0,0
318497,-83.3333333333333,4,2,13,85,0,0
318709,-83.3333333333333,4,2,6,85,0,0
319029,-83.3333333333333,4,2,2,85,0,0
319666,-83.3333333333333,4,2,3,68,0,0
319987,-83.3333333333333,4,2,2,85,0,0
320305,-83.3333333333333,4,2,16,85,0,0
320465,-83.3333333333333,4,2,2,76,0,0
320625,-83.3333333333333,4,2,3,68,0,0
320783,-83.3333333333333,4,2,3,85,0,0
320944,-83.3333333333333,4,2,10,85,0,0
321263,-83.3333333333333,4,2,1,85,0,0
321582,-83.3333333333333,4,2,2,85,0,0
322219,-83.3333333333333,4,2,3,68,0,0
322380,-83.3333333333333,4,2,14,85,0,0
322540,-83.3333333333333,4,2,5,85,0,0
322699,-83.3333333333333,4,2,15,85,0,0
322779,-83.3333333333333,4,2,14,85,0,0
323177,-83.3333333333333,4,2,3,68,0,0
324135,-83.3333333333333,4,2,8,85,0,0
324294,-83.3333333333333,4,2,1,85,0,0
324614,-83.3333333333333,4,2,5,85,0,0
325252,-83.3333333333333,4,2,1,85,0,0
325571,-83.3333333333333,4,2,5,85,0,0
326050,-83.3333333333333,4,2,10,85,0,0
326209,-83.3333333333333,4,2,1,85,0,0
326369,-83.3333333333333,4,2,10,85,0,0
326529,-83.3333333333333,4,2,1,85,0,0
326688,-83.3333333333333,4,2,8,85,0,0
326848,-83.3333333333333,4,2,5,85,0,0
327805,-83.3333333333333,4,2,1,85,0,0
328124,-83.3333333333333,4,2,5,85,0,0
328603,-83.3333333333333,4,2,12,85,0,0
329242,-83.3333333333333,4,2,12,75,0,0
329401,-83.3333333333333,4,2,1,75,0,0
329561,-83.3333333333333,4,2,2,75,0,0
330039,-83.3333333333333,4,2,1,75,0,0
330199,-83.3333333333333,4,2,29,75,0,0
330359,-83.3333333333333,4,2,2,75,0,0
330997,-83.3333333333333,4,2,1,75,0,0
331156,-83.3333333333333,4,2,2,75,0,0
331316,-83.3333333333333,4,2,29,75,0,0
331476,-83.3333333333333,4,2,2,75,0,0
331715,-83.3333333333333,4,2,2,5,0,0
331795,-83.3333333333333,4,2,1,75,0,0
332114,-83.3333333333333,4,2,2,75,0,0
332592,-83.3333333333333,4,2,1,75,0,0
332752,-83.3333333333333,4,2,29,75,0,0
332912,-83.3333333333333,4,2,2,75,0,0
333231,-83.3333333333333,4,2,1,75,0,0
333709,-83.3333333333333,4,2,16,75,0,0
333870,-100,4,2,1,75,0,0
334188,-100,4,2,3,75,0,0
334348,-100,4,2,12,75,0,0
334508,-100,4,2,1,75,0,0
334668,-100,4,2,2,75,0,0
334988,-100,4,2,8,75,0,0
335146,-100,4,2,1,75,0,0
335466,-100,4,2,2,75,0,0
335625,-100,4,2,3,60,0,0
335785,-100,4,2,1,75,0,0
336264,-100,4,2,5,75,0,0
336423,-100,4,2,1,75,0,0
336582,-100,4,2,3,75,0,0
336743,-100,4,2,2,75,0,0
336902,-100,4,2,1,75,0,0
337222,-100,4,2,5,75,0,0
337699,-100,4,2,1,75,0,0
338020,-100,4,2,2,75,0,0
338178,-100,4,2,3,60,0,0
338339,-100,4,2,5,75,0,0
338658,-100,4,2,1,75,0,0
338816,319.148936170213,4,2,5,75,1,0
338975,-100,4,2,29,75,0,0
339135,-100,4,2,15,75,0,0
339294,-100,4,2,5,75,0,0
339455,-100,4,2,15,75,0,0
339773,-100,4,2,5,75,0,0
340092,-100,4,2,2,75,0,0
340731,-100,4,2,6,68,0,0
341210,-100,4,2,2,75,0,0
341529,-100,4,2,6,75,0,0
341688,-100,4,2,3,75,0,0
342008,-100,4,2,2,68,0,0
342168,-100,4,2,2,75,0,0
342566,-100,4,2,3,75,0,0
342645,-100,4,2,1,75,0,0
344241,-100,4,2,5,75,0,0
344321,-100,4,2,3,75,0,0
344560,-100,4,2,5,75,0,0
344720,-100,4,2,1,75,0,0
344879,-100,4,2,5,75,0,0
345198,-100,4,2,12,80,0,0
345277,-100,4,2,1,80,0,0
345518,-100,4,2,13,80,0,0
345597,-100,4,2,1,80,0,0
345837,-100,4,2,4,80,0,0
345917,-100,4,2,1,80,0,0
346076,-100,4,2,14,80,0,0
346156,-100,4,2,21,80,0,0
346236,-100,4,2,3,80,0,0
346475,-100,4,2,20,80,0,0
346635,-100,4,2,1,80,0,0
346794,-100,4,2,13,80,0,0
346874,-100,4,2,1,80,0,0
347113,-100,4,2,4,80,0,0
347193,-100,4,2,1,80,0,0
347273,-100,4,2,5,80,0,0
347353,-100,4,2,1,80,0,0
347433,-100,4,2,4,80,0,0
347512,-100,4,2,2,80,0,0
347592,-100,4,2,1,80,0,0
347752,-100,4,2,4,80,0,0
347831,-100,4,2,24,80,0,0
347991,-100,4,2,1,80,0,0
348072,-100,4,2,9,80,0,0
348151,-100,4,2,1,80,0,0
348390,-100,4,2,4,80,0,0
348470,-100,4,2,1,80,0,0
348629,-100,4,2,14,80,0,0
348709,-100,4,2,3,80,0,0
349028,-100,4,2,5,80,0,0
349108,-100,4,2,1,80,0,0
349427,-100,4,2,13,80,0,0
349507,-100,4,2,1,80,0,0
349826,-100,4,2,39,80,0,0
349906,-100,4,2,1,80,0,0
350305,-100,4,2,12,80,0,0
350384,-100,4,2,1,80,0,0
350625,-100,4,2,13,80,0,0
350704,-100,4,2,1,80,0,0
350944,-100,4,2,4,80,0,0
351024,-100,4,2,1,80,0,0
351183,-100,4,2,14,80,0,0
351263,-100,4,2,21,80,0,0
351343,-100,4,2,3,80,0,0
351582,-100,4,2,20,80,0,0
351742,-100,4,2,1,80,0,0
351901,-100,4,2,13,80,0,0
351981,-100,4,2,1,80,0,0
352220,-100,4,2,4,80,0,0
352300,-100,4,2,1,80,0,0
352380,-100,4,2,5,80,0,0
352460,-100,4,2,1,80,0,0
352540,-100,4,2,4,80,0,0
352619,-100,4,2,2,80,0,0
352699,-100,4,2,1,80,0,0
352859,-100,4,2,4,80,0,0
352938,-100,4,2,24,80,0,0
353098,-100,4,2,1,80,0,0
353180,-100,4,2,9,80,0,0
353258,-100,4,2,1,80,0,0
353497,-100,4,2,4,80,0,0
353577,-100,4,2,1,80,0,0
353736,-100,4,2,14,80,0,0
353816,-100,4,2,3,80,0,0
354135,-100,4,2,27,80,0,0
354215,-100,4,2,1,80,0,0
354534,-100,4,2,39,80,0,0
354614,-100,4,2,5,80,0,0
354694,-100,4,2,1,80,0,0
354933,-100,4,2,5,80,0,0
355013,-100,4,2,1,80,0,0
355412,-100,4,2,20,80,0,0
355492,-100,4,2,1,80,0,0
355730,-100,4,2,5,80,0,0
355810,-100,4,2,39,80,0,0
355890,-100,4,2,1,80,0,0
356209,-100,4,2,20,80,0,0
356289,-100,4,2,1,80,0,0
356688,-100,4,2,5,80,0,0
356768,-100,4,2,1,80,0,0
357087,-100,4,2,39,80,0,0
357167,-100,4,2,2,80,0,0
357247,-100,4,2,1,80,0,0
357486,-100,4,2,27,80,0,0
357566,-100,4,2,1,80,0,0
357965,-100,4,2,5,80,0,0
358045,-100,4,2,1,80,0,0
359241,-100,4,2,38,80,0,0

[Colours]
Combo1 : 221,189,211
Combo2 : 188,201,160
Combo3 : 215,159,159
Combo4 : 167,207,160

[HitObjects]
24,190,4323,5,2,3:2:0:0:
24,190,4403,1,0,0:0:0:0:
24,190,4483,2,0,P|29:145|52:83,1,80,10|2,0:2|3:2,0:0:0:0:
175,67,4802,1,2,3:2:0:0:
175,67,4961,2,0,L|176:167,1,80,10|0,0:2|3:0,0:0:0:0:
365,67,5280,1,0,3:0:0:0:
365,67,5440,2,0,P|306:58|252:33,1,120,10|0,0:2|0:0,0:0:0:0:
482,61,5759,2,0,L|480:221,1,160,6|0,3:2|0:0,0:0:0:0:
325,345,6238,1,0,3:0:0:0:
325,345,6397,2,0,P|346:298|458:301,1,160,12|0,0:2|0:0,0:0:0:0:
36,341,7036,6,0,L|130:338,1,80,4|0,3:2|0:0,0:0:0:0:
26,230,7355,2,0,P|-6:162|-5:102,1,120,2|0,3:2|0:0,0:0:0:0:
29,126,7674,1,8,0:2:0:0:
114,29,7993,2,0,P|131:95|137:118,1,80,2|0,3:2|3:0,0:0:0:0:
235,221,8312,6,0,P|249:201|237:74,1,160,6|0,3:2|0:0,0:0:0:0:
380,113,8791,1,0,3:0:0:0:
380,113,8951,2,0,L|461:115,1,80,12|0,0:2|0:0,0:0:0:0:
315,224,9270,2,0,L|208:221,1,80
134,67,9589,2,0,L|133:10,3,40,2|0|0|0,3:2|3:0|3:0|3:0,0:0:0:0:
54,53,9908,1,2,3:2:0:0:
58,56,10227,2,0,L|54:174,1,80,14|0,0:2|3:0,0:0:0:0:
55,135,10467,1,0,3:0:0:0:
55,135,10546,1,6,3:2:0:0:
298,56,10865,6,0,P|343:82|463:104,1,160,6|10,3:2|0:2,0:0:0:0:
246,193,11344,1,0,0:0:0:0:
246,193,11504,2,0,L|154:195,2,80,10|2|2,0:2|0:2|3:2,0:0:0:0:
64,339,11983,6,0,P|189:325|218:326,1,120,10|0,0:2|0:0,0:0:0:0:
256,304,12302,2,0,P|336:323|365:330,1,80,2|2,3:2|0:2,0:0:0:0:
398,368,12621,1,10,0:2:0:0:
464,208,12780,2,0,P|448:254|453:306,1,80,2|2,3:2|3:2,0:0:0:0:
476,129,13100,1,10,0:2:0:0:
453,129,13259,1,2,3:2:0:0:
314,114,13419,2,0,L|315:24,1,80,2|2,3:2|3:2,0:0:0:0:
208,196,13743,5,10,0:2:0:0:
185,219,14067,2,0,L|80:218,2,80,10|0|2,0:2|3:0|0:2,0:0:0:0:
44,335,14536,2,0,P|37:272|46:224,1,80,10|2,0:2|0:3,0:0:0:0:
183,220,14855,2,0,P|176:149|165:115,1,80,10|2,0:2|0:2,0:0:0:0:
77,37,15174,1,2,3:2:0:0:
77,37,15254,1,0,0:0:0:0:
77,37,15334,6,0,P|63:99|77:150,1,80,10|2,3:2|3:2,0:0:0:0:
166,77,15653,1,2,3:2:0:0:
262,200,15812,2,0,P|273:147|263:103,1,80,10|2,3:2|3:2,0:0:0:0:
366,199,16131,1,2,3:2:0:0:
396,69,16291,1,8,0:2:0:0:
266,200,16451,1,2,0:2:0:0:
266,200,16530,1,0,0:0:0:0:
266,200,16610,6,0,L|228:365,1,160,6|0,3:2|0:0,0:0:0:0:
366,199,17089,1,0,3:0:0:0:
366,199,17248,2,0,P|343:114|364:41,1,160,12|0,0:2|0:0,0:0:0:0:
468,129,17727,1,0,3:0:0:0:
361,46,17887,2,0,L|297:39,1,40,4|0,3:2|0:0,0:0:0:0:
300,66,18046,1,0,0:0:0:0:
158,90,18206,1,2,3:2:0:0:
158,90,18365,2,0,P|125:157|117:261,1,160,2|0,3:2|0:0,0:0:0:0:
18,368,18844,2,0,L|22:263,1,80,2|2,3:2|3:2,0:0:0:0:
158,90,19163,6,0,P|233:113|339:97,1,160,6|0,3:2|0:0,0:0:0:0:
445,302,19642,1,0,3:0:0:0:
493,216,19802,2,0,P|404:216|366:301,1,160,12|0,0:2|0:0,0:0:0:0:
221,334,20440,2,0,L|112:341,1,80,0|8,3:0|0:2,0:0:0:0:
130,333,20679,1,8,0:2:0:0:
115,321,20759,1,10,0:2:0:0:
66,194,20919,2,0,L|48:99,2,80,8|2|8,0:2|0:2|0:2,0:0:0:0:
160,37,21397,2,0,L|170:139,1,80,2|8,3:2|0:2,0:0:0:0:
268,35,21716,6,0,P|329:90|421:125,1,160,6|10,3:2|0:2,0:0:0:0:
464,199,22195,1,2,0:2:0:0:
464,199,22355,2,0,L|469:259,1,60.0000022888184,2|2,0:3|3:2,0:0:0:0:
379,333,22674,1,10,0:2:0:0:
379,333,22834,1,2,3:2:0:0:
379,333,22993,2,0,P|338:327|303:324,2,60.0000022888184,2|2|8,0:3|3:2|0:2,0:0:0:0:
170,267,23472,2,0,P|100:276|34:287,1,120.000004577637,2|2,0:2|3:2,0:0:0:0:
18,52,23951,1,10,0:2:0:0:
106,72,24110,5,2,3:2:0:0:
57,134,24270,2,0,L|52:222,1,60.0000022888184,2|2,3:2|3:2,0:0:0:0:
190,33,24589,1,8,0:2:0:0:
190,33,24748,2,0,P|230:32|266:28,1,60.0000022888184,2|2,0:2|0:3,0:0:0:0:
242,129,25068,2,0,P|204:127|158:123,1,60.0000022888184,2|8,3:2|0:2,0:0:0:0:
353,39,25387,2,0,L|342:173,1,120.000004577637,2|2,3:2|3:2,0:0:0:0:
432,176,25865,1,8,0:2:0:0:
311,339,26025,1,2,3:2:0:0:
311,339,26185,2,0,P|276:323|178:306,1,120.000004577637,6|14,3:2|0:2,0:0:0:0:
19,376,26663,1,2,3:2:0:0:
61,195,26823,6,0,L|62:274,1,60.0000022888184,0|2,3:0|0:2,0:0:0:0:
98,121,27142,1,0,0:0:0:0:
272,48,27302,2,0,P|321:48|391:46,1,120.000004577637,2|2,3:2|0:2,0:0:0:0:
483,136,27780,1,4,3:2:0:0:
487,140,27940,1,10,0:2:0:0:
391,45,28099,1,4,0:2:0:0:
325,120,28259,2,0,L|326:202,1,60.0000022888184,10|4,0:2|3:2,0:0:0:0:
223,238,28578,1,2,3:2:0:0:
223,238,28738,2,0,L|224:173,1,60.0000022888184,12|2,0:2|0:2,0:0:0:0:
115,326,29057,2,0,L|192:324,1,60.0000022888184,4|2,3:2|0:2,0:0:0:0:
223,179,29376,6,0,P|160:141|147:88,1,120.000004577637,6|4,3:2|3:2,0:0:0:0:
247,85,29855,1,2,3:2:0:0:
247,85,30014,2,0,L|319:87,1,60.0000022888184,12|2,0:2|0:2,0:0:0:0:
467,127,30334,2,0,P|446:72|400:36,1,120.000004577637,4|4,3:2|0:2,0:0:0:0:
483,210,30812,1,10,0:2:0:0:
483,210,30892,1,8,0:2:0:0:
483,210,30972,1,12,3:2:0:0:
397,259,31131,2,0,L|386:346,1,60.0000022888184,10|2,0:2|3:2,0:0:0:0:
307,350,31451,1,8,0:2:0:0:
307,350,31610,1,2,3:2:0:0:
307,350,31770,1,2,3:2:0:0:
207,314,31929,6,0,P|238:293|336:251,1,120.000004577637,6|10,3:2|0:2,0:0:0:0:
440,231,32408,1,2,0:2:0:0:
440,231,32568,2,0,L|445:171,1,60.0000022888184,2|2,0:3|3:2,0:0:0:0:
379,51,32887,1,10,0:2:0:0:
379,51,33047,1,2,3:2:0:0:
379,51,33206,2,0,L|388:127,2,60.0000022888184,2|2|10,0:3|3:2|0:2,0:0:0:0:
302,160,33685,2,0,P|232:151|166:140,1,120.000004577637,2|2,3:2|3:2,0:0:0:0:
111,79,34163,1,10,0:2:0:0:
22,131,34323,1,2,3:2:0:0:
22,131,34482,6,0,P|35:178|40:202,1,60.0000022888184,2|2,3:2|3:2,0:0:0:0:
166,255,34802,1,10,0:2:0:0:
115,310,34961,2,0,P|102:357|97:381,1,60.0000022888184,2|2,0:2|0:3,0:0:0:0:
52,246,35280,2,0,P|39:199|34:175,1,60.0000022888184,2|10,3:2|0:2,0:0:0:0:
178,231,35599,2,0,B|244:226|212:180|290:181,1,120.000004577637,2|2,3:2|3:2,0:0:0:0:
399,116,36078,1,10,0:2:0:0:
375,241,36238,1,2,3:2:0:0:
375,241,36397,2,0,P|410:225|508:208,1,120.000004577637,2|10,0:2|0:2,0:0:0:0:
297,194,36875,1,2,3:2:0:0:
178,295,37036,6,0,L|99:296,1,60.0000022888184,6|2,3:2|0:2,0:0:0:0:
42,238,37355,1,6,0:2:0:0:
164,119,37515,2,0,L|284:118,1,120.000004577637,2|2,3:2|0:2,0:0:0:0:
104,196,37993,1,6,3:2:0:0:
108,200,38153,1,2,3:2:0:0:
38,147,38312,1,4,0:2:0:0:
156,39,38472,2,0,L|238:40,1,60.0000022888184,2|4,3:2|3:2,0:0:0:0:
306,198,38791,1,2,3:2:0:0:
306,198,38951,2,0,L|241:199,2,60.0000022888184,12|2|4,0:2|0:2|3:2,0:0:0:0:
468,124,39429,1,10,0:2:0:0:
401,219,39589,5,0,0:0:0:0:
481,295,39748,2,0,P|491:275|489:268,2,20.0000007629395,0|0|0,3:0|3:0|3:0,0:0:0:0:
492,328,39908,6,0,P|433:331|423:346,1,60.0000022888184,10|0,0:2|0:0,0:0:0:0:
261,293,40227,1,10,0:2:0:0:
164,270,40387,1,10,0:2:0:0:
16,368,40706,1,10,0:2:0:0:
42,283,41025,1,10,0:2:0:0:
19,186,41185,1,10,0:2:0:0:
115,76,41344,1,0,3:0:0:0:
115,76,41424,1,0,0:0:0:0:
115,76,41504,1,10,0:2:0:0:
163,144,41663,2,0,P|92:164|-7:194,1,150.000005722046,6|0,3:2|0:0,0:0:0:0:
4,198,42142,6,0,P|48:239|61:253,1,64,6|2,3:2|3:2,0:0:0:0:
151,250,42461,2,0,P|195:291|208:305,1,64,2|2,0:2|3:2,0:0:0:0:
270,374,42780,2,0,P|294:333|394:321,1,128,8|0,0:2|3:0,0:0:0:0:
468,323,43259,2,0,P|449:289|430:249,1,64,2|0,0:2|3:0,0:0:0:0:
481,187,43578,2,0,P|500:153|519:113,1,64,2|0,0:2|3:0,0:0:0:0:
466,61,43897,1,2,3:2:0:0:
389,200,44057,2,0,B|324:184|324:184|288:112|288:112|199:97,1,224,12|0,0:2|0:0,0:0:0:0:
189,74,44695,6,0,P|170:131|163:148,1,64,6|2,3:2|3:2,0:0:0:0:
203,229,45014,2,0,P|184:286|177:303,1,64,2|2,3:2|3:2,0:0:0:0:
0,305,45333,2,0,P|24:264|124:252,1,128,10|2,0:2|3:2,0:0:0:0:
113,379,45812,2,0,P|94:345|75:305,1,64,2|0,0:2|3:0,0:0:0:0:
183,288,46131,2,0,P|202:254|221:214,1,64,2|2,0:2|3:2,0:0:0:0:
98,162,46450,1,2,3:2:0:0:
16,214,46610,2,0,P|3:118|-4:58,1,128,10|2,0:2|3:2,0:0:0:0:
81,24,47089,1,2,0:2:0:0:
178,92,47248,1,0,3:0:0:0:
178,92,47408,1,2,3:2:0:0:
250,49,47568,6,0,P|323:35|331:34,1,64,2|2,3:2|3:2,0:0:0:0:
451,64,47887,1,8,0:2:0:0:
394,127,48046,1,2,3:2:0:0:
490,238,48206,2,0,P|476:165|475:157,1,64,2|0,3:2|3:0,0:0:0:0:
343,196,48525,1,2,3:2:0:0:
400,259,48684,1,0,3:0:0:0:
236,198,48844,2,0,P|250:125|251:117,1,64,2|0,3:2|3:0,0:0:0:0:
133,225,49163,2,0,P|138:256|145:287,1,64,10|2,0:2|3:2,0:0:0:0:
270,353,49482,1,2,3:2:0:0:
270,353,49642,1,10,0:2:0:0:
150,292,49802,6,0,B|80:282|106:224|16:229,1,128,6|0,3:2|3:0,0:0:0:0:
362,292,50440,2,0,B|432:282|406:224|496:229,1,128,14|0,0:2|3:0,0:0:0:0:
192,32,51078,2,0,B|202:102|260:76|255:166,1,128,6|0,3:2|3:0,0:0:0:0:
192,352,51716,2,0,B|202:282|260:308|255:218,1,128,10|0,0:2|3:0,0:0:0:0:
173,156,52195,1,0,3:0:0:0:
173,156,52275,1,0,3:0:0:0:
173,156,52355,6,0,P|132:200|118:213,1,64,6|2,3:2|0:2,0:0:0:0:
183,75,52674,2,0,P|224:31|238:18,1,64,2|2,3:2|3:2,0:0:0:0:
415,88,52993,2,0,P|391:129|291:141,1,128,10|2,0:2|3:2,0:0:0:0:
226,28,53472,2,0,P|245:62|264:102,1,64,2|2,3:2|3:2,0:0:0:0:
317,150,53791,2,0,P|298:184|279:224,1,64,2|2,3:2|3:2,0:0:0:0:
404,325,54110,1,2,3:2:0:0:
245,345,54270,2,0,B|310:329|310:329|346:257|346:257|435:242,1,224,14|0,0:2|0:0,0:0:0:0:
456,233,54908,6,0,P|437:176|430:159,1,64,6|2,3:2|0:2,0:0:0:0:
511,36,55227,2,0,P|500:66|491:97,1,64,2|2,3:2|3:2,0:0:0:0:
284,112,55546,2,0,P|329:124|409:61,1,128,10|2,0:2|3:2,0:0:0:0:
220,7,56025,2,0,P|201:41|182:81,1,64,2|2,3:2|3:2,0:0:0:0:
207,155,56344,2,0,P|222:182|237:211,1,64,2|2,3:2|3:2,0:0:0:0:
73,119,56663,1,2,3:2:0:0:
103,185,56823,2,0,L|21:312,1,128,10|2,0:2|3:2,0:0:0:0:
100,361,57302,1,2,0:2:0:0:
178,292,57461,1,2,3:2:0:0:
178,292,57621,1,0,3:0:0:0:
250,335,57781,6,0,P|323:349|331:350,1,64,2|0,3:2|3:0,0:0:0:0:
451,320,58100,1,10,0:2:0:0:
394,257,58259,1,0,3:0:0:0:
490,146,58419,2,0,P|476:219|475:227,1,64,2|0,3:2|3:0,0:0:0:0:
343,188,58738,1,2,3:2:0:0:
400,125,58897,1,2,3:2:0:0:
236,186,59057,2,0,P|250:259|251:267,1,64,2|0,3:2|3:0,0:0:0:0:
133,159,59376,2,0,P|138:128|145:97,1,64,10|0,0:2|3:0,0:0:0:0:
270,31,59695,1,2,3:2:0:0:
270,31,59855,1,0,3:0:0:0:
334,91,60014,6,0,P|353:81|401:58,1,64,10|8,0:2|0:2,0:0:0:0:
512,173,60334,2,0,P|493:163|445:140,1,64,0|8,3:0|0:2,0:0:0:0:
339,242,60653,1,10,3:2:0:0:
343,246,60812,1,10,3:2:0:0:
473,243,60972,1,10,3:2:0:0:
500,312,61131,1,10,3:2:0:0:
320,320,61291,1,10,3:2:0:0:
343,246,61451,1,10,0:2:0:0:
137,353,61610,1,10,0:2:0:0:
114,279,61770,1,10,3:2:0:0:
252,56,61929,1,10,3:2:0:0:
252,56,62568,6,0,L|459:46,1,176.000005371094,6|2,3:2|0:3,0:0:0:0:
494,268,63046,2,0,B|504:221|504:221|487:174,1,88.000002685547,2|10,3:2|0:2,0:0:0:0:
242,191,63365,1,0,0:0:0:0:
175,228,63525,2,0,P|206:267|265:267,1,88.000002685547,2|0,3:2|3:0,0:0:0:0:
252,56,63844,2,0,P|212:53|148:71,1,88.000002685547,2|0,0:3|3:0,0:0:0:0:
453,198,64163,2,0,L|451:10,1,176.000005371094,0|12,3:0|0:2,0:0:0:0:
507,290,64642,1,0,0:0:0:0:
410,75,64802,2,0,L|411:193,1,88.000002685547,2|8,3:2|0:2,0:0:0:0:
193,264,65121,6,0,P|266:260|377:263,1,176.000005371094,6|2,3:2|0:3,0:0:0:0:
495,71,65599,2,0,P|399:76|288:68,1,176.000005371094,6|0,3:2|0:0,0:0:0:0:
106,138,66078,1,2,3:2:0:0:
115,158,66238,1,0,3:0:0:0:
135,142,66397,1,2,0:3:0:0:
79,280,66557,1,0,3:0:0:0:
72,42,66716,1,2,3:3:0:0:
193,66,66876,1,0,3:0:0:0:
437,201,67036,2,0,L|325:198,1,88.000002685547,14|0,0:2|0:0,0:0:0:0:
332,329,67355,1,0,0:0:0:0:
300,134,67514,1,8,0:2:0:0:
512,288,67674,6,0,P|530:183|479:123,1,176.000005371094,6|2,3:2|0:3,0:0:0:0:
300,134,68153,2,0,B|244:135|244:135|213:180|213:180|117:181,1,176.000005371094,2|2,3:2|0:2,0:0:0:0:
12,89,68631,1,2,3:2:0:0:
13,105,68738,1,2,0:0:0:0:
16,122,68844,1,2,0:0:0:0:
20,160,68951,2,0,P|26:273|26:362,1,176.000005371094,2|2,0:2|3:3,0:0:0:0:
151,184,69429,1,0,3:0:0:0:
151,184,69589,2,0,P|212:204|324:129,1,176.000005371094,10|2,0:2|0:3,0:0:0:0:
463,34,70068,1,2,3:2:0:0:
467,38,70227,6,0,P|464:88|464:111,1,44.0000013427735,14|0,0:2|0:0,0:0:0:0:
503,148,70387,1,0,3:0:0:0:
382,88,70546,1,0,3:0:0:0:
336,340,70706,2,0,P|332:220|330:156,1,176.000005371094,14|0,0:2|3:0,0:0:0:0:
102,273,71185,2,0,L|106:377,1,88.000002685547,14|2,0:2|3:2,0:0:0:0:
25,266,71504,1,0,3:0:0:0:
131,139,71663,2,0,L|122:44,2,88.000002685547,14|0|0,0:2|3:0|3:0,0:0:0:0:
291,198,72142,1,10,0:2:0:0:
211,33,72302,1,0,3:0:0:0:
31,113,72461,1,10,0:2:0:0:
131,139,72621,1,2,0:0:0:0:
291,198,72780,6,0,L|498:188,1,176.000005371094,6|2,3:2|0:3,0:0:0:0:
376,309,73259,2,0,L|272:312,1,88.000002685547,2|8,3:2|0:2,0:0:0:0:
207,158,73578,1,0,0:0:0:0:
111,214,73737,2,0,P|116:263|117:308,1,88.000002685547,2|0,3:2|3:0,0:0:0:0:
233,74,74056,2,0,P|221:107|203:173,1,88.000002685547,2|0,0:2|3:0,0:0:0:0:
392,6,74375,2,0,L|391:181,1,176.000005371094,0|8,3:0|0:2,0:0:0:0:
512,250,74854,1,0,0:0:0:0:
352,62,75014,2,0,L|318:177,1,88.000002685547,2|8,3:2|0:2,0:0:0:0:
142,340,75333,6,0,P|215:336|272:235,1,176.000005371094,6|2,3:2|0:3,0:0:0:0:
361,23,75811,2,0,P|265:28|203:96,1,176.000005371094,2|0,3:2|0:0,0:0:0:0:
61,302,76290,1,2,3:2:0:0:
139,260,76450,1,0,3:0:0:0:
142,340,76609,1,2,0:2:0:0:
210,80,76769,1,0,3:0:0:0:
287,90,76928,1,0,3:0:0:0:
357,106,77088,1,0,3:0:0:0:
430,261,77248,2,0,L|424:374,1,88.000002685547,12|0,0:2|0:0,0:0:0:0:
346,208,77567,1,2,0:2:0:0:
287,90,77726,1,8,0:2:0:0:
488,30,77886,6,0,P|531:104|507:186,1,176.000005371094,6|2,3:2|0:3,0:0:0:0:
287,90,78365,2,0,P|251:159|288:285,1,176.000005371094,2|2,3:2|0:2,0:0:0:0:
86,356,78843,1,2,3:2:0:0:
87,338,78950,1,2,0:0:0:0:
83,318,79056,1,2,0:0:0:0:
75,299,79163,2,0,P|73:211|154:163,1,176.000005371094,2|2,0:2|3:3,0:0:0:0:
315,63,79641,1,0,3:0:0:0:
315,63,79801,2,0,P|397:68|504:63,1,176.000005371094,10|2,0:2|0:3,0:0:0:0:
476,192,80280,1,0,3:0:0:0:
476,192,80440,6,0,P|473:242|473:265,1,44.0000013427735,14|0,0:2|0:0,0:0:0:0:
512,302,80599,1,0,3:0:0:0:
359,168,80758,1,2,3:2:0:0:
345,362,80918,2,0,P|280:346|163:318,1,176.000005371094,14|0,0:2|3:0,0:0:0:0:
51,142,81397,2,0,L|52:86,1,44.0000013427735,14|0,0:2|0:0,0:0:0:0:
26,218,81557,1,2,3:2:0:0:
143,61,81716,1,0,3:0:0:0:
313,130,81876,2,0,L|409:110,2,88.000002685547,14|0|0,0:2|3:0|3:0,0:0:0:0:
216,221,82354,1,2,3:2:0:0:
230,73,82514,1,0,3:0:0:0:
230,73,82594,1,0,3:0:0:0:
230,73,82673,1,2,3:2:0:0:
474,195,82834,1,0,3:0:0:0:
474,195,82913,1,0,3:0:0:0:
474,195,82993,6,0,L|473:254,1,44.0000013427735,14|0,0:2|0:0,0:0:0:0:
512,126,83153,1,0,3:0:0:0:
422,304,83312,1,0,3:0:0:0:
222,223,83472,2,0,L|408:225,1,176.000005371094,14|0,0:2|3:0,0:0:0:0:
107,274,83951,6,0,L|97:341,1,44.0000013427735,14|0,0:2|0:0,0:0:0:0:
37,183,84110,1,2,3:2:0:0:
222,223,84270,1,0,3:0:0:0:
106,58,84429,2,0,P|167:63|290:59,1,176.000005371094,14|0,0:2|3:0,0:0:0:0:
474,119,84908,2,0,L|405:120,3,44.0000013427735,2|0|0|0,3:2|3:0|3:0|3:0,0:0:0:0:
386,188,85227,1,2,3:2:0:0:
386,188,85307,1,0,3:0:0:0:
386,188,85387,1,0,3:0:0:0:
386,188,85466,1,0,3:0:0:0:
386,188,85546,5,6,3:2:0:0:
309,230,85706,1,2,0:2:0:0:
231,171,85865,1,2,0:2:0:0:
322,53,86025,1,2,3:2:0:0:
309,230,86185,1,10,0:2:0:0:
151,128,86344,1,2,0:2:0:0:
280,110,86504,1,2,3:2:0:0:
309,230,86663,1,2,3:2:0:0:
151,128,86982,5,10,0:2:0:0:
39,182,87142,1,2,3:2:0:0:
149,243,87302,1,2,3:2:0:0:
63,93,87461,1,10,0:2:0:0:
49,267,87621,1,2,3:2:0:0:
227,218,87780,1,2,0:2:0:0:
227,218,87940,1,2,3:2:0:0:
462,349,88099,6,0,L|469:229,2,88.000002685547,6|2|2,3:2|0:2|0:2,0:0:0:0:
356,270,88578,1,2,3:2:0:0:
473,160,88738,1,10,0:2:0:0:
311,164,88897,1,2,0:2:0:0:
356,270,89057,1,2,3:2:0:0:
363,97,89216,1,2,3:2:0:0:
197,314,89536,5,10,0:2:0:0:
128,179,89695,1,2,0:2:0:0:
43,356,89855,1,10,3:2:0:0:
43,356,89935,2,0,L|-5:303,8,44.0000013427735
95,354,90653,6,0,P|211:331|309:310,1,207.999990478516,2|2,3:2|0:3,0:0:0:0:
437,249,91451,2,0,P|321:226|223:205,1,207.999990478516,14|2,3:2|0:3,0:0:0:0:
73,151,92248,2,0,P|189:128|287:107,1,207.999990478516,6|2,3:2|0:3,0:0:0:0:
386,47,93046,2,0,L|395:7,1,40,14|0,0:2|0:0,0:0:0:0:
409,68,93205,1,2,3:3:0:0:
324,187,93365,1,2,3:2:0:0:
426,270,93524,2,0,L|416:220,1,40,10|0,0:2|0:0,0:0:0:0:
475,182,93684,2,0,L|485:95,1,80,14|0,0:2|3:0,0:0:0:0:
410,280,94003,2,0,P|345:265|263:250,1,120,14|0,3:2|0:0,0:0:0:0:
225,303,94322,5,6,3:2:0:0:
225,303,94482,2,0,P|214:253|197:209,1,71.9999978027344,2|8,3:2|0:2,0:0:0:0:
290,145,94801,2,0,L|435:106,1,143.999995605469,2|2,3:2|3:2,0:0:0:0:
501,188,95280,1,8,0:2:0:0:
438,87,95439,2,0,P|423:50|415:-1,1,71.9999978027344,2|0,3:2|0:0,0:0:0:0:
299,232,95758,1,2,3:2:0:0:
299,232,95918,1,8,0:2:0:0:
211,139,96077,2,0,P|226:102|234:51,1,71.9999978027344,2|0,0:2|3:0,0:0:0:0:
58,44,96397,1,2,3:2:0:0:
89,125,96556,2,0,P|124:106|163:72,1,71.9999978027344,8|2,0:2|0:2,0:0:0:0:
6,167,96875,6,0,L|28:326,1,143.999995605469,0|10,3:0|0:2,0:0:0:0:
178,359,97354,2,0,L|200:200,1,143.999995605469,2|2,3:2|3:2,0:0:0:0:
89,125,97833,1,8,0:2:0:0:
134,183,97992,2,0,P|112:221|90:266,1,71.9999978027344,2|0,3:2|0:0,0:0:0:0:
268,168,98311,1,2,3:2:0:0:
268,168,98391,1,0,3:0:0:0:
268,168,98471,1,8,0:2:0:0:
303,249,98631,1,2,3:2:0:0:
402,86,98790,1,10,3:2:0:0:
402,86,98950,1,0,3:0:0:0:
497,167,99109,2,0,L|507:222,1,35.9999989013672,10|0,0:2|0:0,0:0:0:0:
450,306,99269,2,0,L|457:271,1,35.9999989013672,10|0,0:2|0:0,0:0:0:0:
405,208,99428,6,0,B|421:249|421:249|406:377,1,160,6|2,3:2|3:2,0:0:0:0:
336,189,99907,1,2,3:2:0:0:
440,78,100067,2,0,P|399:33|281:21,1,160,12|4,0:2|0:2,0:0:0:0:
136,70,100546,2,0,L|72:58,1,40,2|0,3:2|0:0,0:0:0:0:
202,111,100705,2,0,L|281:97,1,80,6|0,3:2|0:0,0:0:0:0:
102,187,101024,2,0,L|23:173,1,80,6|0,3:2|0:0,0:0:0:0:
196,135,101343,1,14,0:2:0:0:
319,242,101503,1,2,3:2:0:0:
425,47,101822,1,2,3:2:0:0:
365,98,101982,6,0,L|384:178,2,80,4|2|6,0:2|3:2|3:2,0:0:0:0:
457,227,102460,2,0,L|438:307,1,80,0|14,0:0|0:2,0:0:0:0:
355,356,102780,2,0,L|336:278,1,80,0|6,0:0|3:2,0:0:0:0:
468,142,103099,5,2,3:2:0:0:
468,142,103418,1,10,0:2:0:0:
383,175,103737,2,0,L|271:160,1,80,2|14,3:2|0:2,0:0:0:0:
115,55,104216,1,6,3:2:0:0:
115,55,104375,1,10,0:2:0:0:
86,199,104535,6,0,P|124:163|147:144,1,80,6|0,3:2|0:0,0:0:0:0:
247,221,104854,1,2,3:2:0:0:
247,221,105013,1,2,3:2:0:0:
348,99,105173,2,0,P|328:50|218:20,1,160,12|0,0:2|0:0,0:0:0:0:
301,164,105652,2,0,P|331:190|368:204,1,80,2|4,3:2|0:2,0:0:0:0:
493,225,105971,2,0,P|458:244|431:274,1,80,2|6,3:2|3:2,0:0:0:0:
471,360,106290,1,0,0:0:0:0:
412,294,106450,2,0,P|358:287|343:286,1,40,10|0,0:2|0:0,0:0:0:0:
309,329,106609,2,0,P|255:336|240:337,1,40,10|0,3:2|0:0,0:0:0:0:
206,301,106769,1,10,0:2:0:0:
21,372,107088,6,0,P|35:317|39:283,1,80,6|0,3:2|0:0,0:0:0:0:
129,176,107407,1,2,3:2:0:0:
129,176,107567,1,2,3:2:0:0:
33,115,107726,2,0,P|19:60|15:26,1,80,12|2,0:2|3:2,0:0:0:0:
146,152,108046,1,0,0:0:0:0:
207,56,108205,2,0,P|262:42|296:38,1,80,2|4,3:2|0:2,0:0:0:0:
129,176,108524,1,2,3:2:0:0:
129,176,108684,1,6,0:2:0:0:
297,285,109003,5,2,3:2:0:0:
316,283,109082,1,10,0:2:0:0:
335,279,109162,1,10,0:2:0:0:
352,268,109242,1,10,0:2:0:0:
363,251,109322,1,2,3:2:0:0:
373,234,109401,1,2,3:2:0:0:
385,218,109481,1,10,3:2:0:0:
402,207,109561,1,10,3:2:0:0:
420,196,109641,6,0,L|471:189,1,40,6|0,3:2|0:0,0:0:0:0:
209,323,109960,2,0,L|158:316,1,40,2|0,3:2|0:0,0:0:0:0:
85,330,110120,2,0,L|92:279,1,40,2|0,3:2|0:0,0:0:0:0:
155,243,110280,1,12,0:2:0:0:
93,119,110439,2,0,P|42:106|0:202,1,160,2|2,3:2|3:2,0:0:0:0:
188,130,110918,2,0,P|174:78|270:36,1,160,6|6,3:2|3:2,0:0:0:0:
263,183,111397,1,0,0:0:0:0:
263,183,111556,2,0,L|321:163,1,40,14|0,0:2|0:0,0:0:0:0:
377,201,111716,2,0,L|435:181,1,40,2|0,3:2|0:0,0:0:0:0:
509,164,111875,1,4,0:2:0:0:
509,164,112035,2,0,L|477:254,1,80,2|4,3:2|0:2,0:0:0:0:
427,35,112354,1,2,3:2:0:0:
388,112,112514,6,0,L|420:202,1,80,6|0,3:2|0:0,0:0:0:0:
328,306,112833,2,0,P|285:284|164:271,1,160,14|2,0:2|3:2,0:0:0:0:
175,269,113311,1,2,3:2:0:0:
61,340,113471,2,0,P|57:298|45:176,1,160,4|0,0:2|0:0,0:0:0:0:
127,37,113950,1,2,3:2:0:0:
127,37,114109,2,0,P|122:85|120:102,1,40,14|0,0:2|0:0,0:0:0:0:
275,196,114428,2,0,P|257:162|159:152,1,120,14|0,0:2|0:0,0:0:0:0:
234,286,114748,6,0,P|263:296|329:282,1,80,2|10,3:2|0:2,0:0:0:0:
402,164,115067,1,2,3:2:0:0:
275,196,115226,1,2,3:2:0:0:
430,354,115386,2,0,P|438:313|455:257,1,80,10|2,0:2|3:2,0:0:0:0:
386,85,115705,2,0,P|397:138|405:184,1,80,10|2,0:2|3:2,0:0:0:0:
298,62,116024,5,10,0:2:0:0:
258,129,116184,2,0,L|168:131,1,80,2|2,3:2|3:2,0:0:0:0:
57,245,116503,2,0,P|57:176|82:80,1,160,10|2,0:2|3:2,0:0:0:0:
178,130,116982,1,2,3:2:0:0:
98,349,117141,2,0,L|11:349,1,80,10|2,0:2|3:2,0:0:0:0:
191,314,117460,2,0,L|261:368,1,80,10|2,0:2|3:2,0:0:0:0:
279,274,117780,1,2,3:2:0:0:
447,190,117939,1,10,0:2:0:0:
447,190,118099,1,2,3:2:0:0:
307,140,118258,1,8,0:2:0:0:
53,206,118418,6,0,L|17:299,1,80,2|8,3:2|0:2,0:0:0:0:
8,188,118737,1,2,3:2:0:0:
120,79,118897,1,2,3:2:0:0:
120,79,119854,6,0,P|176:77|201:75,1,60.0000022888184,6|10,3:2|0:2,0:0:0:0:
302,77,120173,1,2,0:2:0:0:
302,77,120333,1,2,3:2:0:0:
302,77,120492,2,0,L|308:155,1,60.0000022888184,8|2,0:2|0:2,0:0:0:0:
397,172,120811,1,0,3:0:0:0:
397,172,120971,2,0,L|399:243,1,60.0000022888184,2|0,0:2|3:0,0:0:0:0:
466,322,121290,1,2,0:2:0:0:
373,191,121450,1,0,3:0:0:0:
218,306,121609,2,0,P|140:308|92:313,1,120.000004577637,2|2,3:2|0:2,0:0:0:0:
31,192,122088,1,2,0:2:0:0:
31,192,122248,6,0,L|20:111,1,60.0000022888184,2|6,0:2|3:2,0:0:0:0:
89,252,122567,1,2,3:2:0:0:
89,252,122726,2,0,L|99:318,1,60.0000022888184,2|2,3:2|3:2,0:0:0:0:
156,160,123046,2,0,P|199:171|289:155,1,120.000004577637,10|2,0:2|3:2,0:0:0:0:
424,84,123524,6,0,L|354:76,1,60.0000022888184,2|0,0:2|3:0,0:0:0:0:
273,161,123843,2,0,L|360:176,1,60.0000022888184,2|2,0:2|3:2,0:0:0:0:
488,195,124163,2,0,P|479:250|467:327,1,120.000004577637,2|2,3:2|3:2,0:0:0:0:
361,245,124641,1,2,3:2:0:0:
230,341,124801,2,0,L|308:341,1,60.0000022888184,2|0,0:2|3:0,0:0:0:0:
186,261,125120,2,0,L|122:261,1,60.0000022888184,2|2,3:2|3:2,0:0:0:0:
25,142,125439,2,0,P|34:201|43:260,1,120.000004577637,2|2,3:2|3:2,0:0:0:0:
146,168,125918,1,2,3:2:0:0:
300,71,126077,2,0,P|267:72|216:64,1,60.0000022888184,0|2,3:0|3:2,0:0:0:0:
411,34,126397,6,0,P|411:89|411:173,1,120.000004577637,0|0,3:0|3:0,0:0:0:0:
461,349,126875,1,10,0:2:0:0:
461,349,127035,1,2,3:2:0:0:
417,159,127194,1,2,3:2:0:0:
417,159,127354,1,10,0:2:0:0:
299,335,127514,6,0,P|265:333|161:328,1,120.000004577637,6|0,3:2|3:0,0:0:0:0:
41,219,127992,1,0,0:0:0:0:
41,219,128152,2,0,P|97:214|176:210,1,120.000004577637,14|0,0:2|3:0,0:0:0:0:
280,48,128631,1,0,0:0:0:0:
280,48,128790,6,0,P|276:91|274:179,1,120.000004577637,6|0,3:2|3:0,0:0:0:0:
477,378,129428,2,0,P|476:311|473:246,1,120.000004577637,14|0,0:2|3:0,0:0:0:0:
340,337,129907,1,0,3:0:0:0:
340,337,129987,1,0,3:0:0:0:
340,337,130067,1,6,3:2:0:0:
309,241,130226,1,2,0:2:0:0:
241,314,130386,1,2,3:2:0:0:
340,337,130546,1,2,3:2:0:0:
139,351,130705,6,0,L|60:354,1,60.0000022888184,10|2,0:2|3:2,0:0:0:0:
179,191,131024,1,2,3:2:0:0:
179,191,131184,2,0,L|257:186,1,60.0000022888184,2|2,3:2|3:2,0:0:0:0:
340,184,131503,2,0,P|335:145|314:115,1,60.0000022888184,2|2,3:2|3:2,0:0:0:0:
459,356,131822,2,0,L|458:270,1,60.0000022888184,2|14,3:2|0:2,0:0:0:0:
425,85,132141,2,0,L|426:157,1,60.0000022888184,2|2,0:2|0:2,0:0:0:0:
331,50,132460,1,2,3:2:0:0:
331,50,132620,2,0,L|259:53,1,60.0000022888184,6|2,3:2|0:2,0:0:0:0:
194,146,132939,1,2,3:2:0:0:
131,34,133099,1,2,3:2:0:0:
205,244,133258,2,0,L|103:264,1,90.0000034332277,10|0,0:2|0:0,0:0:0:0:
111,276,133577,1,2,3:2:0:0:
276,212,133737,5,2,3:2:0:0:
368,280,133897,1,2,3:2:0:0:
445,230,134056,2,0,P|406:205|373:198,1,60.0000022888184,2|2,3:2|3:2,0:0:0:0:
218,83,134375,2,0,P|257:82|296:77,1,60.0000022888184,2|10,3:2|0:2,0:0:0:0:
122,59,134694,1,2,0:2:0:0:
45,127,134854,1,2,3:2:0:0:
75,301,135014,2,0,L|75:226,1,60.0000022888184,2|2,0:2|3:2,0:0:0:0:
218,83,135333,2,0,L|218:164,2,60.0000022888184,0|2|0,3:0|3:2|3:0,0:0:0:0:
453,34,135811,5,10,0:2:0:0:
342,63,135971,1,0,3:0:0:0:
425,133,136131,1,2,3:2:0:0:
218,83,136290,1,0,3:0:0:0:
314,200,136450,1,2,3:2:0:0:
314,200,136530,1,2,3:2:0:0:
314,200,136609,1,2,3:2:0:0:
211,328,136769,1,2,3:2:0:0:
58,247,136928,2,0,L|58:168,1,60.0000022888184,0|10,3:0|0:2,0:0:0:0:
211,328,137248,1,0,3:0:0:0:
211,328,137407,2,0,P|264:329|283:328,1,60.0000022888184,2|0,3:2|3:0,0:0:0:0:
353,279,137726,5,10,0:2:0:0:
353,279,137886,1,8,0:2:0:0:
317,173,138046,1,0,3:0:0:0:
317,173,138205,1,8,0:2:0:0:
432,200,138365,1,10,3:2:0:0:
432,200,138524,1,10,3:2:0:0:
271,242,138684,1,10,3:2:0:0:
429,317,138843,1,10,3:2:0:0:
397,126,139003,1,10,3:2:0:0:
328,354,139163,1,10,0:2:0:0:
196,168,139322,1,10,0:2:0:0:
480,116,139482,1,10,3:2:0:0:
243,349,139641,1,10,3:2:0:0:
265,57,140280,6,0,B|167:35|208:138|77:117,1,176.000005371094,6|2,3:2|0:3,0:0:0:0:
6,82,140758,2,0,B|-7:44|-7:44|35:-10,1,88.000002685547,2|10,3:2|0:2,0:0:0:0:
249,138,141077,1,0,0:0:0:0:
156,186,141237,2,0,P|117:155|117:96,1,88.000002685547,2|0,3:2|3:0,0:0:0:0:
290,23,141556,2,0,P|329:54|329:113,1,88.000002685547,2|0,0:3|3:0,0:0:0:0:
321,273,141875,2,0,B|404:262|379:185|461:178,1,176.000005371094,2|12,3:3|0:2,0:0:0:0:
221,261,142514,2,0,P|185:252|103:260,1,88.000002685547,2|8,3:2|0:2,0:0:0:0:
324,369,142833,6,0,P|320:296|323:185,1,176.000005371094,6|2,3:2|0:3,0:0:0:0:
98,28,143311,2,0,P|103:124|95:235,1,176.000005371094,6|0,3:2|0:0,0:0:0:0:
377,106,143790,1,2,3:2:0:0:
344,88,143950,1,0,3:0:0:0:
270,111,144109,1,2,0:3:0:0:
388,256,144269,1,0,3:0:0:0:
412,31,144428,1,0,3:0:0:0:
188,132,144588,1,0,3:0:0:0:
310,266,144748,2,0,L|318:150,1,88.000002685547,14|0,0:2|0:0,0:0:0:0:
441,111,145067,1,2,0:3:0:0:
441,111,145226,1,8,0:2:0:0:
512,262,145386,6,0,P|481:305|352:327,1,176.000005371094,6|2,3:2|0:3,0:0:0:0:
213,240,145865,2,0,B|179:238|179:238|108:317|108:317|44:327,1,176.000005371094,2|2,3:2|0:2,0:0:0:0:
0,188,146343,1,2,3:2:0:0:
7,164,146450,1,2,0:0:0:0:
30,155,146556,1,2,0:0:0:0:
63,156,146663,2,0,P|167:111|250:81,1,176.000005371094,2|2,0:2|3:3,0:0:0:0:
415,31,147141,1,0,3:0:0:0:
415,31,147301,2,0,P|435:92|360:204,1,176.000005371094,10|2,0:2|0:3,0:0:0:0:
305,145,147780,1,2,3:2:0:0:
186,300,147939,6,0,P|236:297|259:297,1,44.0000013427735,14|0,0:2|0:0,0:0:0:0:
290,344,148099,1,0,3:0:0:0:
362,278,148258,1,0,3:0:0:0:
226,212,148418,2,0,P|106:216|42:218,1,176.000005371094,14|0,0:2|3:0,0:0:0:0:
362,278,148897,2,0,L|466:282,1,88.000002685547,14|2,0:2|3:2,0:0:0:0:
229,297,149216,1,0,3:0:0:0:
137,141,149375,2,0,L|128:46,2,88.000002685547,14|0|0,0:2|3:0|3:0,0:0:0:0:
291,198,149854,1,10,0:2:0:0:
211,33,150014,1,0,3:0:0:0:
31,113,150173,1,10,0:2:0:0:
137,141,150333,1,0,0:0:0:0:
353,0,150492,6,0,B|375:98|272:57|293:188,1,176.000005371094,6|2,3:2|0:3,0:0:0:0:
425,277,150971,2,0,B|444:240|444:240|426:165,1,88.000002685547,2|10,3:2|0:2,0:0:0:0:
224,211,151289,1,0,0:0:0:0:
261,282,151449,2,0,P|315:313|369:288,1,88.000002685547,2|0,3:2|3:0,0:0:0:0:
385,135,151768,2,0,P|340:112|286:137,1,88.000002685547,2|0,0:2|3:0,0:0:0:0:
198,196,152087,2,0,L|12:172,1,176.000005371094,2|8,3:3|0:2,0:0:0:0:
23,173,152567,1,0,0:0:0:0:
220,165,152726,2,0,P|185:94|166:64,1,88.000002685547,2|8,3:2|0:2,0:0:0:0:
134,322,153046,6,0,B|182:281|182:281|308:292,1,176.000005371094,6|2,3:2|0:3,0:0:0:0:
445,348,153524,2,0,P|349:343|287:275,1,176.000005371094,2|0,3:2|0:0,0:0:0:0:
346,72,154003,1,2,3:2:0:0:
421,130,154163,1,0,3:0:0:0:
409,231,154322,1,2,0:2:0:0:
294,290,154482,1,0,3:0:0:0:
314,182,154641,1,2,3:3:0:0:
421,130,154801,1,0,3:0:0:0:
240,108,154961,2,0,L|127:102,1,88.000002685547,12|0,0:2|0:0,0:0:0:0:
314,182,155280,1,2,0:2:0:0:
314,182,155439,1,8,0:2:0:0:
430,52,155599,6,0,P|473:83|495:212,1,176.000005371094,6|2,3:2|0:3,0:0:0:0:
473,364,156078,2,0,B|475:330|475:330|396:259|396:259|386:195,1,176.000005371094,2|2,3:2|0:2,0:0:0:0:
225,135,156556,1,2,3:2:0:0:
218,159,156663,1,2,0:0:0:0:
195,168,156769,1,2,0:0:0:0:
162,167,156876,2,0,P|58:212|-25:242,1,176.000005371094,2|2,0:2|3:3,0:0:0:0:
95,33,157354,1,0,3:0:0:0:
95,33,157514,2,0,P|156:13|268:88,1,176.000005371094,10|2,0:2|0:3,0:0:0:0:
259,136,157993,1,0,3:0:0:0:
455,176,158152,6,0,P|452:126|452:103,1,44.0000013427735,14|0,0:2|0:0,0:0:0:0:
499,72,158312,1,0,3:0:0:0:
369,51,158471,1,2,3:2:0:0:
455,176,158631,2,0,P|362:217|294:270,1,176.000005371094,14|0,0:2|3:0,0:0:0:0:
501,364,159109,1,14,0:2:0:0:
501,364,159269,1,2,3:2:0:0:
322,126,159428,1,0,3:0:0:0:
173,226,159588,2,0,L|78:235,2,88.000002685547,14|0|0,0:2|3:0|3:0,0:0:0:0:
307,127,160066,1,2,3:2:0:0:
307,127,160147,1,0,3:0:0:0:
307,127,160226,1,0,3:0:0:0:
205,52,160386,1,2,3:2:0:0:
205,52,160467,1,0,3:0:0:0:
205,52,160546,1,0,3:0:0:0:
57,208,160705,6,0,P|60:258|60:281,1,44.0000013427735,14|0,0:2|0:0,0:0:0:0:
13,312,160865,1,0,3:0:0:0:
143,333,161024,1,0,3:0:0:0:
57,208,161184,2,0,P|150:167|218:114,1,176.000005371094,14|0,0:2|3:0,0:0:0:0:
11,20,161662,1,14,0:2:0:0:
11,20,161822,1,2,3:2:0:0:
190,258,161981,1,0,3:0:0:0:
339,158,162141,2,0,L|434:149,2,88.000002685547,14|0|0,0:2|3:0|3:0,0:0:0:0:
205,257,162619,1,2,3:2:0:0:
205,257,162700,1,0,3:0:0:0:
205,257,162779,1,0,3:0:0:0:
307,332,162939,1,2,3:2:0:0:
307,332,163020,1,0,3:0:0:0:
307,332,163099,1,0,3:0:0:0:
385,273,163258,5,6,3:2:0:0:
301,235,163418,1,2,0:2:0:0:
208,343,163577,1,2,0:2:0:0:
118,218,163737,1,2,3:2:0:0:
202,265,163897,1,10,0:2:0:0:
208,343,164056,1,10,0:2:0:0:
141,370,164216,1,10,3:2:0:0:
118,218,164375,1,10,3:2:0:0:
171,153,164535,1,2,3:2:0:0:
171,153,164694,1,10,3:2:0:0:
222,85,164854,1,10,0:2:0:0:
168,33,165014,1,2,3:2:0:0:
125,49,165173,1,2,3:2:0:0:
130,75,165333,1,2,3:2:0:0:
256,16,165492,1,2,3:2:0:0:
474,175,165811,6,0,L|480:46,2,120,6|6|6,3:2|3:2|3:2,0:0:0:0:
398,16,166450,1,8,0:2:0:0:
286,145,166609,1,8,0:2:0:0:
305,166,166689,1,8,3:2:0:0:
327,178,166769,1,8,3:2:0:0:
342,185,166849,1,8,0:2:0:0:
353,189,166928,1,8,0:2:0:0:
360,189,167008,1,8,0:2:0:0:
388,191,167088,6,0,P|317:197|248:214,2,120,6|6|6,3:2|3:2|3:2,0:0:0:0:
213,319,167726,1,0,3:0:0:0:
110,237,167886,1,8,0:2:0:0:
110,237,167966,1,8,0:2:0:0:
110,237,168046,1,8,0:2:0:0:
162,84,168205,1,8,0:2:0:0:
162,84,168285,1,8,0:2:0:0:
22,266,168444,1,8,0:2:0:0:
30,266,168524,6,0,P|26:203|18:167,1,80,6|0,3:2|0:0,0:0:0:0:
72,28,168843,1,6,3:2:0:0:
205,173,169003,1,6,3:2:0:0:
232,175,169083,1,8,0:2:0:0:
263,163,169163,1,8,0:2:0:0:
289,144,169242,1,8,0:2:0:0:
301,115,169322,1,0,3:0:0:0:
302,99,169402,1,0,3:0:0:0:
300,90,169482,1,0,3:0:0:0:
296,81,169561,1,0,3:0:0:0:
293,73,169641,1,0,3:0:0:0:
291,65,169721,1,0,3:0:0:0:
269,49,169801,6,0,L|162:59,1,80,6|0,3:2|0:0,0:0:0:0:
54,213,170120,1,6,3:2:0:0:
372,47,170280,1,6,3:2:0:0:
380,141,170439,1,0,3:0:0:0:
380,141,170519,1,0,3:0:0:0:
380,141,170599,6,0,P|391:205|467:237,1,120,10|0,0:2|0:0,0:0:0:0:
476,253,170918,6,0,L|489:349,1,80,6|0,3:2|0:0,0:0:0:0:
480,145,171157,1,6,3:2:0:0:
273,127,171397,2,0,L|274:226,1,80,6|8,3:2|0:2,0:0:0:0:
192,221,171663,1,0,3:0:0:0:
192,221,171769,1,8,0:2:0:0:
192,221,171875,1,0,3:0:0:0:
109,322,171982,1,8,0:2:0:0:
109,322,172088,1,8,0:2:0:0:
109,322,172194,2,0,P|75:229|52:184,2,120,6|6|6,3:2|3:2|3:2,0:0:0:0:
229,354,172833,1,0,3:0:0:0:
240,353,172913,1,8,0:2:0:0:
250,340,172992,1,8,0:2:0:0:
249,321,173072,1,0,3:0:0:0:
241,316,173152,1,0,3:0:0:0:
240,315,173232,1,0,3:0:0:0:
229,313,173311,1,0,3:0:0:0:
225,318,173391,1,0,3:0:0:0:
230,327,173471,1,0,3:0:0:0:
235,335,173551,1,0,3:0:0:0:
263,344,173631,6,0,P|344:349|438:357,1,160,6|6,3:2|3:2,0:0:0:0:
265,247,174109,1,6,3:2:0:0:
234,245,174189,1,8,0:2:0:0:
208,235,174269,1,8,0:2:0:0:
186,217,174348,1,8,0:2:0:0:
177,202,174428,1,0,3:0:0:0:
174,188,174508,1,0,3:0:0:0:
178,177,174588,1,0,3:0:0:0:
183,172,174668,1,0,3:0:0:0:
186,164,174748,1,0,3:0:0:0:
197,152,174827,1,0,3:0:0:0:
218,122,174907,6,0,P|334:153|361:165,1,120,6|0,3:2|0:0,0:0:0:0:
306,61,175226,1,6,3:2:0:0:
152,283,175386,2,0,L|69:323,1,80,6|0,3:2|3:0,0:0:0:0:
79,317,175599,1,0,3:0:0:0:
79,317,175652,1,0,3:0:0:0:
79,317,175705,1,10,0:2:0:0:
433,149,176024,6,0,L|424:65,1,80,6|0,3:2|0:0,0:0:0:0:
376,218,176264,1,0,3:0:0:0:
376,218,176503,1,0,3:0:0:0:
376,218,176663,2,0,P|269:205|200:204,1,160,10|2,0:2|0:2,0:0:0:0:
56,333,177321,2,0,L|42:205,1,120,6|0,3:2|3:0,0:0:0:0:
111,65,177784,1,0,3:0:0:0:
111,65,177939,1,10,0:2:0:0:
198,112,178098,1,0,3:0:0:0:
200,18,178258,1,2,3:2:0:0:
251,185,178427,1,0,3:0:0:0:
251,185,178577,1,2,3:2:0:0:
470,174,178751,6,0,L|517:-9,1,160,6|0,3:2|3:0,0:0:0:0:
480,257,179227,2,0,L|501:349,1,80,14|0,0:2|0:0,0:0:0:0:
388,212,179544,1,2,0:2:0:0:
351,227,179703,1,0,0:0:0:0:
286,60,179862,1,2,0:3:0:0:
311,225,180020,6,0,L|209:199,1,80,6|0,3:2|0:0,0:0:0:0:
50,316,180332,2,0,L|139:298,1,80,0|10,3:0|3:2,0:0:0:0:
53,149,180651,1,0,3:0:0:0:
235,27,180810,2,0,L|219:121,1,80,10|0,3:2|3:0,0:0:0:0:
315,249,181130,1,6,3:2:0:0:
315,249,181303,2,0,L|299:211,1,40,0|2,0:0|0:2,0:0:0:0:
244,183,181462,1,0,0:0:0:0:
435,258,181608,1,0,3:0:0:0:
402,112,181786,1,10,0:2:0:0:
222,102,181947,1,0,0:0:0:0:
57,194,182107,2,0,L|151:193,1,80,2|0,0:2|0:0,0:0:0:0:
454,171,182426,6,0,P|464:96|475:39,1,120,6|0,3:2|3:0,0:0:0:0:
310,142,182905,1,2,3:2:0:0:
360,301,183044,2,0,L|387:370,1,40,10|0,0:2|0:0,0:0:0:0:
425,253,183203,1,8,0:2:0:0:
425,253,183283,1,8,0:2:0:0:
425,253,183363,1,2,3:2:0:0:
278,321,183522,1,0,3:0:0:0:
259,78,183682,1,0,3:0:0:0:
259,78,183844,2,0,L|319:226,1,160,6|0,3:2|3:0,0:0:0:0:
381,82,184330,1,6,3:2:0:0:
33,197,184644,1,6,3:2:0:0:
28,170,184722,1,8,0:2:0:0:
44,141,184801,1,8,0:2:0:0:
86,148,184879,1,8,0:2:0:0:
93,183,184958,1,8,0:2:0:0:
96,205,185037,1,8,0:2:0:0:
106,214,185117,1,6,3:2:0:0:
454,190,185436,1,6,3:2:0:0:
216,100,185596,2,0,L|334:100,1,80,6|0,3:2|0:0,0:0:0:0:
237,319,185915,2,0,L|141:316,1,80,10|0,3:2|0:0,0:0:0:0:
474,209,186244,6,0,L|480:338,2,120,6|2|2,3:2|3:2|3:2,0:0:0:0:
398,368,186882,1,10,0:2:0:0:
474,209,187196,1,2,0:2:0:0:
384,123,187353,1,0,0:0:0:0:
462,54,187511,6,0,P|391:48|322:31,2,120,6|2|2,3:2|3:2|3:2,0:0:0:0:
229,59,188159,1,10,0:2:0:0:
167,224,188318,1,2,3:2:0:0:
167,224,188398,1,0,3:0:0:0:
167,224,188478,1,2,3:2:0:0:
257,151,188637,1,0,3:0:0:0:
167,119,188797,1,0,3:0:0:0:
48,239,188947,6,0,P|55:179|59:119,1,120,6|0,3:2|0:0,0:0:0:0:
40,102,189265,1,2,3:2:0:0:
126,314,189424,2,0,L|309:267,1,160,14|2,0:2|0:2,0:0:0:0:
132,227,189915,1,0,0:0:0:0:
48,316,190073,1,2,0:3:0:0:
336,214,190232,6,0,P|311:201|234:188,1,80,6|0,3:2|0:0,0:0:0:0:
355,361,190551,2,0,P|380:348|457:335,1,80,2|14,3:2|0:2,0:0:0:0:
381,146,190860,1,0,3:0:0:0:
512,192,191021,2,0,L|496:286,1,80,10|0,0:2|0:0,0:0:0:0:
350,67,191365,1,6,3:2:0:0:
255,184,191593,1,2,0:2:0:0:
260,189,191669,2,0,L|237:91,1,80,2|2,0:0|2:3,0:0:0:0:
508,84,192010,2,0,P|412:64|350:68,1,160,10|2,0:2|0:3,0:0:0:0:
291,133,192481,1,2,0:0:0:0:
123,71,192625,6,0,P|158:23|212:-1,2,120,6|2|2,3:2|0:2|3:2,0:0:0:0:
0,142,193253,2,0,P|42:157|90:196,1,80,10|2,0:2|3:2,0:0:0:0:
221,255,193572,1,2,3:2:0:0:
208,269,193651,1,0,3:0:0:0:
190,279,193731,1,0,3:0:0:0:
171,281,193811,1,0,3:0:0:0:
151,276,193891,1,8,3:2:0:0:
141,257,193970,1,8,3:2:0:0:
174,227,194050,6,0,L|26:287,1,160,6|6,3:2|0:2,0:0:0:0:
211,151,194529,1,6,3:2:0:0:
508,302,194848,1,6,3:2:0:0:
488,326,194928,1,8,0:2:0:0:
453,316,195008,1,8,0:2:0:0:
442,275,195087,1,8,0:2:0:0:
439,238,195167,1,8,0:2:0:0:
464,213,195247,1,8,0:2:0:0:
500,186,195327,1,6,3:2:0:0:
498,99,195631,1,6,3:2:0:0:
343,193,195795,2,0,L|225:193,1,80,6|0,3:2|0:0,0:0:0:0:
65,95,196125,1,6,3:2:0:0:
84,92,196204,1,8,0:2:0:0:
104,89,196284,1,8,0:2:0:0:
124,86,196364,1,8,0:2:0:0:
144,84,196444,1,8,0:2:0:0:
170,86,196523,1,8,0:2:0:0:
181,104,196603,6,0,L|121:252,1,160,6|6,3:2|3:2,0:0:0:0:
257,67,197082,1,6,3:2:0:0:
373,317,197401,1,6,3:2:0:0:
391,283,197481,1,8,0:2:0:0:
371,251,197561,1,8,0:2:0:0:
317,253,197641,1,8,0:2:0:0:
313,288,197720,1,8,0:2:0:0:
319,355,197800,1,8,0:2:0:0:
259,365,197880,2,0,P|180:325|73:301,1,160,6|6,3:2|3:2,0:0:0:0:
0,210,198359,2,0,P|84:182|176:123,1,160,6|6,3:2|3:2,0:0:0:0:
218,44,198837,1,0,3:0:0:0:
218,44,198917,1,2,0:0:0:0:
218,44,198997,5,2,3:2:0:0:
29,5,199316,5,2,0:2:0:0:
218,44,199476,1,2,0:2:0:0:
406,12,199795,5,2,0:2:0:0:
480,98,200114,1,2,0:2:0:0:
419,274,200274,5,2,0:2:0:0:
480,98,200593,5,2,0:2:0:0:
312,198,200912,5,10,0:2:0:0:
241,258,201151,1,0,3:0:0:0:
233,331,201391,1,0,3:0:0:0:
362,108,201550,6,0,L|270:97,1,80,6|0,3:2|0:0,0:0:0:0:
113,73,201869,1,2,3:2:0:0:
177,246,202029,1,0,3:0:0:0:
320,18,202188,1,8,0:2:0:0:
362,108,202348,2,0,L|361:194,1,80,0|0,3:0|0:0,0:0:0:0:
433,46,202667,1,0,3:0:0:0:
358,272,202827,6,0,P|309:253|287:154,1,160,8|2,0:2|3:2,0:0:0:0:
495,304,203465,1,8,0:2:0:0:
352,370,203625,2,0,L|259:368,1,80,0|0,3:0|0:0,0:0:0:0:
358,272,203944,1,0,3:0:0:0:
215,188,204103,1,2,0:2:0:0:
202,188,204183,1,0,0:0:0:0:
189,187,204263,1,2,3:2:0:0:
246,115,204422,1,2,3:2:0:0:
69,261,204582,1,2,0:2:0:0:
69,261,204662,1,0,0:0:0:0:
69,261,204742,2,0,P|61:189|61:174,1,80,10|2,0:2|0:2,0:0:0:0:
59,152,204981,1,2,0:2:0:0:
73,141,205061,1,2,3:2:0:0:
335,99,205220,1,2,3:2:0:0:
459,2,205380,6,0,P|500:56|464:160,1,160,2|0,0:2|0:0,0:0:0:0:
277,277,205859,1,2,3:2:0:0:
277,277,206018,2,0,L|383:277,1,80,10|0,0:2|0:0,0:0:0:0:
281,361,206337,1,0,3:0:0:0:
203,194,206497,1,8,0:2:0:0:
68,351,206657,2,0,L|58:288,1,40,6|0,3:2|0:0,0:0:0:0:
142,362,206816,1,2,0:2:0:0:
129,135,206976,1,2,3:2:0:0:
203,194,207135,1,2,3:2:0:0:
260,12,207295,1,10,0:2:0:0:
203,194,207454,1,0,3:0:0:0:
352,25,207614,6,0,L|359:86,1,40,2|0,0:2|0:0,0:0:0:0:
424,258,207774,2,0,L|435:336,1,40,2|0,3:2|0:0,0:0:0:0:
480,128,207933,1,2,0:2:0:0:
480,128,208093,1,0,3:0:0:0:
273,282,208252,1,0,3:0:0:0:
273,282,208571,5,8,0:2:0:0:
74,275,208731,1,8,0:2:0:0:
320,200,208891,1,8,0:2:0:0:
85,350,209210,2,0,L|-26:365,1,80,4|0,3:2|0:0,0:0:0:0:
128,170,209529,1,4,3:2:0:0:
187,367,209688,1,2,3:2:0:0:
61,119,209848,1,10,0:2:0:0:
182,102,210008,1,2,3:2:0:0:
128,170,210167,1,0,0:0:0:0:
44,28,210327,1,2,3:2:0:0:
224,187,210486,1,6,0:2:0:0:
269,161,210593,1,2,0:2:0:0:
311,138,210699,1,2,0:2:0:0:
351,117,210805,1,2,3:2:0:0:
472,298,211045,5,0,0:0:0:0:
472,298,211125,2,0,L|469:360,1,40,10|10,0:2|0:2,0:0:0:0:
395,355,211284,1,10,0:2:0:0:
381,342,211364,1,10,0:2:0:0:
373,322,211444,1,2,3:2:0:0:
369,303,211524,1,10,0:2:0:0:
370,288,211603,1,10,0:2:0:0:
375,271,211683,1,10,0:2:0:0:
409,232,211763,5,6,3:2:0:0:
386,182,211869,1,2,0:2:0:0:
338,165,211976,1,2,0:2:0:0:
281,175,212082,1,6,3:2:0:0:
239,209,212188,1,2,0:2:0:0:
196,219,212295,1,2,0:2:0:0:
132,193,212401,1,14,0:2:0:0:
123,159,212508,1,2,0:2:0:0:
131,124,212614,1,2,0:2:0:0:
159,108,212720,1,6,0:2:0:0:
162,148,212827,1,2,0:2:0:0:
146,179,212933,1,2,0:2:0:0:
108,203,213040,1,6,3:2:0:0:
104,251,213146,1,2,0:2:0:0:
122,297,213252,1,2,0:2:0:0:
174,336,213359,1,6,3:2:0:0:
227,344,213465,1,2,0:2:0:0:
276,334,213571,1,2,0:2:0:0:
330,285,213678,1,14,0:2:0:0:
364,245,213784,1,2,0:2:0:0:
425,240,213891,1,2,0:2:0:0:
475,280,213997,1,6,0:2:0:0:
464,352,214103,1,2,0:2:0:0:
393,362,214210,1,2,0:2:0:0:
359,293,214316,1,6,0:2:0:0:
398,221,214422,1,2,0:0:0:0:
398,221,214529,1,2,0:0:0:0:
398,221,214635,1,6,3:2:0:0:
373,173,214742,1,2,0:0:0:0:
328,170,214848,1,2,0:0:0:0:
255,194,214954,1,14,0:2:0:0:
210,208,215061,1,2,0:0:0:0:
163,193,215167,1,2,0:0:0:0:
128,119,215274,1,6,3:2:0:0:
171,98,215380,1,2,0:0:0:0:
217,106,215486,1,2,0:2:0:0:
255,136,215593,1,6,0:2:0:0:
256,211,215699,1,2,0:0:0:0:
192,253,215805,1,2,0:0:0:0:
117,233,215912,1,6,0:2:0:0:
85,158,216018,1,2,0:0:0:0:
85,158,216125,1,2,0:0:0:0:
85,158,216231,2,0,P|68:83|54:18,1,106.666666666667,14|2,0:2|0:2,0:0:0:0:
169,80,216550,1,6,3:2:0:0:
254,106,216657,1,2,0:2:0:0:
304,91,216763,1,2,0:2:0:0:
347,52,216869,6,0,L|463:50,1,80,6|2,3:2|0:2,0:0:0:0:
491,106,217188,1,6,3:2:0:0:
260,24,217348,1,2,3:2:0:0:
325,264,217508,1,14,0:2:0:0:
322,258,217667,1,2,3:2:0:0:
137,345,217827,1,6,0:2:0:0:
122,314,217933,1,2,0:2:0:0:
123,277,218040,1,2,0:2:0:0:
144,237,218146,1,6,0:2:0:0:
174,213,218252,1,2,0:2:0:0:
181,158,218359,1,2,0:2:0:0:
166,111,218465,1,6,3:2:0:0:
127,79,218571,1,2,0:2:0:0:
78,86,218678,1,2,0:2:0:0:
101,129,218784,5,14,0:2:0:0:
361,159,218944,1,10,0:2:0:0:
201,322,219103,5,10,0:2:0:0:
150,314,219210,1,2,0:2:0:0:
129,276,219316,1,2,0:2:0:0:
200,246,219422,1,6,3:2:0:0:
257,265,219529,1,2,0:2:0:0:
304,317,219635,1,2,0:2:0:0:
329,330,219742,1,6,3:2:0:0:
364,332,219848,1,2,0:2:0:0:
392,306,219954,1,2,0:2:0:0:
410,253,220061,1,14,0:2:0:0:
424,223,220167,1,2,0:2:0:0:
461,215,220274,1,2,0:2:0:0:
496,237,220380,6,0,L|399:230,1,80,6|0,0:2|3:0,0:0:0:0:
258,124,220699,2,0,L|346:125,1,80,6|0,0:2|0:0,0:0:0:0:
137,233,221018,2,0,P|77:160|49:100,1,160,6|2,3:2|3:2,0:0:0:0:
88,82,221417,1,10,0:2:0:0:
118,112,221497,1,10,0:2:0:0:
114,150,221577,1,8,0:2:0:0:
97,183,221657,1,2,3:2:0:0:
94,218,221736,1,8,0:2:0:0:
106,240,221816,1,10,0:2:0:0:
125,255,221896,1,8,0:2:0:0:
134,293,221976,6,0,P|256:263|397:230,1,240,6|0,3:2|3:0,0:0:0:0:
487,103,222614,1,10,0:2:0:0:
417,44,222774,2,0,P|385:88|368:113,1,80,2|2,0:2|3:2,0:0:0:0:
367,236,223093,1,2,3:2:0:0:
512,228,223253,2,0,P|468:196|443:179,1,80,2|2,3:2|0:2,0:0:0:0:
325,303,223571,1,2,3:2:0:0:
325,303,223731,1,2,3:2:0:0:
231,186,223891,2,0,P|217:153|216:141,3,40,14|0|0|0,0:2|0:0|0:0|0:0,0:0:0:0:
235,271,224210,2,0,P|221:304|213:313,3,40,2|0|0|0,0:3|0:0|3:0|0:0,0:0:0:0:
164,233,224529,6,0,L|-2:215,1,160,6|2,3:2|3:2,0:0:0:0:
73,314,225008,1,2,3:2:0:0:
73,314,225087,1,2,0:2:0:0:
73,314,225167,2,0,L|157:321,1,80,10|2,0:2|0:2,0:0:0:0:
316,255,225486,1,2,3:2:0:0:
395,270,225646,1,2,3:2:0:0:
459,342,225805,1,2,3:2:0:0:
373,246,225965,2,0,P|361:204|350:153,2,80,10|2|2,0:2|3:2|3:2,0:0:0:0:
491,88,226444,2,0,L|457:68,1,40,10|2,0:2|0:2,0:0:0:0:
394,29,226603,1,2,3:2:0:0:
233,137,226763,2,0,P|306:153|364:169,1,120,10|0,0:2|0:0,0:0:0:0:
386,195,227082,2,0,P|428:184|433:171,3,40,6|0|2|0,3:2|0:0|0:2|0:0,0:0:0:0:
312,237,227401,5,2,3:2:0:0:
245,326,227561,1,2,3:2:0:0:
247,345,227640,1,2,0:2:0:0:
249,364,227720,2,0,P|286:351|302:347,3,40,10|0|2|0,0:2|0:0|0:2|0:0,0:0:0:0:
188,316,228040,1,2,3:2:0:0:
155,300,228119,1,0,0:0:0:0:
123,307,228199,1,2,3:2:0:0:
97,332,228279,1,2,0:2:0:0:
59,350,228359,1,2,3:2:0:0:
4,257,228518,2,0,L|-1:200,1,40,10|2,0:2|0:2,0:0:0:0:
56,164,228678,2,0,L|59:124,3,40,2|0|2|0,3:2|0:0|3:2|0:0,0:0:0:0:
123,209,228997,1,10,0:2:0:0:
144,188,229076,1,2,0:2:0:0:
169,172,229156,1,0,3:0:0:0:
197,159,229236,1,2,0:2:0:0:
226,152,229316,1,10,0:2:0:0:
244,164,229396,1,10,0:2:0:0:
255,177,229476,1,10,0:2:0:0:
250,195,229555,1,10,0:2:0:0:
234,204,229635,6,0,B|337:186|307:253|411:246,1,160,6|6,3:2|3:2,0:0:0:0:
400,235,230034,1,2,0:2:0:0:
498,107,230194,1,2,0:2:0:0:
470,95,230274,2,0,P|454:65|453:41,3,40,14|2|2|2,0:2|0:2|0:2|0:2,0:0:0:0:
407,154,230593,1,6,3:2:0:0:
376,128,230672,1,2,0:2:0:0:
340,112,230752,1,2,0:2:0:0:
300,110,230832,1,2,0:2:0:0:
261,121,230912,1,6,3:2:0:0:
242,144,230991,1,2,0:2:0:0:
216,159,231071,1,2,0:2:0:0:
187,165,231151,1,2,0:2:0:0:
157,161,231231,1,6,3:2:0:0:
138,156,231310,1,2,0:2:0:0:
125,141,231390,1,2,0:2:0:0:
122,122,231470,1,2,0:2:0:0:
129,104,231550,2,0,P|152:91|184:82,3,40,14|2|2|2,0:2|0:2|0:2|0:2,0:0:0:0:
0,73,231869,1,6,3:2:0:0:
14,110,231948,1,2,0:2:0:0:
27,148,232028,1,2,0:2:0:0:
37,186,232108,1,2,0:2:0:0:
0,220,232188,6,0,B|185:199,1,160,6|2,3:2|3:3,0:0:0:0:
316,299,232667,1,2,3:2:0:0:
307,212,232827,1,10,0:2:0:0:
436,135,232986,1,2,0:2:0:0:
451,140,233066,1,2,0:2:0:0:
468,147,233146,2,0,L|467:195,3,40,2|0|0|0,3:2|0:0|3:0|0:0,0:0:0:0:
511,253,233465,2,0,P|453:280|380:325,1,120,2|2,3:2|0:2,0:0:0:0:
367,300,233784,2,0,P|343:288|333:277,3,40,2|2|2|2,3:2|0:2|3:2|0:2,0:0:0:0:
234,288,234103,1,14,0:2:0:0:
218,267,234182,1,2,0:2:0:0:
214,241,234262,1,2,0:2:0:0:
221,216,234342,1,2,0:2:0:0:
239,197,234422,2,0,P|255:235|256:243,3,40,2|2|2|2,0:2|0:2|3:2|0:2,0:0:0:0:
157,158,234742,5,6,3:2:0:0:
157,158,234821,1,2,0:2:0:0:
157,158,234901,2,0,P|81:170|0:189,1,160,2|2,0:2|3:2,0:0:0:0:
145,310,235380,1,10,0:2:0:0:
177,292,235460,1,2,0:2:0:0:
181,261,235540,1,2,0:2:0:0:
167,247,235619,1,2,0:2:0:0:
152,246,235699,2,0,B|104:253,3,40,2|2|2|2,3:2|0:2|3:2|0:2,0:0:0:0:
239,197,236018,6,0,P|335:166|419:146,1,160,2|2,3:2|3:2,0:0:0:0:
471,275,236497,1,2,3:2:0:0:
462,358,236657,2,0,P|366:327|282:307,1,160,2|2,0:2|3:3,0:0:0:0:
308,312,237135,1,0,3:0:0:0:
492,242,237295,2,0,P|516:187|451:107,1,160,14|6,0:2|3:2,0:0:0:0:
392,151,237774,1,2,3:2:0:0:
237,68,237933,2,0,B|166:48|156:111|80:90,1,160,14|2,0:2|3:2,0:0:0:0:
8,177,238412,2,0,P|6:162|0:122,1,40,2|2,3:2|0:2,0:0:0:0:
95,201,238571,1,14,0:2:0:0:
77,211,238650,1,2,0:0:0:0:
62,224,238730,1,0,0:0:0:0:
50,240,238811,1,2,0:0:0:0:
40,256,238891,2,0,L|0:287,3,40,2|2|2|2,3:2|0:2|3:2|0:2,0:0:0:0:
115,298,239210,1,14,0:2:0:0:
140,288,239289,1,2,0:2:0:0:
167,295,239369,1,2,0:2:0:0:
185,316,239449,1,2,0:2:0:0:
189,343,239529,5,2,3:2:0:0:
261,306,239635,1,2,0:2:0:0:
334,329,239742,1,2,0:2:0:0:
397,298,239848,2,0,P|467:280|484:278,2,53.3333333333333,10|2|2,0:2|0:2|0:2,0:0:0:0:
348,237,240167,1,14,0:2:0:0:
389,172,240274,1,2,0:2:0:0:
334,110,240380,1,2,0:2:0:0:
403,28,240486,1,14,0:2:0:0:
403,28,240593,1,2,0:2:0:0:
403,28,240699,1,2,0:2:0:0:
314,92,240805,2,0,P|296:22|294:5,2,53.3333333333333,14|2|2,0:2|0:2|0:2,0:0:0:0:
387,120,241125,5,14,0:2:0:0:
130,34,241284,1,0,3:0:0:0:
154,21,241444,5,14,0:2:0:0:
124,314,241603,1,0,3:0:0:0:
97,298,241763,5,10,0:2:0:0:
299,40,241922,1,10,3:2:0:0:
512,300,242082,1,10,3:2:0:0:
512,300,242407,6,2,B|374:236|228:207|303:353|23:360,1,514.55998618125,2|0,1:2|0:0,0:0:0:0:
259,99,255158,6,0,L|259:194,1,88.000002685547
330,276,255637,2,0,P|347:249|352:187,1,88.000002685547,0|0,3:0|3:0,0:0:0:0:
453,100,256116,2,0,P|458:142|465:201,1,88.000002685547,2|0,3:2|0:0,0:0:0:0:
507,297,256594,2,0,L|514:351,2,44.0000013427735,0|0|0,3:0|3:0|3:0,0:0:0:0:
422,327,257073,1,2,3:2:0:0:
422,327,257392,2,0,L|327:339,1,88.000002685547,2|2,3:2|3:2,0:0:0:0:
208,285,258031,2,0,L|314:267,1,88.000002685547,0|0,3:0|3:0,0:0:0:0:
407,206,258509,1,2,3:2:0:0:
407,206,258669,6,0,P|411:166|423:109,1,88.000002685547,2|0,3:2|0:0,0:0:0:0:
312,60,259148,2,0,P|311:120|307:154,1,88.000002685547,2|0,3:2|0:0,0:0:0:0:
217,118,259626,2,0,L|154:120,1,44.0000013427735,2|0,3:2|0:0,0:0:0:0:
86,55,259946,1,0,3:0:0:0:
63,160,260105,1,2,3:2:0:0:
63,160,260185,1,2,3:2:0:0:
63,160,260265,2,0,P|66:215|69:244,1,66.0000020141602,2|0,3:2|0:0,0:0:0:0:
45,308,260584,6,0,P|69:309|105:301,1,44.0000013427735,0|2,3:0|3:2,0:0:0:0:
194,287,260903,1,0,3:0:0:0:
194,287,261063,1,2,3:2:0:0:
194,287,261222,2,0,L|193:189,1,88.000002685547,2|0,3:2|0:0,0:0:0:0:
280,134,261701,1,2,3:2:0:0:
280,134,261860,2,0,L|279:73,2,44.0000013427735,2|0|2,0:2|0:0|3:2,0:0:0:0:
381,125,262499,1,2,3:2:0:0:
381,125,262658,1,2,0:2:0:0:
381,125,262818,6,0,L|382:184,1,44.0000013427735,2|0,3:2|0:0,0:0:0:0:
446,265,263137,2,0,L|447:313,1,44.0000013427735,0|2,0:0|3:2,0:0:0:0:
368,338,263456,1,2,3:2:0:0:
368,338,263616,1,2,3:2:0:0:
368,338,263775,2,0,P|318:335|265:338,1,88.000002685547,2|0,3:2|0:0,0:0:0:0:
192,311,264254,1,2,3:2:0:0:
192,311,264414,2,0,L|191:257,1,44.0000013427735,0|0,3:0|3:0,0:0:0:0:
112,238,264733,2,0,L|111:180,1,44.0000013427735,2|0,3:2|3:0,0:0:0:0:
115,62,265052,2,0,P|127:64|160:87,1,44.0000013427735,2|2,3:2|0:2,0:0:0:0:
284,61,265371,2,0,L|384:62,1,88.000002685547,2|0,3:2|3:0,0:0:0:0:
477,68,265850,5,2,3:2:0:0:
477,68,266009,2,0,P|477:26|481:4,1,44.0000013427735,2|0,0:2|3:0,0:0:0:0:
371,61,266328,2,0,P|371:123|369:159,1,88.000002685547,2|0,3:2|3:0,0:0:0:0:
451,195,266807,1,2,3:2:0:0:
451,195,266967,2,0,L|451:254,1,44.0000013427735,0|0,0:0|3:0,0:0:0:0:
385,324,267286,6,0,L|387:268,1,44.0000013427735,2|0,3:2|3:0,0:0:0:0:
294,334,267605,2,0,L|269:333,3,22.0000006713867,2|0|0|0,3:2|3:0|3:0|3:0,0:0:0:0:
242,317,267924,2,0,P|181:304|138:301,1,88.000002685547,2|0,3:2|3:0,0:0:0:0:
40,220,268563,6,0,L|40:173,1,44.0000013427735,0|0,3:0|3:0,0:0:0:0:
121,93,268882,2,0,L|121:146,1,44.0000013427735,2|0,3:2|3:0,0:0:0:0:
204,103,269201,1,0,3:0:0:0:
204,103,269360,2,0,L|301:106,1,88.000002685547,2|2,0:2|3:2,0:0:0:0:
403,34,269839,6,0,L|354:66,1,44.0000013427735,2|0,3:2|3:0,0:0:0:0:
347,209,270165,2,0,L|346:159,1,44.0000013427735,2|0,3:2|3:0,0:0:0:0:
438,135,270491,1,2,3:2:0:0:
438,135,270644,1,0,3:0:0:0:
384,288,270797,6,0,P|325:296|298:275,1,80,0|0,3:0|3:0,0:0:0:0:
167,200,271275,1,0,3:0:0:0:
167,200,271435,2,0,L|163:144,1,44.0000013427735,2|2,3:2|3:2,0:0:0:0:
64,188,271754,1,2,3:2:0:0:
64,188,271914,1,2,3:2:0:0:
214,68,272073,1,2,3:2:0:0:
167,200,272233,1,2,3:2:0:0:
78,70,272392,1,2,3:2:0:0:
287,158,272552,1,2,3:2:0:0:
128,314,272711,1,2,3:2:0:0:
366,125,272871,1,0,3:0:0:0:
366,125,272951,1,0,0:0:0:0:
366,125,273031,5,10,0:2:0:0:
464,302,273190,1,10,0:2:0:0:
377,39,273350,1,10,0:2:0:0:
287,158,273509,1,10,0:2:0:0:
366,125,273669,1,10,0:2:0:0:
234,86,273828,1,2,3:2:0:0:
249,315,273988,1,2,3:2:0:0:
287,158,274148,5,2,3:2:0:0:
127,201,274307,1,2,3:2:0:0:
249,315,274467,1,2,3:2:0:0:
249,315,274786,1,0,3:0:0:0:
249,315,274866,1,0,0:0:0:0:
249,315,274946,5,10,0:2:0:0:
171,106,275105,1,10,0:2:0:0:
50,287,275265,1,10,0:2:0:0:
127,202,275424,1,2,0:2:0:0:
226,337,275584,6,0,P|195:331|176:321,1,47.9999985351563,6|0,3:2|0:0,0:0:0:0:
120,241,275743,2,0,P|126:210|277:197,1,191.999994140625,0|2,0:0|0:2,0:0:0:0:
366,258,276222,2,0,P|369:222|376:154,1,95.9999970703126,12|0,0:2|0:0,0:0:0:0:
499,31,276541,1,2,0:2:0:0:
445,99,276701,1,2,3:2:0:0:
277,36,276860,2,0,P|171:16|59:8,1,191.999994140625,6|0,3:2|0:0,0:0:0:0:
83,12,277499,6,0,P|41:92|214:182,1,335.999989746094,14|0,0:2|0:0,0:0:0:0:
295,181,278137,6,0,P|289:212|279:231,1,47.9999985351563,6|0,3:2|0:0,0:0:0:0:
198,293,278296,2,0,P|242:280|398:249,1,191.999994140625,2|0,0:0|0:0,0:0:0:0:
486,107,278775,2,0,P|483:143|476:211,1,95.9999970703126,12|0,0:2|0:0,0:0:0:0:
450,371,279094,1,2,0:2:0:0:
512,305,279254,1,2,3:2:0:0:
295,181,279413,2,0,P|313:276|323:397,1,191.999994140625,4|0,3:2|0:0,0:0:0:0:
322,370,280052,1,14,0:2:0:0:
224,334,280211,1,2,0:2:0:0:
295,181,280371,1,2,0:2:0:0:
354,245,280531,1,2,3:2:0:0:
164,264,280690,6,0,P|95:210|12:192,2,160,6|0|12,3:2|0:0|0:2,0:0:0:0:
389,161,281648,2,0,P|439:142|474:134,2,80,2|2|6,0:2|3:2|3:2,0:0:0:0:
371,351,282286,2,0,P|384:293|394:254,1,80,2|0,0:2|0:0,0:0:0:0:
464,134,282605,2,0,P|455:95|446:57,1,80,14|0,0:2|0:0,0:0:0:0:
320,202,282924,2,0,P|243:182|198:173,1,120,2|0,0:2|0:0,0:0:0:0:
176,192,283243,2,0,P|117:150|136:65,1,160,6|2,3:2|0:2,0:0:0:0:
348,48,283882,2,0,P|407:90|388:175,1,160,14|2,0:2|0:2,0:0:0:0:
307,269,284360,1,0,0:0:0:0:
381,328,284520,2,0,P|386:264|395:165,1,160,6|10,3:2|0:2,0:0:0:0:
394,168,285158,1,10,0:2:0:0:
504,99,285318,1,2,3:2:0:0:
504,99,285477,2,0,P|493:60|485:21,1,80,2|0,0:2|3:0,0:0:0:0:
394,168,285797,6,0,P|289:125|113:94,1,287.999991210938,6|0,3:2|0:0,0:0:0:0:
21,241,286435,1,12,0:2:0:0:
122,99,286754,6,0,P|113:142|97:241,1,143.999995605469,2|0,0:2|0:0,0:0:0:0:
66,253,287073,2,0,P|30:284|32:335,1,95.9999970703126,6|0,3:2|0:0,0:0:0:0:
142,347,287392,6,0,P|165:312|143:289,1,66.0000020141602
149,294,287711,6,0,P|253:271|328:242,1,143.999995605469,14|0,0:2|0:0,0:0:0:0:
361,272,288031,2,0,P|465:295|540:324,1,143.999995605469,2|0,0:2|0:0,0:0:0:0:
319,353,288350,6,0,P|357:168|486:29,1,383.99998828125,6|12,3:2|0:2,0:0:0:0:
486,28,289307,5,2,0:2:0:0:
355,30,289467,1,2,0:2:0:0:
276,122,289626,2,0,P|156:96|84:82,1,191.999994140625,6|2,3:2|0:2,0:0:0:0:
85,87,290265,6,0,P|160:122|373:291,1,335.999989746094,14|0,0:2|0:0,0:0:0:0:
372,350,290903,6,0,P|323:340|356:173,1,240,6|0,3:2|0:0,0:0:0:0:
491,143,291541,1,12,0:2:0:0:
320,184,291860,6,0,P|329:141|345:42,1,143.999995605469,2|0,0:2|0:0,0:0:0:0:
326,23,292180,2,0,P|264:31|256:74,1,95.9999970703126,6|0,3:2|0:0,0:0:0:0:
230,190,292499,6,0,P|202:177|193:167,1,35.9999989013672
102,133,292818,6,0,L|138:328,1,155.999992858887,14|0,0:2|0:0,0:0:0:0:
212,353,293137,2,0,L|242:200,1,155.999992858887,2|0,0:2|0:0,0:0:0:0:
358,156,293456,6,0,L|-20:378,2,415.999980957032,6|12|10,3:2|0:2|3:2,0:0:0:0:
502,77,294952,1,0,3:0:0:0:
393,44,295172,1,2,3:2:0:0:
354,158,295392,1,10,3:2:0:0:
427,228,295612,1,0,3:0:0:0:
492,176,295831,1,0,3:0:0:0:
219,71,296051,6,0,L|30:39,1,160,6|0,3:2|0:0,0:0:0:0:
121,137,296689,1,12,0:2:0:0:
35,315,297008,2,0,L|119:328,1,80,2|0,0:2|3:0,0:0:0:0:
257,264,297327,2,0,L|153:248,1,80,6|0,3:2|0:0,0:0:0:0:
332,333,297646,2,0,P|350:291|348:236,1,80
489,384,297965,6,0,P|504:312|502:199,1,160,14|2,0:2|0:2,0:0:0:0:
390,34,298444,1,0,3:0:0:0:
351,257,298604,2,0,P|312:273|195:326,1,160,6|0,3:2|0:0,0:0:0:0:
120,187,299242,2,0,L|21:184,1,80,12|0,0:2|0:0,0:0:0:0:
156,90,299561,2,0,L|263:85,1,80,2|2,0:2|3:2,0:0:0:0:
376,47,299880,6,0,P|405:117|442:210,1,160,6|2,3:2|0:2,0:0:0:0:
235,86,300519,2,0,L|232:176,1,80,14|0,0:2|0:0,0:0:0:0:
120,187,300838,2,0,L|107:268,1,80,2|0,0:2|3:0,0:0:0:0:
281,344,301157,6,0,L|190:329,1,80,14|0,0:2|3:0,0:0:0:0:
369,379,301476,1,4,3:2:0:0:
318,239,301636,1,10,0:2:0:0:
480,186,301795,2,0,L|517:75,1,80,4|0,3:2|3:0,0:0:0:0:
460,281,302114,1,14,0:2:0:0:
342,148,302274,1,0,3:0:0:0:
219,263,302433,1,6,3:2:0:0:
182,99,302593,1,10,0:2:0:0:
381,264,302753,2,0,L|489:287,1,80,6|0,3:2|3:0,0:0:0:0:
342,148,303072,1,14,0:2:0:0:
337,350,303231,1,2,3:2:0:0:
492,210,303391,1,10,0:2:0:0:
492,210,303471,1,8,0:2:0:0:
492,210,303551,1,10,0:2:0:0:
492,210,303630,1,10,0:2:0:0:
492,210,303710,5,10,3:2:0:0:
224,204,303870,1,10,3:2:0:0:
455,341,304029,1,10,3:2:0:0:
382,74,304189,1,10,3:2:0:0:
306,111,304348,5,0,0:0:0:0:
306,111,304508,1,0,0:0:0:0:
306,111,304668,5,2,3:2:0:0:
102,108,304827,1,2,3:2:0:0:
178,257,304987,1,2,3:2:0:0:
240,29,305146,1,2,3:2:0:0:
92,325,305465,5,0,3:0:0:0:
92,325,305545,1,0,0:0:0:0:
92,325,305625,1,2,3:2:0:0:
178,257,305838,1,2,3:2:0:0:
279,175,306051,1,2,3:2:0:0:
382,74,306263,6,0,P|420:149|498:275,1,191.999994140625,6|0,3:2|0:0,0:0:0:0:
278,174,306742,2,0,P|226:106|143:15,1,191.999994140625,2|0,0:2|0:0,0:0:0:0:
48,148,307221,1,2,3:2:0:0:
342,329,307540,2,0,L|441:349,1,95.9999970703126,12|0,0:2|0:0,0:0:0:0:
35,355,308816,6,0,P|26:244|15:131,1,191.999994140625,6|0,3:2|0:0,0:0:0:0:
156,29,309295,2,0,P|163:101|178:228,1,191.999994140625,2|0,3:2|0:0,0:0:0:0:
288,130,309774,2,0,L|274:26,1,95.9999970703126,2|0,3:2|0:0,0:0:0:0:
374,89,310093,1,12,0:2:0:0:
479,302,311051,6,0,L|472:187,1,95.9999970703126,0|0,3:0|0:0,0:0:0:0:
410,362,311370,6,0,P|330:338|277:234,1,191.999994140625,6|0,3:2|0:0,0:0:0:0:
204,58,311848,2,0,P|295:79|351:155,1,191.999994140625,2|2,3:2|0:2,0:0:0:0:
165,126,312327,2,0,P|125:84|112:35,1,95.9999970703126,2|2,3:2|0:2,0:0:0:0:
21,191,312646,2,0,L|34:388,1,191.999994140625,14|0,0:2|0:0,0:0:0:0:
168,130,313604,1,0,0:0:0:0:
168,130,313763,1,2,0:2:0:0:
287,193,313923,6,0,L|287:278,1,47.9999985351563,14|0,0:2|0:0,0:0:0:0:
379,183,314082,1,0,3:0:0:0:
184,241,314242,1,0,3:0:0:0:
16,81,314402,1,10,0:2:0:0:
162,38,314561,1,4,3:2:0:0:
57,178,314721,1,0,3:0:0:0:
10,33,314880,6,0,L|17:96,1,47.9999985351563,10|0,0:2|0:0,0:0:0:0:
227,95,315040,1,2,3:2:0:0:
36,266,315359,1,10,0:2:0:0:
123,42,315519,1,4,3:2:0:0:
227,95,315678,1,0,3:0:0:0:
101,323,315838,1,10,0:2:0:0:
45,124,315997,1,0,3:0:0:0:
300,184,316157,1,10,0:2:0:0:
165,210,316316,1,0,3:0:0:0:
342,95,316476,6,0,P|420:138|521:191,1,191.999994140625,6|0,3:2|0:0,0:0:0:0:
300,184,316955,2,0,P|260:247|160:189,1,191.999994140625,2|0,3:2|0:0,0:0:0:0:
39,40,317433,2,0,L|41:156,1,95.9999970703126,2|0,3:2|0:0,0:0:0:0:
209,107,317753,1,14,0:2:0:0:
103,288,317992,1,0,3:0:0:0:
39,40,318231,1,0,3:0:0:0:
281,178,318391,1,0,3:0:0:0:
281,178,318497,1,0,3:0:0:0:
281,178,318604,1,0,3:0:0:0:
281,178,318710,1,2,3:2:0:0:
281,178,318816,1,0,3:0:0:0:
281,178,318923,1,0,3:0:0:0:
394,186,319029,6,0,P|402:123|439:-5,1,191.999994140625,6|0,3:2|0:0,0:0:0:0:
172,161,319508,2,0,P|191:268|195:382,1,191.999994140625,2|0,3:2|0:0,0:0:0:0:
65,270,319987,2,0,L|85:165,1,95.9999970703126,2|0,0:2|3:0,0:0:0:0:
195,351,320306,1,14,0:2:0:0:
209,80,320465,1,8,0:2:0:0:
82,175,320625,1,4,0:2:0:0:
314,136,320785,1,0,3:0:0:0:
353,53,320944,1,4,3:2:0:0:
262,71,321104,1,0,0:0:0:0:
329,225,321263,1,2,3:2:0:0:
296,0,321423,1,8,3:2:0:0:
261,301,321582,6,0,P|356:314|452:328,1,191.999994140625,6|0,3:2|0:0,0:0:0:0:
223,154,322061,2,0,P|119:161|20:162,1,191.999994140625,2|2,3:2|0:2,0:0:0:0:
83,368,322540,1,6,3:2:0:0:
108,355,322646,1,2,0:0:0:0:
139,341,322753,1,2,0:0:0:0:
60,378,322859,2,0,P|1:292|12:196,1,191.999994140625,14|4,0:2|0:2,0:0:0:0:
242,23,323338,2,0,P|275:102|274:225,1,191.999994140625,2|0,0:0|0:0,0:0:0:0:
305,219,324136,6,0,P|302:269|301:297,1,47.9999985351563,14|0,0:2|0:0,0:0:0:0:
427,234,324295,1,0,3:0:0:0:
209,197,324454,1,6,3:2:0:0:
240,16,324614,2,0,P|326:37|435:56,1,191.999994140625,10|0,0:2|3:0,0:0:0:0:
95,226,325093,2,0,L|96:170,1,47.9999985351563,14|0,0:2|0:0,0:0:0:0:
69,311,325253,1,2,3:2:0:0:
120,98,325412,1,4,3:2:0:0:
292,214,325572,1,10,0:2:0:0:
292,214,325731,1,4,3:2:0:0:
292,214,325891,1,0,3:0:0:0:
216,301,326050,1,2,3:2:0:0:
339,121,326210,1,0,3:0:0:0:
319,91,326290,1,0,3:0:0:0:
261,82,326369,1,2,3:2:0:0:
213,97,326449,1,0,3:0:0:0:
170,124,326529,1,0,3:0:0:0:
126,114,326609,1,0,3:0:0:0:
80,106,326689,6,0,L|79:165,1,47.9999985351563,14|0,0:2|0:0,0:0:0:0:
161,22,326849,1,0,3:0:0:0:
42,228,327008,1,4,3:2:0:0:
264,58,327168,2,0,L|460:60,1,191.999994140625,10|0,0:2|3:0,0:0:0:0:
444,317,327647,6,0,L|451:269,1,47.9999985351563,14|0,0:2|0:0,0:0:0:0:
505,366,327806,1,2,3:2:0:0:
421,176,327966,1,4,3:2:0:0:
300,301,328125,1,10,0:2:0:0:
255,232,328285,1,4,3:2:0:0:
344,220,328444,1,0,3:0:0:0:
155,362,328604,1,10,3:2:0:0:
222,73,328763,1,10,3:2:0:0:
451,274,328923,1,10,3:2:0:0:
255,232,329242,5,6,3:2:0:0:
256,192,329322,12,0,331715,0:0:0:0:
256,192,331795,12,14,333710,0:2:0:0:
488,194,338657,5,2,3:2:0:0:
488,194,338737,1,0,0:0:0:0:
488,194,338816,1,10,3:2:0:0:
391,171,338975,1,2,3:2:0:0:
337,317,339136,1,2,3:2:0:0:
337,317,339295,2,0,P|368:285|396:261,1,80,10|2,0:2|3:2,0:0:0:0:
208,142,339614,1,2,3:2:0:0:
208,142,339774,2,0,P|149:133|95:108,1,120,10|0,0:2|0:0,0:0:0:0:
284,180,340092,2,0,P|368:141|455:128,1,160,6|0,3:2|0:0,0:0:0:0:
446,337,340571,1,0,3:0:0:0:
446,337,340730,2,0,P|399:316|402:204,1,160,12|0,0:2|0:0,0:0:0:0:
279,349,341369,6,0,P|251:343|179:333,1,80,4|0,3:2|3:0,0:0:0:0:
63,374,341688,1,2,3:2:0:0:
63,374,341847,2,0,P|79:333|80:289,1,80,2|8,3:2|0:2,0:0:0:0:
200,43,342326,2,0,P|184:84|183:128,1,80,2|0,3:2|3:0,0:0:0:0:
299,266,342645,5,10,0:2:0:0:
299,266,342964,2,0,P|231:249|201:247,1,80,10|10,0:2|0:2,0:0:0:0:
426,80,343443,5,10,0:2:0:0:
426,80,343762,1,10,0:2:0:0:
426,80,344081,2,0,P|494:63|524:61,1,80,10|10,0:2|0:2,0:0:0:0:
500,324,344560,5,10,0:2:0:0:
411,187,344720,1,10,0:2:0:0:
246,326,344879,1,10,0:2:0:0:
68,58,345198,5,6,3:2:0:0:
93,72,345277,1,2,0:2:0:0:
103,95,345357,1,2,0:2:0:0:
105,118,345437,1,2,3:2:0:0:
91,147,345518,1,10,0:2:0:0:
73,175,345597,1,2,0:2:0:0:
73,205,345677,1,2,3:2:0:0:
83,231,345757,1,2,0:2:0:0:
107,254,345837,1,2,0:2:0:0:
137,268,345916,1,2,0:2:0:0:
169,258,345996,2,0,P|188:215|178:172,1,80,2|10,0:2|0:2,0:0:0:0:
356,49,346316,2,0,P|394:40|410:38,1,40,2|2,0:2|0:2,0:0:0:0:
479,81,346475,5,2,3:2:0:0:
493,103,346554,1,0,0:0:0:0:
497,129,346634,1,2,0:2:0:0:
489,154,346714,1,2,3:2:0:0:
471,174,346794,1,10,0:2:0:0:
446,183,346873,1,2,0:2:0:0:
420,182,346954,1,2,3:2:0:0:
396,160,347033,1,2,0:2:0:0:
369,144,347113,1,2,0:2:0:0:
338,133,347193,1,2,0:2:0:0:
307,130,347273,1,10,0:2:0:0:
275,133,347352,1,2,0:2:0:0:
244,158,347433,2,0,L|232:219,3,40,2|2|10|2,0:2|0:2|0:2|0:2,0:0:0:0:
281,248,347752,5,2,3:2:0:0:
267,273,347831,1,2,0:2:0:0:
244,283,347911,1,0,0:0:0:0:
221,285,347991,1,2,3:2:0:0:
192,271,348072,1,10,0:2:0:0:
164,253,348151,1,2,0:2:0:0:
134,253,348231,1,2,3:2:0:0:
108,263,348311,1,2,0:2:0:0:
85,287,348391,1,2,0:2:0:0:
71,317,348470,1,2,0:2:0:0:
81,349,348550,2,0,P|124:368|167:358,1,80,2|10,0:2|0:2,0:0:0:0:
313,333,348869,2,0,P|358:322|380:321,1,40,2|2,0:2|0:2,0:0:0:0:
380,333,349028,6,0,P|389:357|389:376,4,40,14|10|10|10|10,0:2|0:2|0:2|0:2|0:2,0:0:0:0:
445,285,349427,2,0,P|454:261|454:242,4,40,10|10|10|10|10,0:2|0:2|0:2|0:2|0:2,0:0:0:0:
377,219,349826,2,0,P|368:195|368:176,5,40,10|10|10|10|10|10,3:2|0:2|0:2|0:2|0:2|0:2,0:0:0:0:
440,133,350305,5,6,3:2:0:0:
426,108,350384,1,2,0:2:0:0:
403,98,350464,1,2,0:2:0:0:
380,96,350544,1,2,3:2:0:0:
351,110,350625,1,10,0:2:0:0:
323,128,350704,1,2,0:2:0:0:
293,128,350784,1,2,3:2:0:0:
267,118,350864,1,2,0:2:0:0:
244,94,350944,1,2,0:2:0:0:
230,64,351023,1,2,0:2:0:0:
240,32,351103,2,0,P|283:13|326:23,1,80,2|10,0:2|0:2,0:0:0:0:
129,143,351422,2,0,P|88:138|81:132,1,40,2|2,0:2|0:2,0:0:0:0:
18,179,351581,5,2,3:2:0:0:
4,201,351660,1,0,0:0:0:0:
0,227,351740,1,2,0:2:0:0:
8,252,351820,1,2,3:2:0:0:
26,272,351900,1,10,0:2:0:0:
51,281,351979,1,2,0:2:0:0:
77,280,352060,1,2,3:2:0:0:
98,269,352140,1,2,0:2:0:0:
121,245,352220,1,2,0:2:0:0:
150,218,352299,1,2,0:2:0:0:
187,204,352379,1,10,0:2:0:0:
227,206,352459,1,2,0:2:0:0:
263,224,352539,1,2,0:2:0:0:
289,253,352618,1,2,0:2:0:0:
302,291,352698,2,0,P|299:352|298:357,1,40,10|2,0:2|0:2,0:0:0:0:
374,384,352858,5,2,3:2:0:0:
399,370,352937,1,2,0:2:0:0:
409,347,353017,1,0,0:0:0:0:
411,324,353097,1,2,3:2:0:0:
397,295,353178,1,10,0:2:0:0:
379,267,353257,1,2,0:2:0:0:
379,237,353337,1,2,3:2:0:0:
389,211,353417,1,2,0:2:0:0:
413,188,353497,1,2,0:2:0:0:
443,174,353576,1,2,0:2:0:0:
475,184,353656,2,0,P|494:227|484:270,1,80,2|10,0:2|0:2,0:0:0:0:
354,140,353975,2,0,P|344:106|344:93,1,40,2|2,0:2|0:2,0:0:0:0:
396,52,354135,6,0,P|405:28|405:9,4,40,14|10|10|10|10,3:2|0:2|0:2|0:2|0:2,0:0:0:0:
278,56,354534,2,0,P|269:80|269:99,4,40,10|10|10|10|10,3:2|0:2|0:2|0:2|0:2,0:0:0:0:
197,135,354933,2,0,P|206:159|206:178,5,40,14|10|10|10|10|10,3:2|0:2|0:2|0:2|0:2|0:2,0:0:0:0:
131,102,355411,2,0,P|122:78|122:59,5,40,10|10|10|10|10|14,3:2|0:2|0:2|0:2|0:2|3:2,0:0:0:0:
80,154,355890,2,0,P|56:163|37:163,3,40,10|10|10|10,0:2|0:2|0:2|0:2,0:0:0:0:
135,210,356209,2,0,P|144:234|144:253,5,40,10|10|10|10|10|10,3:2|0:2|0:2|0:2|0:2|0:2,0:0:0:0:
55,317,356688,5,14,3:2:0:0:
83,309,356767,1,2,3:2:0:0:
113,314,356847,1,2,3:2:0:0:
139,328,356927,1,2,3:2:0:0:
157,352,357007,1,2,3:2:0:0:
180,366,357087,5,6,3:2:0:0:
208,374,357166,1,2,3:2:0:0:
238,369,357246,1,2,3:2:0:0:
264,355,357326,1,2,3:2:0:0:
282,331,357406,1,2,3:2:0:0:
303,304,357486,5,6,3:2:0:0:
331,296,357565,1,2,3:2:0:0:
361,301,357645,1,2,3:2:0:0:
387,315,357725,1,2,3:2:0:0:
405,339,357805,1,2,3:2:0:0:
410,365,357885,1,2,3:2:0:0:
434,375,357964,6,0,P|470:358|474:335,3,40,10|2|2|2,3:2|0:2|0:2|0:2,0:0:0:0:
480,277,358284,1,2,0:2:0:0:
483,257,358363,1,2,0:2:0:0:
487,237,358443,1,2,0:2:0:0:
491,218,358523,1,2,0:2:0:0:
487,198,358603,2,0,P|486:156|485:152,3,40,2|2|2|2,0:2|0:2|0:2|0:2,0:0:0:0:
421,116,358922,1,2,0:2:0:0:
410,99,359001,1,2,0:2:0:0:
406,79,359081,1,2,3:2:0:0:
408,60,359161,1,2,0:2:0:0:
443,30,359241,1,2,3:2:0:0:
