osu file format v14

[General]
AudioFilename: audio.mp3
AudioLeadIn: 0
PreviewTime: 140226
Countdown: 0
SampleSet: Soft
StackLeniency: 0.2
Mode: 0
LetterboxInBreaks: 0
WidescreenStoryboard: 0

[Editor]
Bookmarks: 121,21822,42248,62674,85652,114854,140386,163364,186342,201661,222087,245052,275690,296157,316582,340198
DistanceSpacing: 1
BeatDivisor: 4
GridSize: 16
TimelineZoom: 3.699998

[Metadata]
Title:The Amateur Arsonist's Handbook
TitleUnicode:The Amateur Arsonist's Handbook
Artist:Thank You Scientist
ArtistUnicode:Thank You Scientist
Creator:Fisky
Version:Poisonous Emotions
Source:osu!
Tags:featured artist fa alternative alt progressive prog rock Stranger Heads Prevail English collab collaboration kkipalt
BeatmapID:2968949
BeatmapSetID:1443356

[Difficulty]
HPDrainRate:5
CircleSize:4
OverallDifficulty:9
ApproachRate:9.6
SliderMultiplier:2
SliderTickRate:1

[Events]
//Background and Video events
0,0,"thumb-1920-567517.jpg",0,0
//Break Periods
//Storyboard Layer 0 (Background)
//Storyboard Layer 1 (Fail)
//Storyboard Layer 2 (Pass)
//Storyboard Layer 3 (Foreground)
//Storyboard Layer 4 (Overlay)
//Storyboard Sound Samples

[TimingPoints]
121,319.148936170213,4,2,1,60,1,0
121,-100,4,2,1,60,0,0
4589,319.148936170213,4,2,1,60,1,0
4589,-100,4,2,1,60,0,0
5865,-83.3333333333333,4,2,1,60,0,0
6503,-100,4,2,1,60,0,0
8418,-83.3333333333333,4,2,1,60,0,0
9056,-100,4,2,1,60,0,0
13525,324.324324324325,4,2,1,60,1,0
14173,312.5,4,2,1,60,1,0
14642,319.148936170213,4,2,1,60,1,0
15440,319.148936170213,4,2,1,60,1,0
15440,-100,4,2,1,60,0,0
16397,-71.4285714285714,4,2,1,60,0,0
16716,-83.3333333333333,4,2,1,60,0,0
21822,-76.9230769230769,4,2,1,60,0,0
40014,-76.9230769230769,4,2,1,80,0,0
41769,-100,4,2,1,80,0,0
42248,-100,4,2,1,60,0,0
44163,-66.6666666666667,4,2,1,60,0,0
44801,-100,4,2,1,60,0,0
46716,-66.6666666666667,4,2,1,60,0,0
46876,-100,4,2,1,60,0,0
47674,-66.6666666666667,4,2,1,60,0,0
49588,-83.3333333333333,4,2,1,60,0,0
49748,-66.6666666666667,4,2,1,60,0,0
50227,-200,4,2,1,60,0,0
50546,-66.6666666666667,4,2,1,60,0,0
50865,-200,4,2,1,60,0,0
51184,-100,4,2,1,60,0,0
51503,-200,4,2,1,60,0,0
51822,-83.3333333333333,4,2,1,60,0,0
52142,-100,4,2,1,60,0,0
54376,-66.6666666666667,4,2,1,60,0,0
55014,-100,4,2,1,60,0,0
56929,-66.6666666666667,4,2,1,60,0,0
57089,-100,4,2,1,60,0,0
57886,-66.6666666666667,4,2,1,60,0,0
59801,-100,4,2,1,60,0,0
60120,-100,4,2,1,40,0,0
60918,-100,4,2,1,50,0,0
61397,-100,4,2,1,60,0,0
61716,-66.6666666666667,4,2,1,70,0,0
61796,-76.9230769230769,4,2,1,5,0,0
61876,-57.1428571428571,4,2,1,70,0,0
61955,-76.9230769230769,4,2,1,5,0,0
62035,-50,4,2,1,70,0,0
62674,-71.4285714285714,4,2,1,80,0,0
63791,-100,4,2,1,80,0,0
65067,-71.4285714285714,4,2,1,80,0,0
66344,-100,4,2,1,80,0,0
67780,-71.4285714285714,4,2,1,80,0,0
70014,-100,4,2,1,80,0,0
72567,-71.4285714285714,4,2,1,80,0,0
74003,-100,4,2,1,80,0,0
75280,-71.4285714285714,4,2,1,80,0,0
77354,-90.9090909090909,4,2,1,80,0,0
77993,-71.4285714285714,4,2,1,80,0,0
81503,-62.5,4,2,1,80,0,0
85652,-100,4,2,1,70,0,0
86769,-76.9230769230769,4,2,1,70,0,0
87567,-66.6666666666667,4,2,1,70,0,0
89163,-100,4,2,1,70,0,0
89322,-76.9230769230769,4,2,1,70,0,0
89961,-83.3333333333333,4,2,1,70,0,0
90759,-83.3333333333333,4,2,1,60,0,0
91557,319.148936170213,4,2,1,60,1,0
92354,319.148936170213,4,2,1,60,1,0
93152,319.148936170213,4,2,1,60,1,0
93152,-76.9230769230769,4,2,1,60,0,0
99534,-66.6666666666667,4,2,1,70,0,0
104322,-50,4,2,1,70,0,0
104960,-76.9230769230769,4,2,1,70,0,0
106715,-57.1428571428571,4,2,1,70,0,0
106875,-50,4,2,1,70,0,0
107194,-83.3333333333333,4,2,1,70,0,0
109747,-55.5555555555556,4,2,1,80,0,0
114215,-50,4,2,1,80,0,0
114854,-83.3333333333333,4,2,1,60,0,0
119960,-100,4,2,1,60,0,0
121875,-66.6666666666667,4,2,1,60,0,0
123630,-83.3333333333333,4,2,1,60,0,0
124747,-100,4,2,1,60,0,0
125386,-66.6666666666667,4,2,1,60,0,0
127620,-133.333333333333,4,2,1,60,0,0
128258,-66.6666666666667,4,2,1,60,0,0
128896,-100,4,2,1,60,0,0
129215,-66.6666666666667,4,2,1,60,0,0
129534,-83.3333333333333,4,2,1,60,0,0
130173,-100,4,2,1,60,0,0
132088,-66.6666666666667,4,2,1,60,0,0
134162,-83.3333333333333,4,2,1,60,0,0
134960,-66.6666666666667,4,2,1,60,0,0
137513,-100,4,2,1,60,0,0
137832,-100,4,2,1,40,0,0
138630,-100,4,2,1,50,0,0
139109,-100,4,2,1,60,0,0
139428,-66.6666666666667,4,2,1,70,0,0
139508,-76.9230769230769,4,2,1,5,0,0
139588,-57.1428571428571,4,2,1,70,0,0
139667,-76.9230769230769,4,2,1,5,0,0
139747,-50,4,2,1,70,0,0
140386,-66.6666666666667,4,2,1,80,0,0
140864,-76.9230769230769,4,2,1,80,0,0
141503,-100,4,2,1,80,0,0
142779,-71.4285714285714,4,2,1,80,0,0
144056,-100,4,2,1,80,0,0
145492,-71.4285714285714,4,2,1,80,0,0
147726,-100,4,2,1,80,0,0
150279,-66.6666666666667,4,2,1,80,0,0
151237,-76.9230769230769,4,2,1,80,0,0
151715,-100,4,2,1,80,0,0
152832,-66.6666666666667,4,2,1,80,0,0
153790,-133.333333333333,4,2,1,80,0,0
154109,-100,4,2,1,80,0,0
154269,-90.9090909090909,4,2,1,80,0,0
155066,-66.6666666666667,4,2,1,80,0,0
155705,-71.4285714285714,4,2,1,80,0,0
156024,-76.9230769230769,4,2,1,80,0,0
157620,-100,4,2,1,80,0,0
158258,-66.6666666666667,4,2,1,80,0,0
162726,-100,4,2,1,80,0,8
163364,-66.6666666666667,4,2,1,80,0,0
176769,348.837209302326,4,2,1,80,1,0
176769,-66.6666666666667,4,2,1,80,0,0
177118,309.278350515464,4,2,1,80,1,0
177118,-100,4,2,1,80,0,0
177427,309.278350515464,4,2,1,80,1,0
177427,-66.6666666666667,4,2,1,80,0,0
178045,319.148936170213,4,2,1,80,1,0
178364,340.909090909092,4,2,1,80,1,0
178533,301.507537688443,4,2,1,80,1,0
178683,348.837209302327,4,2,1,80,1,0
178857,317.460317460318,4,2,1,80,1,0
178857,-66.6666666666667,4,2,1,80,0,0
179650,-100,4,2,1,80,0,0
179968,317.460317460318,4,2,1,80,1,0
180126,312.500000000001,4,2,1,80,1,0
180126,-66.6666666666667,4,2,1,80,0,0
180438,319.148936170213,4,2,1,80,1,0
180438,-66.6666666666667,4,2,1,80,0,0
181236,346.820809248556,4,2,1,80,1,0
181236,-66.6666666666667,4,2,1,80,0,0
181495,294.117647058823,4,2,1,80,1,0
181495,-66.6666666666667,4,2,1,80,0,0
181714,357.142857142857,4,2,1,80,1,0
181714,-66.6666666666667,4,2,1,80,0,0
181894,319.148936170213,4,2,1,80,1,0
181894,-83.3333333333333,4,2,1,80,0,0
182532,331.491712707183,4,2,1,80,1,0
182532,-66.6666666666667,4,2,1,80,0,0
182781,307.692307692308,4,2,1,80,1,0
182781,-66.6666666666667,4,2,1,80,0,0
183010,284.36018957346,4,2,1,80,1,0
183150,319.148936170213,4,2,1,80,1,0
183788,324.324324324325,4,2,1,80,1,0
183788,-66.6666666666667,4,2,1,80,0,0
184436,314.136125654451,4,2,1,80,1,0
184436,-66.6666666666667,4,2,1,80,0,0
185064,319.148936170213,4,2,1,80,1,0
185064,-66.6666666666667,4,2,1,80,0,0
186021,329.67032967033,4,2,1,80,1,0
186021,-133.333333333333,4,2,1,80,0,0
186350,309.278350515464,4,2,1,80,1,0
186350,-66.6666666666667,4,2,1,80,0,0
186813,352.941176470589,4,2,1,80,1,0
186988,314.136125654451,4,2,1,80,1,0
187302,-100,4,2,1,80,0,0
187617,324.324324324324,4,2,1,80,1,0
187617,-66.6666666666667,4,2,1,80,0,0
188265,319.148936170213,4,2,1,80,1,0
188903,300,4,2,1,80,1,0
189052,319.148936170213,4,2,1,80,1,0
189052,-66.6666666666667,4,2,1,80,0,0
189530,333.333333333333,4,2,1,80,1,0
189864,315.789473684211,4,2,1,80,1,0
190179,319.148936170213,4,2,1,80,1,0
190338,-66.6666666666667,4,2,1,80,0,0
190817,297.029702970297,4,2,1,80,1,0
190966,322.580645161291,4,2,1,80,1,0
191127,344.827586206897,4,2,1,80,1,0
191471,304.568527918782,4,2,1,80,1,0
191471,-66.6666666666667,4,2,1,80,0,0
191927,377.358490566038,4,2,1,80,1,0
191927,-66.6666666666667,4,2,1,80,0,0
192116,314.136125654451,4,2,1,80,1,0
192116,-83.3333333333333,4,2,1,80,0,0
192430,-80.6451612903226,4,2,1,80,0,0
192587,288.461538461539,4,2,1,80,1,0
192731,314.136125654451,4,2,1,80,1,0
192731,-66.6666666666667,4,2,1,80,0,0
193359,319.148936170213,4,2,1,80,1,0
193997,319.148936170213,4,2,1,80,1,0
193997,-66.6666666666667,4,2,1,80,0,0
195433,304.568527918782,4,2,1,80,1,0
195433,-66.6666666666667,4,2,1,80,0,0
195737,324.324324324325,4,2,1,80,1,0
195737,-66.6666666666667,4,2,1,80,0,0
195901,329.67032967033,4,2,1,80,1,0
195901,-66.6666666666667,4,2,1,80,0,0
196231,319.148936170213,4,2,1,80,1,0
196550,319.148936170213,4,2,1,80,1,0
196550,-58.8235294117647,4,2,1,80,0,0
197986,-52.6315789473684,4,2,1,80,0,0
199422,-66.6666666666667,4,2,1,80,0,0
201656,-76.9230769230769,4,2,1,80,0,0
203566,-76.9230769230769,4,2,1,80,0,0
212613,-100,4,2,1,80,0,0
212826,-76.9230769230769,4,2,1,80,0,0
217166,-82.9875518672199,4,2,1,80,0,0
217613,-76.9230769230769,4,2,1,80,0,0
223358,-71.4285714285714,4,2,1,80,0,0
223477,-71.4285714285714,4,2,1,5,0,0
223517,-62.5,4,2,1,80,0,0
223637,-71.4285714285714,4,2,1,5,0,0
223677,-71.4285714285714,4,2,1,80,0,0
223796,-71.4285714285714,4,2,1,5,0,0
223836,-83.3333333333333,4,2,1,80,0,0
224634,-76.9230769230769,4,2,1,80,0,0
225711,-76.9230769230769,4,2,1,5,0,0
225751,-76.9230769230769,4,2,1,80,0,0
225871,-76.9230769230769,4,2,1,5,0,0
225911,-76.9230769230769,4,2,1,80,0,0
232294,-66.6666666666667,4,2,1,80,0,0
236762,-76.9230769230769,4,2,1,80,0,0
237400,-142.857142857143,4,2,1,80,0,0
238039,-105.263157894737,4,2,1,80,0,0
238677,-83.3333333333333,4,2,1,80,0,0
239315,-68.9655172413793,4,2,1,80,0,0
242513,317.460317460318,4,2,1,80,1,0
242513,-101.010101010101,4,2,1,80,0,0
245052,319.148936170213,4,2,1,50,1,0
245052,-133.333333333333,4,2,1,50,0,0
246009,-133.333333333333,4,2,1,30,0,0
246966,-133.333333333333,4,2,1,50,0,0
248083,-133.333333333333,4,2,1,30,0,0
248562,-133.333333333333,4,2,1,50,0,0
249041,-133.333333333333,4,2,1,30,0,0
249520,-133.333333333333,4,2,1,40,0,0
249839,-133.333333333333,4,2,1,50,0,0
250637,-133.333333333333,4,2,1,30,0,0
251116,-133.333333333333,4,2,1,50,0,0
251594,-133.333333333333,4,2,1,40,0,0
251754,-133.333333333333,4,2,1,50,0,0
252073,-133.333333333333,4,2,1,40,0,0
252232,-133.333333333333,4,2,1,50,0,0
252392,-133.333333333333,4,2,1,30,0,0
252711,-133.333333333333,4,2,1,50,0,0
253190,-133.333333333333,4,2,1,30,0,0
253669,-133.333333333333,4,2,1,50,0,0
254147,-133.333333333333,4,2,1,30,0,0
254626,-133.333333333333,4,2,1,40,0,0
255264,-111.111111111111,4,2,1,50,0,0
256700,-111.111111111111,4,2,1,30,0,0
257179,-111.111111111111,4,2,1,40,0,0
257498,-111.111111111111,4,2,1,30,0,0
257817,-111.111111111111,4,2,1,50,0,0
258296,-111.111111111111,4,2,1,30,0,0
258775,-111.111111111111,4,2,1,50,0,0
259254,-111.111111111111,4,2,1,30,0,0
259732,-111.111111111111,4,2,1,40,0,0
260211,-111.111111111111,4,2,1,50,0,0
260849,-111.111111111111,4,2,1,30,0,0
261328,-111.111111111111,4,2,1,50,0,0
261807,-111.111111111111,4,2,1,30,0,0
261966,-111.111111111111,4,2,1,50,0,0
262126,-111.111111111111,4,2,1,30,0,0
262285,-111.111111111111,4,2,1,50,0,0
262605,-111.111111111111,4,2,1,30,0,0
262924,-111.111111111111,4,2,1,50,0,0
263403,-111.111111111111,4,2,1,30,0,0
263562,-111.111111111111,4,2,1,50,0,0
264360,-111.111111111111,4,2,1,30,0,0
264839,-111.111111111111,4,2,1,40,0,0
265158,-111.111111111111,4,2,1,50,0,0
265477,-111.111111111111,4,2,1,50,0,0
265796,-111.111111111111,4,2,1,40,0,0
266115,-111.111111111111,4,2,1,50,0,0
266434,-111.111111111111,4,2,1,30,0,0
266594,-111.111111111111,4,2,1,50,0,0
266913,-111.111111111111,4,2,1,40,0,0
267073,-111.111111111111,4,2,1,50,0,0
267392,-111.111111111111,4,2,1,40,0,0
267552,-111.111111111111,4,2,1,30,0,0
267711,-111.111111111111,4,2,1,50,0,0
268509,-111.111111111111,4,2,1,40,0,0
268669,-111.111111111111,4,2,1,50,0,0
269626,-111.111111111111,4,2,1,30,0,0
269945,326.08695652174,4,2,1,50,1,0
270271,-100,4,2,1,30,0,0
270597,306.122448979593,4,2,1,50,1,0
270597,-100,4,2,1,50,0,0
270903,319.148936170213,4,2,1,50,1,0
271541,-100,4,2,1,60,0,0
271860,319.148936170213,4,2,1,60,1,0
272179,-100,4,2,1,70,0,0
275051,-71.4285714285714,4,2,1,70,0,0
275370,-62.5,4,2,1,70,0,0
275690,-66.6666666666667,4,2,1,80,0,0
276009,-76.9230769230769,4,2,1,80,0,0
276328,-66.6666666666667,4,2,1,80,0,0
276966,-76.9230769230769,4,2,1,80,0,0
277605,-58.8235294117647,4,2,1,80,0,0
278243,-66.6666666666667,4,2,1,80,0,0
278562,-76.9230769230769,4,2,1,80,0,0
279520,-100,4,2,1,80,0,0
280158,-58.8235294117647,4,2,1,80,0,0
280796,-66.6666666666667,4,2,1,80,0,0
281115,-76.9230769230769,4,2,1,80,0,0
282073,-100,4,2,1,80,0,0
282711,-58.8235294117647,4,2,1,80,0,0
283349,-66.6666666666667,4,2,1,80,0,0
283668,-76.9230769230769,4,2,1,80,0,0
284626,-100,4,2,1,80,0,0
285264,-58.8235294117647,4,2,1,80,0,0
285903,-66.6666666666667,4,2,1,80,0,0
288456,-83.3333333333333,4,2,1,80,0,0
290371,-66.6666666666667,4,2,1,80,0,0
291009,-83.3333333333333,4,2,1,80,0,0
292924,-66.6666666666667,4,2,1,80,0,0
293562,-83.3333333333333,4,2,1,80,0,0
294839,329.67032967033,4,2,1,80,1,0
296157,319.148936170213,4,2,1,80,1,0
296157,-76.9230769230769,4,2,1,80,0,0
296795,-100,4,2,1,80,0,0
298071,-62.5,4,2,1,80,0,0
298710,-76.9230769230769,4,2,1,80,0,0
299986,-100,4,2,1,80,0,0
300625,-62.5,4,2,1,80,0,0
306369,-100,4,2,1,70,0,0
307646,-76.9230769230769,4,2,1,70,0,0
308284,-100,4,2,1,70,0,0
308922,-76.9230769230769,4,2,1,70,0,0
310199,-333.333333333333,4,2,1,70,0,0
311476,-100,4,2,1,70,0,0
312752,-76.9230769230769,4,2,1,70,0,0
313391,-133.333333333333,4,2,1,70,0,0
316582,-76.9230769230769,4,2,1,70,0,0
317061,-100,4,2,1,70,0,0
321688,-76.9230769230769,4,2,1,70,0,0
322167,-90.9090909090909,4,2,1,70,0,0
322965,-100,4,2,1,70,0,0
324242,-66.6666666666667,4,2,1,80,0,0
329348,-100,4,2,1,60,0,0
338922,319.148936170213,4,2,1,60,1,0
338922,-100,4,2,1,60,0,0
339879,-71.4285714285714,4,2,1,60,0,0
340198,-83.3333333333333,4,2,1,60,0,0
342751,-83.3333333333333,4,2,1,70,0,0
345304,-83.3333333333333,4,2,1,80,0,0
345783,-71.4285714285714,4,2,1,80,0,0
346581,-71.4285714285714,4,2,1,80,0,0
347858,-100,4,2,1,80,0,0
348506,-71.4285714285714,4,2,1,80,0,0
349134,-100,4,2,1,80,0,0
350729,-83.3333333333333,4,2,1,80,0,0
350889,-71.4285714285714,4,2,1,80,0,0
351687,-83.3333333333333,4,2,1,80,0,0
352963,-100,4,2,1,80,0,0

[Colours]
Combo1 : 255,198,0
Combo2 : 255,155,64

[HitObjects]
50,113,121,5,8,0:0:0:0:
437,90,280,1,8,0:0:0:0:
498,240,2674,5,8,0:0:0:0:
111,217,2833,1,8,0:0:0:0:
151,270,4429,5,0,3:0:0:0:
160,278,4482,1,0,3:0:0:0:
169,286,4535,1,0,3:0:0:0:
176,293,4589,5,10,0:0:0:0:
288,56,4748,1,4,3:0:0:0:
29,62,4908,1,4,3:0:0:0:
199,314,5067,5,10,0:0:0:0:
182,144,5227,1,4,3:0:0:0:
62,266,5386,1,4,3:0:0:0:
149,16,5546,5,10,0:0:0:0:
491,220,5865,6,0,B|459:167|370:163|289:215|377:295|251:294|222:261,1,299.999990844727,6|0,3:1|0:0,0:0:0:0:
220,263,6344,1,4,3:0:0:0:
404,317,6503,2,0,P|359:205|288:109,1,200,8|0,0:0|0:0,0:0:0:0:
414,90,6982,1,4,3:0:0:0:
444,101,7142,1,4,3:0:0:0:
316,0,7461,5,6,3:0:0:0:
239,16,7620,1,6,3:0:0:0:
131,215,7780,1,8,0:0:0:0:
148,207,8099,5,6,3:0:0:0:
160,184,8259,1,6,3:0:0:0:
73,63,8418,2,0,B|42:64|10:87|3:130|3:130|76:205|58:338,1,299.999990844727,4|0,3:1|0:0,0:0:0:0:
57,335,8897,1,4,3:0:0:0:
234,250,9057,2,0,P|378:286|504:367,1,300,8|0,0:0|0:0,0:0:0:0:
466,239,9695,5,0,3:0:0:0:
459,214,9775,1,0,3:0:0:0:
453,189,9854,1,0,3:0:0:0:
447,164,9934,1,0,3:0:0:0:
441,139,10014,1,6,3:0:0:0:
171,144,10333,5,10,0:0:0:0:
178,116,10413,1,0,3:0:0:0:
185,89,10492,1,0,3:0:0:0:
191,61,10572,1,0,3:0:0:0:
198,34,10652,1,6,3:0:0:0:
512,67,10971,5,6,3:0:0:0:
442,21,11131,1,4,3:0:0:0:
472,257,11291,1,2,1:0:0:0:
25,189,11610,5,2,1:0:0:0:
131,203,11769,1,4,3:0:0:0:
236,213,11929,1,4,3:0:0:0:
0,352,12089,1,2,1:0:0:0:
14,339,12408,5,6,3:0:0:0:
79,382,12567,1,0,0:0:0:0:
236,213,12727,1,0,1:0:0:0:
197,322,12886,1,6,3:0:0:0:
131,203,13046,1,4,3:0:0:0:
343,358,13206,1,0,1:0:0:0:
116,204,13365,1,2,0:0:0:0:
221,125,13525,5,4,3:0:0:0:
236,213,13687,1,4,3:0:0:0:
3,100,13849,1,2,1:0:0:0:
510,181,14173,5,2,1:0:0:0:
403,170,14329,1,4,3:0:0:0:
299,157,14485,1,0,0:0:0:0:
512,0,14642,1,2,1:0:0:0:
465,354,14961,5,2,1:0:0:0:
408,300,15120,1,2,0:0:0:0:
510,181,15227,2,0,L|501:148,2,33.3333333333333,0|0|0,3:0|3:0|3:0,0:0:0:0:
497,196,15440,5,10,0:0:0:0:
228,294,15599,1,4,3:0:0:0:
288,12,15759,1,4,3:0:0:0:
408,287,15918,5,10,0:0:0:0:
125,161,16078,1,4,3:0:0:0:
407,41,16237,1,4,3:0:0:0:
314,371,16397,2,0,P|293:308|180:143,1,209.999993591309,10|0,0:0|0:0,0:0:0:0:
162,255,16716,6,0,B|226:314|321:251|264:223|362:122|489:185,1,359.999989013672,6|4,3:1|3:0,0:0:0:0:
220,158,17354,2,0,B|200:254|200:254|231:298|231:298|209:419,1,239.999992675781,8|0,0:0|0:0,0:0:0:0:
126,327,17833,1,4,3:0:0:0:
90,343,17993,1,4,3:0:0:0:
23,251,18312,5,6,3:0:0:0:
71,260,18471,1,6,3:0:0:0:
74,57,18631,5,8,0:0:0:0:
130,100,18791,1,0,0:0:0:0:
89,160,18950,1,6,3:0:0:0:
31,115,19110,1,6,3:0:0:0:
407,135,19269,6,0,B|416:105|451:97|451:97|219:137|219:137|196:190|260:215,1,359.999989013672,4|4,3:1|3:0,0:0:0:0:
384,0,19908,2,0,B|288:14|288:14|259:55|259:55|132:76|132:76|86:49|115:-1,1,359.999989013672,12|0,0:0|0:0,0:0:0:0:
122,0,20546,5,4,3:0:0:0:
183,200,20705,1,0,1:0:0:0:
195,147,20785,1,0,1:0:0:0:
208,94,20865,1,0,1:0:0:0:
0,167,21025,1,0,1:0:0:0:
11,150,21344,5,0,1:0:0:0:
60,227,21503,1,0,0:0:0:0:
195,147,21663,1,0,1:0:0:0:
334,371,21822,6,0,B|345:355|345:355|324:239,1,129.999994049073,4|4,3:0|3:0,0:0:0:0:
442,65,22142,2,0,B|430:80|430:80|452:197,1,129.999994049073,10|0,0:0|0:0,0:0:0:0:
511,249,22461,1,2,0:0:0:0:
439,205,22620,1,4,3:0:0:0:
324,295,22780,1,10,0:0:0:0:
175,223,22940,1,6,3:0:0:0:
181,243,23259,5,6,3:0:0:0:
359,197,23418,1,8,0:0:0:0:
500,375,23578,2,0,B|476:360|476:360|242:331,1,259.999988098145,2|4,0:0|3:0,0:0:0:0:
175,376,24057,1,8,0:0:0:0:
101,336,24216,1,6,3:0:0:0:
20,371,24376,5,6,3:0:0:0:
64,179,24535,1,4,3:0:0:0:
245,179,24695,1,10,0:0:0:0:
0,107,24854,2,0,B|41:111|41:111|260:51,1,259.999988098145,2|6,0:0|3:0,0:0:0:0:
410,192,25333,2,0,B|410:162|410:162|430:107,1,64.9999970245363,8|0,0:0|0:0,0:0:0:0:
511,180,25493,6,0,P|369:158|285:140,1,194.999991073609,6|0,3:0|0:0,0:0:0:0:
309,169,25812,2,0,P|277:174|245:178,1,64.9999970245363,4|0,3:0|0:0,0:0:0:0:
9,232,25971,2,0,B|27:228|27:228|112:259|112:259|165:236,1,129.999994049073,8|6,0:0|3:0,0:0:0:0:
75,341,26291,5,6,3:0:0:0:
153,325,26450,1,4,3:0:0:0:
271,384,26610,1,10,0:0:0:0:
512,336,26769,1,4,3:0:0:0:
358,117,26929,5,6,3:0:0:0:
381,379,27088,2,0,P|401:258|414:151,1,194.999991073609
358,117,27408,2,0,B|383:128|383:128|389:170,1,64.9999970245363,6|0,3:0|0:0,0:0:0:0:
327,228,27567,2,0,B|315:209|315:209|159:179,1,129.999994049073,8|0,0:0|0:0,0:0:0:0:
194,113,27886,1,4,3:0:0:0:
54,282,28046,2,0,B|66:301|66:301|205:331,1,129.999994049073,4|0,3:0|0:0,0:0:0:0:
244,289,28365,1,0,0:0:0:0:
194,113,28525,1,4,3:0:0:0:
366,0,28684,1,4,3:0:0:0:
34,117,28844,6,0,B|72:127|72:127|236:91,1,194.999991073609,8|0,0:0|0:0,0:0:0:0:
288,34,29163,2,0,B|261:43|261:43|246:98,1,64.9999970245363,6|0,3:0|0:0,0:0:0:0:
288,150,29322,2,0,B|315:141|315:141|330:86,1,64.9999970245363
184,23,29482,5,6,3:0:0:0:
409,305,29642,2,0,P|399:241|392:177,1,129.999994049073,0|4,0:0|3:0,0:0:0:0:
431,114,29961,1,6,3:0:0:0:
184,23,30120,2,0,P|199:139|211:268,1,194.999991073609,8|0,0:0|0:0,0:0:0:0:
191,238,30440,2,0,B|181:225|181:225|212:147,1,64.9999970245363,6|0,3:0|0:0,0:0:0:0:
0,268,30599,2,0,B|96:293|96:293|125:286,1,129.999994049073,4|0,3:0|0:0,0:0:0:0:
282,261,30918,5,0,1:0:0:0:
313,270,30998,1,0,1:0:0:0:
344,278,31077,1,0,1:0:0:0:
268,93,31237,5,0,1:0:0:0:
221,319,31397,1,8,3:0:0:0:
447,366,31557,1,0,1:0:0:0:
205,149,31717,5,8,3:0:0:0:
321,163,31876,1,8,3:0:0:0:
71,59,32035,5,4,3:0:0:0:
142,298,32195,1,4,3:0:0:0:
103,369,32354,2,0,P|123:239|132:133,1,194.999991073609,10|0,0:0|0:0,0:0:0:0:
112,160,32674,1,2,0:0:0:0:
46,205,32833,1,4,3:0:0:0:
5,143,32993,1,10,0:0:0:0:
229,336,33153,1,6,3:0:0:0:
218,319,33472,5,6,3:0:0:0:
411,368,33631,1,8,0:0:0:0:
142,298,33791,2,0,B|166:283|166:283|400:254,1,259.999988098145,6|4,3:0|3:0,0:0:0:0:
459,307,34270,1,8,0:0:0:0:
441,122,34429,2,0,B|431:138|431:138|441:231,1,64.9999970245363,6|0,3:0|0:0,0:0:0:0:
509,237,34589,5,6,3:0:0:0:
339,206,34748,1,4,3:0:0:0:
219,333,34908,1,10,0:0:0:0:
16,293,35067,2,0,B|57:297|57:297|276:237,1,259.999988098145,2|6,0:0|3:0,0:0:0:0:
512,371,35546,2,0,B|482:371|482:371|427:351,1,64.9999970245363,8|0,0:0|0:0,0:0:0:0:
423,289,35706,6,0,P|283:323|201:348,1,194.999991073609,6|0,3:0|0:0,0:0:0:0:
218,362,36025,2,0,P|232:273|239:241,1,64.9999970245363,4|0,3:0|0:0,0:0:0:0:
116,82,36184,2,0,B|120:100|120:100|89:185|89:185|112:238,1,129.999994049073,8|4,0:0|3:0,0:0:0:0:
171,185,36504,5,6,3:0:0:0:
187,194,36663,1,4,3:0:0:0:
135,1,36823,1,10,0:0:0:0:
304,127,36982,1,4,3:0:0:0:
483,0,37142,5,6,3:0:0:0:
336,56,37301,2,0,P|356:177|369:284,1,194.999991073609
338,314,37621,2,0,B|363:303|363:303|369:261,1,64.9999970245363,6|0,3:0|0:0,0:0:0:0:
442,106,37780,2,0,B|397:55|397:55|274:57,1,129.999994049073,8|0,0:0|0:0,0:0:0:0:
281,120,38099,1,6,3:0:0:0:
115,267,38259,6,0,B|54:269|54:269|9:218,1,129.999994049073,4|0,3:0|0:0,0:0:0:0:
83,176,38578,1,2,0:0:0:0:
91,189,38738,1,4,3:0:0:0:
28,347,38897,1,4,3:0:0:0:
175,195,39057,1,8,0:0:0:0:
2,35,39216,2,0,P|135:63|214:72,1,194.999991073609
214,61,39535,1,8,0:0:0:0:
450,245,39854,5,0,3:0:0:0:
442,244,39907,1,0,3:0:0:0:
434,242,39960,1,0,3:0:0:0:
426,241,40014,2,0,B|410:218|410:218|367:21,1,194.999991073609,0|0,1:0|0:0,0:0:0:0:
400,14,40333,6,0,L|385:130,1,64.9999970245363,0|0,1:0|0:0,0:0:0:0:
200,251,40493,1,0,1:0:0:0:
289,294,40812,6,0,L|274:178,1,64.9999970245363,0|0,1:0|0:0,0:0:0:0:
296,310,41131,6,0,L|304:245,1,64.9999970245363,0|0,1:0|0:0,0:0:0:0:
71,35,41291,5,0,1:0:0:0:
224,168,41450,1,0,3:0:0:0:
238,126,41530,1,0,3:0:0:0:
252,83,41610,1,8,0:0:0:0:
26,384,41769,2,0,B|61:348|61:348|227:328,1,200,4|0,3:1|0:0,0:0:0:0:
480,364,42248,5,4,3:1:0:0:
483,344,42408,1,0,0:0:0:0:
486,324,42567,1,0,0:0:0:0:
395,334,42727,1,6,3:0:0:0:
312,156,42886,5,10,0:0:0:0:
316,136,43046,1,0,0:0:0:0:
382,206,43205,1,6,3:0:0:0:
510,82,43365,2,0,P|455:89|397:140,1,100,2|4,0:0|3:0,0:0:0:0:
253,17,43684,2,0,P|296:43|346:47,1,100,2|0,0:0|0:0,0:0:0:0:
32,100,44003,1,6,3:0:0:0:
512,211,44163,6,0,B|273:191|273:191|234:207|234:207|-26:185,1,525.000020027161,12|0,0:0|0:0,0:0:0:0:
7,203,44801,6,0,B|30:219|30:219|51:269,1,50,4|0,3:1|0:0,0:0:0:0:
118,110,44961,2,0,B|141:94|141:94|162:44,1,50
135,117,45120,1,4,3:0:0:0:
153,125,45280,1,4,3:0:0:0:
219,346,45440,5,8,0:0:0:0:
238,343,45599,1,4,3:0:0:0:
206,265,45759,1,6,3:0:0:0:
21,384,45918,2,0,B|7:365|7:365|34:265,1,100,2|4,0:0|3:0,0:0:0:0:
288,279,46237,2,0,B|302:260|302:260|275:160,1,100,2|4,0:0|3:0,0:0:0:0:
97,346,46557,6,0,P|121:324|152:313,1,50,6|0,3:0|0:0,0:0:0:0:
285,367,46716,2,0,B|243:363|243:363|208:323,1,75.0000028610231,10|0,0:0|0:0,0:0:0:0:
201,182,46876,1,4,3:0:0:0:
126,241,47035,1,6,3:0:0:0:
288,279,47195,2,0,B|330:284|330:284|348:295|348:295|407:303,1,100,2|4,0:0|3:0,0:0:0:0:
511,259,47514,1,2,0:0:0:0:
274,4,47674,6,0,B|264:-15|264:-15|320:32,1,75.0000028610231,4|0,3:0|0:0,0:0:0:0:
305,191,47833,2,0,B|295:211|295:211|351:163,1,75.0000028610231,4|0,3:0|0:0,0:0:0:0:
512,67,47993,2,0,L|282:100,1,225.000008583069,8|0,0:0|0:0,0:0:0:0:
133,33,48312,6,0,B|123:13|123:13|179:61,1,75.0000028610231,6|0,3:0|0:0,0:0:0:0:
164,217,48471,2,0,B|154:237|154:237|210:189,1,75.0000028610231,2|0,0:0|0:0,0:0:0:0:
371,96,48631,2,0,L|148:127,1,225.000008583069,4|0,3:0|0:0,0:0:0:0:
0,59,48950,6,0,B|-10:39|-10:39|46:87,1,75.0000028610231,4|0,3:0|0:0,0:0:0:0:
31,246,49110,2,0,B|21:266|21:266|77:218,1,75.0000028610231,4|0,3:0|0:0,0:0:0:0:
238,125,49269,2,0,L|8:158,1,225.000008583069,8|0,0:0|0:0,0:0:0:0:
2,169,49588,6,0,B|30:184|30:184|41:230,1,59.9999981689454,6|0,3:0|0:0,0:0:0:0:
164,217,49748,2,0,B|157:254|157:254|108:284,1,75.0000028610231,8|0,0:0|0:0,0:0:0:0:
240,384,49908,6,0,B|292:344|292:344|316:173,1,225.000008583069,6|0,3:1|0:0,0:0:0:0:
208,65,50227,2,0,P|212:106|244:126,1,75,4|0,3:0|0:0,0:0:0:0:
429,56,50546,6,0,B|466:27|466:27|267:62,1,225.000008583069,10|0,0:0|0:0,0:0:0:0:
188,60,50865,2,0,P|192:19|224:-1,1,75,4|0,3:0|0:0,0:0:0:0:
196,80,51184,6,0,P|119:52|31:42,1,150,6|0,3:0|0:0,0:0:0:0:
28,56,51503,2,0,P|59:74|71:108,1,75,4|0,3:0|0:0,0:0:0:0:
7,263,51822,6,0,B|75:251|75:251|119:271|119:271|218:253,1,179.999994506836,10|0,0:0|0:0,0:0:0:0:
201,255,52142,1,6,3:0:0:0:
140,144,52301,5,0,3:0:0:0:
135,168,52381,1,0,3:0:0:0:
130,195,52461,2,0,L|106:338,1,100,4|0,3:1|0:0,0:0:0:0:
194,371,52779,1,4,3:0:0:0:
189,339,52939,1,4,3:0:0:0:
416,383,53099,5,10,0:0:0:0:
447,375,53258,1,4,3:0:0:0:
410,298,53417,1,6,3:0:0:0:
281,339,53577,2,0,P|265:291|230:257,1,100,2|4,0:0|3:0,0:0:0:0:
354,144,53897,2,0,P|360:193|342:239,1,100,2|4,0:0|3:0,0:0:0:0:
499,306,54215,1,6,3:0:0:0:
0,199,54376,6,0,B|239:179|239:179|278:195|278:195|524:174,1,525.000020027161,12|0,0:0|0:0,0:0:0:0:
512,185,55014,6,0,B|492:193|492:193|468:251,1,50,4|0,3:1|0:0,0:0:0:0:
335,98,55174,2,0,B|315:90|315:90|291:32,1,50
309,101,55332,1,4,3:0:0:0:
291,109,55492,1,4,3:0:0:0:
222,296,55652,5,8,0:0:0:0:
218,268,55811,1,4,3:0:0:0:
301,280,55971,1,6,3:0:0:0:
484,192,56131,2,0,B|456:184|456:184|372:204,1,100,2|4,0:0|3:0,0:0:0:0:
335,98,56450,2,0,B|363:90|363:90|447:110,1,100,2|4,0:0|3:0,0:0:0:0:
493,287,56769,6,0,P|465:278|450:260,1,50,6|0,3:0|0:0,0:0:0:0:
379,334,56929,2,0,B|344:347|344:347|337:384,1,75.0000028610231,10|0,0:0|0:0,0:0:0:0:
269,185,57088,1,4,3:0:0:0:
301,280,57247,1,6,3:0:0:0:
189,152,57408,2,0,L|220:52,1,100,2|4,0:0|3:0,0:0:0:0:
335,98,57726,1,2,0:0:0:0:
174,274,57886,6,0,B|169:282|156:288|156:288|191:283|196:244,1,75.0000028610231,4|0,3:0|0:0,0:0:0:0:
144,84,58046,2,0,B|139:76|126:70|126:70|161:75|166:114,1,75.0000028610231,4|0,3:0|0:0,0:0:0:0:
0,209,58205,2,0,L|238:170,1,225.000008583069,8|0,0:0|0:0,0:0:0:0:
290,218,58525,6,0,B|285:226|272:232|272:232|307:227|312:188,1,75.0000028610231,4|0,3:0|0:0,0:0:0:0:
317,17,58684,2,0,B|312:9|299:3|299:3|334:8|339:47,1,75.0000028610231
144,84,58844,2,0,L|382:123,1,225.000008583069,4|0,3:0|0:0,0:0:0:0:
436,84,59163,6,0,B|431:76|418:70|418:70|453:75|458:114,1,75.0000028610231,4|0,3:0|0:0,0:0:0:0:
463,285,59322,2,0,B|458:293|445:299|445:299|480:294|485:255,1,75.0000028610231,4|0,3:0|0:0,0:0:0:0:
290,218,59482,2,0,L|528:179,1,225.000008583069,8|0,0:0|0:0,0:0:0:0:
512,156,59801,6,0,B|487:172|487:172|473:214,1,50,6|0,3:0|0:0,0:0:0:0:
391,317,59961,2,0,B|399:339|399:339|422:354,1,50,6|0,3:0|0:0,0:0:0:0:
359,79,60120,5,0,1:0:0:0:
261,54,60280,1,2,1:0:0:0:
262,154,60440,1,0,1:0:0:0:
435,34,60599,5,0,1:0:0:0:
486,93,60759,1,0,1:0:0:0:
330,195,60918,5,2,1:0:0:0:
359,79,61078,1,0,1:0:0:0:
496,221,61237,5,2,1:0:0:0:
256,242,61397,1,0,1:0:0:0:
144,17,61557,1,2,1:0:0:0:
68,271,61716,6,0,B|89:275|89:275|142:257,1,75.0000028610231,0|0,1:0|0:0,0:0:0:0:
295,77,61876,2,0,B|320:72|320:72|383:93,1,87.500000834465,0|0,1:0|0:0,0:0:0:0:
492,358,62035,1,0,1:0:0:0:
11,65,62674,6,0,B|75:50|75:50|235:197|235:197|310:178,1,349.999989318848,6|0,3:1|0:0,0:0:0:0:
286,147,63152,2,0,L|371:175,1,69.9999978637696,6|0,3:0|0:0,0:0:0:0:
512,365,63312,2,0,B|488:378|488:378|360:358|360:358|334:288,1,209.999993591309,8|0,0:0|0:0,0:0:0:0:
371,288,63631,1,6,3:0:0:0:
88,384,63791,6,0,B|58:343|58:343|103:232,1,150,4|0,3:0|0:0,0:0:0:0:
72,233,64110,1,0,0:0:0:0:
119,168,64269,1,4,3:0:0:0:
40,144,64429,1,4,3:0:0:0:
418,26,64588,2,0,P|402:161|395:237,1,200,12|2,0:0|0:0,0:0:0:0:
158,337,65067,6,0,B|136:316|136:316|144:232,1,69.9999978637696,10|0,0:0|0:0,0:0:0:0:
72,233,65227,2,0,B|117:227|117:227|289:319|289:319|379:302,1,279.999991455078,6|0,3:1|0:0,0:0:0:0:
388,365,65705,2,0,B|410:344|410:344|402:260,1,69.9999978637696,6|0,3:0|0:0,0:0:0:0:
512,94,65865,2,0,B|467:88|467:88|353:130,1,139.999995727539,8|0,0:0|0:0,0:0:0:0:
359,234,66184,1,6,3:0:0:0:
131,0,66344,6,0,P|144:137|155:225,1,200,4|0,3:0|0:0,0:0:0:0:
90,264,66823,1,4,3:0:0:0:
8,240,66982,1,4,3:0:0:0:
327,337,67142,1,12,0:0:0:0:
310,324,67461,5,2,0:0:0:0:
229,337,67620,1,0,1:0:0:0:
104,121,67780,2,0,P|194:152|308:182,1,209.999993591309,6|0,3:1|0:0,0:0:0:0:
159,202,68099,2,0,P|190:190|249:171,1,69.9999978637696
259,254,68259,1,6,3:0:0:0:
429,3,68418,6,0,P|513:60|512:161,1,209.999993591309,8|0,0:0|0:0,0:0:0:0:
477,182,68737,1,6,3:0:0:0:
312,384,68897,2,0,B|335:366|335:366|347:312|345:237,1,139.999995727539,4|0,3:0|0:0,0:0:0:0:
259,254,69216,1,0,0:0:0:0:
387,331,69376,1,4,3:0:0:0:
512,263,69535,1,4,3:0:0:0:
196,132,69695,1,8,0:0:0:0:
211,151,70014,6,0,B|228:158|228:158|287:140,1,50
329,183,70174,1,4,3:0:0:0:
157,61,70333,5,14,0:0:0:0:
76,50,70493,1,6,3:0:0:0:
23,106,70652,1,4,3:0:0:0:
229,352,70812,5,14,0:0:0:0:
170,219,70972,1,4,3:0:0:0:
20,238,71131,1,4,3:0:0:0:
391,241,71291,5,14,0:0:0:0:
237,66,71450,1,10,0:0:0:0:
99,262,71610,1,4,3:0:0:0:
329,384,71770,5,14,0:0:0:0:
253,194,71930,1,4,3:0:0:0:
105,341,72089,1,4,3:0:0:0:
410,62,72248,5,8,0:0:0:0:
386,139,72408,1,4,3:0:0:0:
62,192,72567,5,8,0:0:0:0:
417,295,72727,1,4,3:0:0:0:
488,251,72886,6,0,B|501:227|501:227|231:309|231:309|275:271,1,349.999989318848,6|0,3:1|0:0,0:0:0:0:
296,270,73365,2,0,L|230:249,1,69.9999978637696,6|0,3:0|0:0,0:0:0:0:
53,96,73525,2,0,B|72:47|72:47|200:27|200:27|224:40,1,209.999993591309,8|0,0:0|0:0,0:0:0:0:
240,75,73843,1,6,3:0:0:0:
11,211,74003,6,0,B|52:241|52:241|163:196,1,150,4|0,3:0|0:0,0:0:0:0:
157,178,74322,1,0,0:0:0:0:
238,157,74481,1,4,3:0:0:0:
240,75,74641,1,4,3:0:0:0:
506,324,74801,2,0,P|372:296|297:282,1,200,8|2,0:0|0:0,0:0:0:0:
351,67,75280,2,0,B|324:81|324:81|310:164,1,69.9999978637696,10|0,2:0|0:0,0:0:0:0:
483,249,75439,6,0,B|438:243|438:243|266:335|266:335|176:318,1,279.999991455078,6|0,3:1|0:0,0:0:0:0:
166,383,75918,6,0,B|144:362|144:362|152:278,1,69.9999978637696,6|0,3:0|0:0,0:0:0:0:
294,211,76078,1,8,0:0:0:0:
98,350,76397,6,0,B|97:319|97:319|162:265,1,69.9999978637696,6|0,3:0|0:0,0:0:0:0:
411,204,76557,6,0,B|377:215|377:215|268:149|268:149|223:162,1,209.999993591309,4|0,3:0|0:0,0:0:0:0:
201,246,76876,2,0,B|185:226|185:226|158:96,1,139.999995727539,8|0,0:0|0:0,0:0:0:0:
7,321,77195,1,4,3:0:0:0:
254,22,77354,2,0,P|228:191|203:368,1,330.000010070801,12|0,0:0|0:0,0:0:0:0:
15,70,77993,6,0,P|31:147|172:167,1,209.999993591309,6|0,3:1|0:0,0:0:0:0:
114,90,78312,2,0,P|81:78|49:90,1,69.9999978637696
20,166,78471,1,6,3:0:0:0:
389,177,78631,2,0,P|373:254|232:274,1,209.999993591309,8|0,0:0|0:0,0:0:0:0:
202,238,78950,2,0,P|229:211|281:225,1,69.9999978637696,6|0,3:0|0:0,0:0:0:0:
497,38,79110,6,0,P|407:80|294:100,1,209.999993591309,4|0,3:0|0:0,0:0:0:0:
279,116,79428,1,0,0:0:0:0:
188,83,79588,1,4,3:0:0:0:
13,310,79747,1,4,3:0:0:0:
292,317,79908,2,0,P|54:238|15:221,1,279.999991455078,8|0,0:0|0:0,0:0:0:0:
13,310,80386,2,0,P|97:288|138:281,1,69.9999978637696,4|0,3:0|0:0,0:0:0:0:
53,146,80546,5,14,0:0:0:0:
163,335,80705,1,6,3:0:0:0:
365,293,80864,1,4,3:0:0:0:
117,95,81024,5,14,0:0:0:0:
185,137,81183,1,4,3:0:0:0:
235,74,81343,1,4,3:0:0:0:
331,384,81503,6,0,B|326:351|326:351|352:289,1,80,14|0,0:0|0:0,0:0:0:0:
320,157,81663,2,0,B|358:177|358:177|365:292,1,160,10|4,0:0|3:0,0:0:0:0:
148,335,81982,5,14,0:0:0:0:
195,274,82142,1,4,3:0:0:0:
211,280,82301,1,4,3:0:0:0:
499,142,82461,5,0,3:0:0:0:
469,184,82540,1,0,3:0:0:0:
414,199,82620,1,4,3:0:0:0:
364,173,82700,1,4,3:0:0:0:
343,121,82780,1,0,3:0:0:0:
322,69,82860,1,0,3:0:0:0:
272,43,82940,1,4,3:0:0:0:
217,58,83020,1,4,3:0:0:0:
187,100,83099,5,14,0:0:0:0:
288,301,83259,1,6,3:0:0:0:
298,283,83418,1,4,3:0:0:0:
88,359,83578,5,14,0:0:0:0:
246,160,83738,1,4,3:0:0:0:
256,180,83897,1,4,3:0:0:0:
25,77,84057,5,14,0:0:0:0:
216,269,84217,1,6,3:0:0:0:
224,251,84376,1,4,3:0:0:0:
410,104,84535,5,10,0:0:0:0:
138,239,84695,1,4,3:0:0:0:
130,219,84854,1,4,3:0:0:0:
327,114,85014,5,0,3:0:0:0:
307,61,85093,1,0,3:0:0:0:
255,31,85173,1,4,3:0:0:0:
197,44,85253,1,4,3:0:0:0:
162,91,85333,1,0,3:0:0:0:
126,139,85413,1,0,3:0:0:0:
68,151,85493,1,4,3:0:0:0:
17,121,85573,1,4,3:0:0:0:
2,71,85652,5,6,3:1:0:0:
89,82,85812,1,0,0:0:0:0:
177,93,85971,1,0,0:0:0:0:
215,207,86131,1,4,3:0:0:0:
484,78,86290,1,8,0:0:0:0:
417,186,86450,1,0,0:0:0:0:
263,127,86610,6,0,B|254:105|254:105|271:84,1,50,4|0,3:0|0:0,0:0:0:0:
360,42,86769,2,0,L|320:273,1,194.999991073609,6|0,3:0|0:0,0:0:0:0:
310,321,87088,1,0,0:0:0:0:
476,252,87248,1,4,3:0:0:0:
105,226,87408,6,0,B|97:261|97:261|136:300,1,64.9999970245363,6|0,3:0|0:0,0:0:0:0:
381,358,87567,2,0,B|398:324|398:324|377:269,1,75.0000028610231,10|0,0:0|0:0,0:0:0:0:
195,237,87727,1,4,3:0:0:0:
136,362,87886,1,0,0:0:0:0:
215,324,88046,1,4,3:0:0:0:
71,0,88205,5,6,3:1:0:0:
158,21,88365,1,0,0:0:0:0:
244,44,88524,1,0,0:0:0:0:
135,108,88684,1,4,3:0:0:0:
452,18,88843,1,8,0:0:0:0:
339,0,89003,1,0,0:0:0:0:
482,186,89163,6,0,B|491:164|491:164|474:143,1,50,6|0,3:0|0:0,0:0:0:0:
383,88,89322,2,0,L|423:319,1,194.999991073609,6|0,3:0|0:0,0:0:0:0:
425,354,89641,1,0,0:0:0:0:
511,269,89801,1,0,0:0:0:0:
141,341,89961,6,0,B|118:352|111:380|111:380|89:338|120:302|120:302|151:269|127:232|127:232|104:194|133:164|133:164|161:132|137:97|137:97|111:59|139:25|139:25|160:2|214:28|190:77|133:65|147:31,1,539.999983520508,10|0,0:0|0:0,0:0:0:0:
163,57,90759,5,6,3:0:0:0:
244,80,90918,1,0,0:0:0:0:
282,155,91078,1,0,0:0:0:0:
256,237,91237,1,0,0:0:0:0:
512,0,91557,5,10,0:0:0:0:
436,19,91716,1,0,0:0:0:0:
391,83,91876,1,0,0:0:0:0:
406,159,92035,1,0,0:0:0:0:
182,246,92354,5,6,3:0:0:0:
247,225,92513,1,0,0:0:0:0:
308,260,92673,1,0,0:0:0:0:
325,327,92832,1,0,0:0:0:0:
310,94,93152,5,8,0:0:0:0:
148,121,93311,1,4,3:0:0:0:
63,260,93471,1,4,3:0:0:0:
219,10,93630,1,8,0:0:0:0:
145,325,93790,1,10,0:0:0:0:
53,151,93949,1,4,3:0:0:0:
505,97,94109,1,14,0:0:0:0:
82,54,94428,5,6,3:1:0:0:
193,122,94588,2,0,P|181:218|160:281,1,129.999994049073,4|8,3:0|0:0,0:0:0:0:
0,384,94907,2,0,P|9:352|61:343,1,64.9999970245363,6|0,3:0|0:0,0:0:0:0:
255,384,95066,2,0,P|144:353|100:311,1,129.999994049073,0|4,0:0|3:0,0:0:0:0:
49,218,95386,2,0,P|58:249|110:259,1,64.9999970245363,8|0,0:0|0:0,0:0:0:0:
304,218,95545,2,0,P|193:249|149:291,1,129.999994049073,4|0,3:0|0:0,0:0:0:0:
351,365,95864,6,0,P|341:333|290:324,1,64.9999970245363,4|0,3:0|0:0,0:0:0:0:
449,235,96024,2,0,P|416:234|391:280,1,64.9999970245363,8|0,0:0|0:0,0:0:0:0:
469,384,96183,2,0,L|458:302,1,64.9999970245363
449,235,96343,1,4,3:0:0:0:
433,105,96503,1,4,3:0:0:0:
331,157,96662,2,0,L|356:97,1,64.9999970245363,10|0,0:0|0:0,0:0:0:0:
512,36,96822,2,0,L|421:28,1,64.9999970245363
177,7,96981,5,6,3:0:0:0:
235,153,97141,2,0,P|228:212|187:278,1,129.999994049073,4|8,3:0|0:0,0:0:0:0:
75,127,97460,2,0,P|44:128|19:148,1,64.9999970245363,6|0,3:0|0:0,0:0:0:0:
111,326,97620,2,0,P|93:233|57:184,1,129.999994049073,0|4,0:0|3:0,0:0:0:0:
134,74,97939,2,0,P|150:92|157:131,1,64.9999970245363,8|0,0:0|0:0,0:0:0:0:
8,285,98098,1,4,3:0:0:0:
26,274,98417,5,0,3:0:0:0:
39,277,98471,1,0,3:0:0:0:
52,280,98524,1,0,3:0:0:0:
65,283,98577,1,8,0:0:0:0:
200,372,98736,5,4,3:0:0:0:
277,91,98896,1,8,0:0:0:0:
387,197,99056,1,4,3:0:0:0:
85,122,99216,5,8,0:0:0:0:
496,146,99375,1,8,0:0:0:0:
373,348,99534,6,0,B|367:312|367:312|340:279,1,75.0000028610231,6|0,3:1|0:0,0:0:0:0:
76,28,99854,6,0,P|59:70|68:102,1,75.0000028610231,6|0,3:0|0:0,0:0:0:0:
27,176,100013,2,0,P|61:205|94:206,1,75.0000028610231,6|0,3:0|0:0,0:0:0:0:
496,146,100173,1,8,0:0:0:0:
368,1,100332,6,0,B|339:23|339:23|327:61,1,75.0000028610231,6|0,3:0|0:0,0:0:0:0:
135,359,100652,6,0,P|94:350|68:328,1,75.0000028610231,6|0,3:0|0:0,0:0:0:0:
206,247,100811,2,0,P|169:253|140:276,1,75.0000028610231,6|0,3:0|0:0,0:0:0:0:
505,348,101130,6,0,B|480:362|480:362|430:355,1,75.0000028610231,6|0,3:0|0:0,0:0:0:0:
6,192,101449,6,0,P|12:153|38:120,1,75.0000028610231,10|0,0:0|0:0,0:0:0:0:
177,74,101609,2,0,P|172:37|151:6,1,75.0000028610231,6|0,3:0|0:0,0:0:0:0:
289,375,101928,6,0,B|273:347|273:347|293:288,1,75.0000028610231,6|0,3:0|0:0,0:0:0:0:
417,74,102247,6,0,P|412:109|377:152,1,75.0000028610231,6|0,3:0|0:0,0:0:0:0:
479,7,102407,2,0,P|501:37|509:74,1,75.0000028610231,6|0,3:0|0:0,0:0:0:0:
106,359,102726,6,0,B|74:365|74:365|64:378|64:378|35:385,1,75.0000028610231,8|0,0:0|0:0,0:0:0:0:
418,288,103045,6,0,P|451:301|493:295,1,75.0000028610231,6|0,3:0|0:0,0:0:0:0:
430,205,103205,2,0,P|466:200|501:213,1,75.0000028610231,6|0,3:0|0:0,0:0:0:0:
70,224,103524,6,0,B|81:187|81:187|111:162,1,75.0000028610231,10|0,0:0|0:0,0:0:0:0:
404,378,103843,6,0,P|370:379|329:359,1,75.0000028610231,6|0,3:0|0:0,0:0:0:0:
266,277,104003,2,0,L|169:296,1,75.0000028610231,10|0,0:0|0:0,0:0:0:0:
436,25,104322,6,0,P|386:109|365:212,2,200,6|10|6,3:0|0:0|3:1,0:0:0:0:
53,185,104960,6,0,P|88:165|111:132,1,64.9999970245363,6|0,3:0|0:0,0:0:0:0:
162,289,105120,2,0,P|162:248|145:212,1,64.9999970245363,6|0,3:0|0:0,0:0:0:0:
1,75,105279,1,10,0:0:0:0:
264,0,105439,6,0,B|297:9|297:9|313:36,1,64.9999970245363,6|0,3:0|0:0,0:0:0:0:
338,353,105758,6,0,B|371:344|371:344|387:316,1,64.9999970245363,4|0,3:0|0:0,0:0:0:0:
440,25,106077,6,0,P|462:43|477:90,1,64.9999970245363,4|0,3:0|0:0,0:0:0:0:
388,112,106237,2,0,P|366:130|350:177,1,64.9999970245363,6|0,3:0|0:0,0:0:0:0:
99,218,106556,6,0,B|119:205|119:205|194:200,1,64.9999970245363,10|0,0:0|0:0,0:0:0:0:
512,184,106715,2,0,B|490:172|490:172|414:190,1,87.500000834465,10|0,0:0|0:0,0:0:0:0:
107,309,106875,1,10,0:0:0:0:
391,303,107194,6,0,B|370:326|370:326|321:338,1,59.9999981689454,6|0,3:1|0:0,0:0:0:0:
152,205,107513,6,0,P|163:221|175:283,1,59.9999981689454,6|0,3:0|0:0,0:0:0:0:
108,143,107673,2,0,P|136:153|171:199,1,59.9999981689454,6|0,3:0|0:0,0:0:0:0:
193,357,107832,1,8,0:0:0:0:
263,189,107992,6,0,B|291:201|291:201|307:239,1,59.9999981689454,6|0,3:0|0:0,0:0:0:0:
64,75,108311,6,0,B|88:56|88:56|129:61,1,59.9999981689454,6|0,3:0|0:0,0:0:0:0:
372,159,108630,6,0,P|400:144|427:104,1,59.9999981689454,6|0,3:0|0:0,0:0:0:0:
424,239,108790,2,0,P|454:229|501:238,1,59.9999981689454,6|0,3:0|0:0,0:0:0:0:
331,78,109109,5,0,1:0:0:0:
261,50,109189,1,0,1:0:0:0:
188,68,109269,1,0,1:0:0:0:
148,130,109348,1,0,1:0:0:0:
152,205,109428,1,8,1:3:0:0:
191,194,109508,1,0,1:0:0:0:
217,162,109588,1,0,1:0:0:0:
223,122,109667,1,0,1:0:0:0:
209,84,109747,6,0,B|190:68|190:68|69:55,1,89.9999972534181,6|0,3:1|0:0,0:0:0:0:
332,384,110066,2,0,B|351:368|351:368|472:355,1,89.9999972534181,6|0,3:0|0:0,0:0:0:0:
400,256,110226,2,0,B|424:253|424:253|531:311,1,89.9999972534181,6|0,3:0|0:0,0:0:0:0:
100,348,110386,5,8,0:0:0:0:
0,215,110545,2,0,B|22:236|22:236|41:351,1,89.9999972534181,6|0,3:0|3:0,0:0:0:0:
481,0,110864,6,0,B|459:13|459:13|416:127,1,89.9999972534181,6|0,3:0|0:0,0:0:0:0:
463,166,111024,2,0,B|483:180|483:180|527:293,1,89.9999972534181,6|0,3:0|0:0,0:0:0:0:
0,37,111343,6,0,B|50:27|50:27|110:85,1,89.9999972534181,6|0,3:0|0:0,0:0:0:0:
512,358,111662,6,0,B|489:347|489:347|369:363,1,89.9999972534181,10|0,0:0|0:0,0:0:0:0:
323,310,111822,2,0,B|298:318|298:318|225:414,1,89.9999972534181,6|0,3:0|3:0,0:0:0:0:
458,0,112141,6,0,B|418:22|418:22|315:-5,1,89.9999972534181,6|0,3:0|0:0,0:0:0:0:
0,164,112460,6,0,B|10:187|10:187|-5:307,1,89.9999972534181,6|0,3:0|0:0,0:0:0:0:
112,298,112620,2,0,B|101:321|101:321|117:441,1,89.9999972534181,6|0,3:0|0:0,0:0:0:0:
500,188,112939,6,0,B|461:210|461:210|357:182,1,89.9999972534181,10|0,0:0|0:0,0:0:0:0:
15,0,113258,6,0,B|37:10|37:10|157:-6,1,89.9999972534181,6|0,3:0|0:0,0:0:0:0:
15,145,113417,2,0,B|37:134|37:134|157:150,1,89.9999972534181,6|0,3:0|0:0,0:0:0:0:
510,384,113737,6,0,B|525:338|525:338|469:248,1,89.9999972534181,6|0,3:0|0:0,0:0:0:0:
22,345,114056,6,0,B|11:322|11:322|27:202,1,89.9999972534181,6|0,3:0|0:0,0:0:0:0:
103,2,114215,2,0,P|181:105|263:370,2,400,10|8|4,0:0|0:0|3:0,0:0:0:0:
340,170,115013,5,10,0:0:0:0:
370,251,115173,1,4,3:0:0:0:
292,275,115332,1,4,3:0:0:0:
272,112,115492,5,10,0:0:0:0:
340,159,115652,1,4,3:0:0:0:
434,86,115811,5,10,0:0:0:0:
235,180,115971,1,4,3:0:0:0:
23,104,116130,6,0,B|34:81|34:81|140:61,1,119.999996337891,10|4,0:0|3:0,0:0:0:0:
176,0,116449,1,6,3:0:0:0:
77,306,116609,2,0,P|187:258|301:222,1,239.999992675781,10|6,0:0|3:0,0:0:0:0:
380,273,117088,1,4,3:0:0:0:
115,219,117247,6,0,P|160:234|186:243,1,59.9999981689454,10|0,0:0|0:0,0:0:0:0:
235,180,117407,1,4,3:0:0:0:
436,348,117566,2,0,B|426:324|426:324|450:222,1,119.999996337891,10|4,0:0|3:0,0:0:0:0:
512,186,117886,1,4,3:0:0:0:
307,75,118045,1,10,0:0:0:0:
365,21,118205,2,0,B|375:32|375:32|385:86,1,59.9999981689454,4|0,3:0|0:0,0:0:0:0:
296,82,118364,5,8,0:0:0:0:
219,53,118524,1,6,3:0:0:0:
171,123,118683,1,8,0:0:0:0:
0,68,118843,5,6,3:0:0:0:
225,299,119002,1,6,3:0:0:0:
148,380,119960,5,4,3:1:0:0:
151,360,120120,1,0,0:0:0:0:
154,340,120279,1,0,0:0:0:0:
225,300,120439,1,4,3:0:0:0:
83,191,120598,5,10,0:0:0:0:
87,171,120758,1,0,0:0:0:0:
156,126,120917,1,6,3:0:0:0:
0,28,121077,2,0,B|10:34|10:34|98:40,1,100,2|4,0:0|3:0,0:0:0:0:
154,108,121396,1,2,0:0:0:0:
230,77,121556,1,0,0:0:0:0:
175,13,121715,1,6,3:0:0:0:
418,278,121875,6,0,B|451:301|451:301|21:249|21:249|76:282,1,525.000020027161,12|0,0:0|0:0,0:0:0:0:
61,299,122513,5,4,3:1:0:0:
102,366,122673,1,0,0:0:0:0:
169,324,122832,1,4,3:0:0:0:
181,343,122992,1,4,3:0:0:0:
418,278,123152,5,8,0:0:0:0:
351,320,123311,1,4,3:0:0:0:
310,253,123471,1,6,3:0:0:0:
181,91,123630,2,0,B|167:110|167:110|196:236,1,119.999996337891,2|4,0:0|3:0,0:0:0:0:
418,278,123949,2,0,B|432:259|432:259|376:38,1,239.999992675781,2|6,0:0|3:0,0:0:0:0:
509,3,124428,1,10,0:0:0:0:
363,164,124588,1,4,3:0:0:0:
194,23,124747,2,0,L|208:75,1,50,6|0,3:0|0:0,0:0:0:0:
141,124,124907,6,0,P|111:118|27:105,2,100,2|4|2,0:0|3:0|0:0,0:0:0:0:
130,345,125386,6,0,B|126:330|126:330|155:262,1,75.0000028610231,4|0,3:0|0:0,0:0:0:0:
70,264,125545,2,0,B|47:319|47:319|51:334,1,75.0000028610231,4|0,3:0|0:0,0:0:0:0:
245,384,125705,2,0,L|213:161,1,225.000008583069,8|0,0:0|0:0,0:0:0:0:
372,194,126024,6,0,B|376:179|376:179|347:111,1,75.0000028610231,6|0,3:0|0:0,0:0:0:0:
431,113,126183,2,0,B|454:167|454:167|450:182,1,75.0000028610231,2|0,0:0|0:0,0:0:0:0:
257,233,126343,2,0,L|288:10,1,225.000008583069,4|0,3:0|0:0,0:0:0:0:
161,37,126662,6,0,B|178:48|178:48|246:67,1,75.0000028610231,4|0,3:0|0:0,0:0:0:0:
0,220,126822,2,0,B|17:209|17:209|85:190,1,75.0000028610231,4|0,3:0|0:0,0:0:0:0:
114,117,126981,1,8,0:0:0:0:
220,159,127141,1,0,0:0:0:0:
327,98,127300,5,6,3:0:0:0:
483,305,127460,1,8,0:0:0:0:
201,383,127620,6,0,P|194:288|385:207,1,300.000011444092,6|10,3:1|0:0,0:0:0:0:
401,257,128577,1,4,3:0:0:0:
512,68,128896,6,0,B|481:73|481:73|280:24,1,200,6|4,3:0|3:0,0:0:0:0:
314,49,129375,2,0,B|295:35|295:35|213:50,1,75.0000028610231
151,139,129534,6,0,P|44:113|52:2,1,239.999992675781,10|6,0:0|3:0,0:0:0:0:
233,182,130013,5,0,3:0:0:0:
233,182,130093,1,0,3:0:0:0:
233,182,130173,1,4,3:1:0:0:
164,220,130333,1,0,0:0:0:0:
173,297,130492,1,4,3:0:0:0:
188,294,130652,1,4,3:0:0:0:
428,278,130811,5,10,0:0:0:0:
353,254,130971,1,4,3:0:0:0:
327,261,131130,1,6,3:0:0:0:
496,96,131290,1,2,0:0:0:0:
339,165,131450,1,4,3:0:0:0:
278,100,131609,1,2,0:0:0:0:
359,69,131769,1,4,3:0:0:0:
419,135,131928,1,6,3:0:0:0:
81,311,132088,6,0,B|48:334|48:334|478:282|478:282|423:315,1,525.000020027161,12|0,0:0|0:0,0:0:0:0:
429,330,132726,5,4,0:0:0:0:
351,320,132886,1,0,0:0:0:0:
282,364,133045,1,4,3:0:0:0:
270,345,133205,1,4,3:0:0:0:
166,188,133365,5,8,0:0:0:0:
99,230,133524,1,4,3:0:0:0:
58,163,133684,1,6,3:0:0:0:
147,34,133843,1,2,0:0:0:0:
129,109,134003,1,4,3:0:0:0:
351,320,134162,2,0,B|365:301|365:301|333:177,2,119.999996337891,2|4|6,0:0|3:0|3:0,0:0:0:0:
270,345,134641,1,10,0:0:0:0:
218,282,134801,1,4,3:0:0:0:
14,371,134960,6,0,B|-5:344|-5:344|0:303,1,75.0000028610231,6|0,3:0|0:0,0:0:0:0:
143,276,135120,2,0,B|163:304|163:304|158:345,1,75.0000028610231,2|0,0:0|0:0,0:0:0:0:
76,326,135279,2,0,B|93:305|93:305|122:47,1,225.000008583069,4|0,3:0|0:0,0:0:0:0:
195,95,135598,6,0,B|214:67|214:67|209:26,1,75.0000028610231,4|0,3:0|0:0,0:0:0:0:
57,0,135758,2,0,B|37:27|37:27|42:68,1,75.0000028610231,4|0,3:0|0:0,0:0:0:0:
383,134,135917,2,0,B|362:151|362:151|104:180,1,225.000008583069,8|0,0:0|0:0,0:0:0:0:
67,174,136237,6,0,L|150:190,1,75.0000028610231,4|0,3:0|0:0,0:0:0:0:
212,297,136396,2,0,L|295:281,1,75.0000028610231
414,220,136556,1,4,3:0:0:0:
495,231,136715,1,0,0:0:0:0:
278,340,136875,6,0,B|273:299|273:299|293:272,1,75.0000028610231,4|0,3:0|0:0,0:0:0:0:
445,298,137035,2,0,B|450:339|450:339|431:367,1,75.0000028610231,4|0,3:0|0:0,0:0:0:0:
134,352,137194,2,0,L|372:313,1,225.000008583069,8|0,0:0|0:0,0:0:0:0:
366,326,137513,5,6,3:0:0:0:
197,184,137673,1,6,3:0:0:0:
321,164,137832,5,0,1:0:0:0:
283,89,137992,1,2,1:0:0:0:
206,106,138152,1,0,1:0:0:0:
54,258,138311,5,0,1:0:0:0:
197,184,138471,1,0,1:0:0:0:
313,377,138630,5,2,1:0:0:0:
272,310,138790,1,0,1:0:0:0:
505,81,138949,5,2,1:0:0:0:
262,232,139109,1,0,1:0:0:0:
146,13,139269,1,2,1:0:0:0:
500,231,139428,6,0,L|426:217,1,75.0000028610231,0|0,1:0|0:0,0:0:0:0:
318,20,139588,2,0,L|221:36,1,87.500000834465,0|0,1:0|0:0,0:0:0:0:
54,258,139747,1,0,1:0:0:0:
461,54,140386,6,0,B|395:47|395:47|296:261|296:261|217:252,1,375.000014305115,6|0,3:1|0:0,0:0:0:0:
201,141,140864,2,0,B|237:149|237:149|264:194,1,64.9999970245363,6|0,3:0|0:0,0:0:0:0:
464,153,141024,2,0,L|278:87,1,194.999991073609,8|0,0:0|0:0,0:0:0:0:
206,61,141343,1,6,3:0:0:0:
346,244,141503,6,0,P|359:184|458:167,1,150,4|0,3:0|0:0,0:0:0:0:
462,173,141822,1,0,0:0:0:0:
434,251,141981,1,4,3:0:0:0:
281,165,142141,1,4,3:0:0:0:
60,384,142300,6,0,B|6:347|6:347|40:190,1,200,12|2,0:0|0:0,0:0:0:0:
134,106,142779,2,0,P|128:149|99:192,1,69.9999978637696,10|0,0:0|0:0,0:0:0:0:
9,118,142939,2,0,P|202:166|313:250,1,279.999991455078,6|0,3:1|0:0,0:0:0:0:
195,357,143417,2,0,B|173:336|173:336|181:252,1,69.9999978637696,6|0,3:0|0:0,0:0:0:0:
276,32,143577,2,0,B|241:-14|241:-14|204:150,1,209.999993591309,8|0,0:0|0:0,0:0:0:0:
192,215,143896,1,6,3:0:0:0:
20,4,144056,6,0,P|78:119|89:207,1,200,4|0,3:0|0:0,0:0:0:0:
4,321,144535,1,4,3:0:0:0:
83,266,144694,1,4,3:0:0:0:
391,356,144854,1,12,0:0:0:0:
402,371,145173,5,2,0:0:0:0:
318,360,145332,1,0,1:0:0:0:
85,123,145492,2,0,B|156:148|156:148|182:319,1,209.999993591309,6|0,3:1|0:0,0:0:0:0:
159,375,145811,2,0,P|169:345|230:319,1,69.9999978637696
271,253,145971,2,0,P|302:253|346:303,1,69.9999978637696,6|0,3:0|0:0,0:0:0:0:
503,131,146130,2,0,P|419:188|420:289,1,209.999993591309,8|0,0:0|0:0,0:0:0:0:
489,343,146449,5,6,3:0:0:0:
512,235,146609,2,0,P|426:158|326:112,1,209.999993591309,4|0,3:0|0:0,0:0:0:0:
258,116,146928,1,0,0:0:0:0:
464,26,147088,1,4,3:0:0:0:
506,109,147247,1,4,3:0:0:0:
177,22,147407,5,8,0:0:0:0:
91,125,147566,1,4,3:0:0:0:
166,98,147726,2,0,B|182:116|182:116|170:144,1,50
31,183,147886,1,4,3:0:0:0:
476,244,148045,5,14,0:0:0:0:
460,165,148205,1,6,3:0:0:0:
442,87,148364,1,4,3:0:0:0:
247,328,148524,5,14,0:0:0:0:
265,104,148684,1,4,3:0:0:0:
221,326,148843,1,4,3:0:0:0:
84,128,149003,5,14,0:0:0:0:
460,165,149162,1,10,0:0:0:0:
331,232,149322,1,4,3:0:0:0:
203,12,149481,5,14,0:0:0:0:
189,91,149641,1,4,3:0:0:0:
172,169,149800,1,4,3:0:0:0:
361,49,149960,5,8,0:0:0:0:
333,86,150120,1,4,3:0:0:0:
512,36,150279,5,8,0:0:0:0:
336,320,150439,1,4,3:0:0:0:
54,246,150598,6,0,B|3:200|3:200|241:261|241:261|262:350,1,375.000014305115,6|0,3:1|0:0,0:0:0:0:
198,384,151077,2,0,P|172:360|180:313,1,75.0000028610231,6|0,3:0|0:0,0:0:0:0:
368,153,151237,2,0,P|292:197|140:218,1,194.999991073609,8|0,0:0|0:0,0:0:0:0:
112,198,151555,1,6,3:0:0:0:
69,40,151715,2,0,P|137:88|174:142,1,150,4|0,3:0|0:0,0:0:0:0:
188,219,152034,1,0,0:0:0:0:
246,130,152193,1,4,3:0:0:0:
397,79,152353,1,4,3:0:0:0:
512,379,152513,6,0,B|483:353|483:353|336:342,1,150,8|0,0:0|0:0,0:0:0:0:
267,381,152832,2,0,P|276:342|315:315,1,75.0000028610231,2|0,0:0|0:0,0:0:0:0:
467,255,152992,2,0,P|428:265|385:246,1,75.0000028610231,2|0,2:0|0:0,0:0:0:0:
236,14,153152,2,0,P|265:83|230:373,1,375.000014305115,6|0,3:1|0:0,0:0:0:0:
114,384,153630,2,0,B|115:341|115:341|151:299,1,75.0000028610231,6|0,3:0|0:0,0:0:0:0:
357,129,153790,6,0,B|425:136|393:172|459:186,1,112.500004291535,8|0,0:0|3:0,3:0:0:0:
512,81,154109,2,0,B|483:90|483:90|460:133,1,50,6|0,3:0|0:0,3:0:0:0:
419,274,154269,2,0,B|379:283|379:283|305:231|305:231|255:241,1,165.000005035401,4|0,3:0|0:0,0:0:0:0:
188,264,154588,1,10,0:0:0:0:
108,246,154747,1,0,0:0:0:0:
278,333,154906,1,4,3:0:0:0:
467,3,155066,2,0,B|431:-20|431:-20|42:97,1,375.000014305115,12|0,0:0|0:0,0:0:0:0:
38,118,155545,1,8,0:0:0:0:
408,124,155705,6,0,B|446:148|446:148|257:123,1,209.999993591309,6|0,3:1|0:0,0:0:0:0:
119,156,156024,2,0,P|125:219|151:234,1,64.9999970245363
202,209,156183,2,0,P|195:145|169:130,1,64.9999970245363,6|0,3:0|0:0,0:0:0:0:
0,2,156343,2,0,B|36:-21|36:-21|236:41,1,194.999991073609,8|0,0:0|0:0,0:0:0:0:
239,77,156662,2,0,P|276:40|329:39,1,64.9999970245363,6|0,3:0|0:0,0:0:0:0:
499,59,156822,2,0,P|409:97|313:113,1,194.999991073609,4|0,3:0|0:0,0:0:0:0:
226,100,157140,5,8,0:0:0:0:
288,200,157300,1,4,3:0:0:0:
423,205,157459,1,4,3:0:0:0:
37,183,157620,2,0,P|61:225|117:411,1,200,8|0,0:0|0:0,0:0:0:0:
186,237,158098,1,4,3:0:0:0:
512,304,158258,6,0,B|519:265|519:265|476:226,1,75.0000028610231,14|0,0:0|0:0,0:0:0:0:
199,322,158417,2,0,B|192:361|192:361|235:400,1,75.0000028610231,6|0,3:0|0:0,0:0:0:0:
354,311,158577,1,4,3:0:0:0:
297,91,158737,6,0,L|334:216,1,75.0000028610231,14|0,0:0|0:0,0:0:0:0:
406,204,158896,1,4,3:0:0:0:
480,83,159056,1,4,3:0:0:0:
164,46,159215,6,0,B|136:57|136:57|118:157,1,75.0000028610231,14|0,0:0|0:0,0:0:0:0:
85,320,159375,2,0,B|-2:305|-2:305|-21:268|13:248,1,150.000005722046,10|4,0:0|3:0,0:0:0:0:
207,120,159694,6,0,B|235:131|235:131|253:231,1,75.0000028610231,14|0,0:0|0:0,0:0:0:0:
238,273,159855,1,4,3:0:0:0:
88,227,160014,1,4,3:0:0:0:
329,122,160174,5,0,3:0:0:0:
380,142,160253,1,0,3:0:0:0:
400,194,160333,1,4,3:0:0:0:
377,245,160413,1,4,3:0:0:0:
325,267,160493,1,0,3:0:0:0:
308,321,160573,1,0,3:0:0:0:
334,370,160653,1,4,3:0:0:0:
388,383,160731,1,4,3:0:0:0:
440,365,160811,6,0,B|452:341|452:341|433:266,1,75.0000028610231,14|0,0:0|0:0,0:0:0:0:
253,155,160971,2,0,B|241:131|241:131|260:56,1,75.0000028610231,6|0,3:0|0:0,0:0:0:0:
389,0,161130,1,4,3:0:0:0:
113,102,161290,6,0,L|150:227,1,75.0000028610231,14|0,0:0|0:0,0:0:0:0:
228,250,161449,1,4,3:0:0:0:
329,122,161609,1,4,3:0:0:0:
57,37,161768,6,0,B|36:51|36:51|11:148,1,75.0000028610231,14|0,0:0|0:0,0:0:0:0:
0,271,161928,2,0,P|68:250|155:241,1,150.000005722046,6|4,3:0|3:0,0:0:0:0:
298,384,162247,6,0,B|269:357|269:357|276:285,1,75.0000028610231,10|0,0:0|0:0,0:0:0:0:
373,222,162408,1,4,3:0:0:0:
440,365,162567,1,4,3:0:0:0:
370,30,162726,5,0,3:0:0:0:
316,42,162806,1,0,3:0:0:0:
297,94,162886,1,4,3:0:0:0:
326,140,162965,1,4,3:0:0:0:
381,138,163045,1,0,3:0:0:0:
423,104,163125,1,0,3:0:0:0:
477,110,163205,1,4,3:0:0:0:
512,151,163284,1,4,3:0:0:0:
509,203,163364,5,14,0:0:0:0:
432,227,163524,1,0,0:0:0:0:
412,306,163683,1,0,0:0:0:0:
282,196,163843,5,6,3:0:0:0:
88,241,164003,1,0,1:0:0:0:
185,368,164162,1,0,1:0:0:0:
263,354,164322,1,0,1:0:0:0:
232,49,164481,5,2,1:0:0:0:
213,290,164641,1,8,0:3:0:0:
156,89,164800,1,0,1:0:0:0:
289,277,164960,1,0,1:0:0:0:
6,258,165120,5,8,3:0:0:0:
158,209,165279,1,4,3:0:0:0:
297,97,165439,1,14,3:0:0:0:
459,48,165598,1,14,3:0:0:0:
475,63,165917,6,0,B|461:94|461:94|455:227,1,150.000005722046,6|0,3:0|0:0,0:0:0:0:
463,291,166157,2,0,B|477:260|477:260|483:127,1,150.000005722046,6|0,3:0|0:0,0:0:0:0:
405,101,166396,2,0,L|326:118,1,75.0000028610231,6|0,3:0|0:0,0:0:0:0:
237,384,166556,5,0,1:0:0:0:
180,328,166715,1,0,1:0:0:0:
143,321,166795,1,0,1:0:0:0:
106,314,166875,1,0,1:0:0:0:
69,307,166955,1,0,1:0:0:0:
33,300,167034,1,0,1:0:0:0:
13,327,167114,1,0,1:0:0:0:
45,329,167194,6,0,L|31:114,1,150.000005722046,6|0,3:0|0:0,0:0:0:0:
189,39,167433,2,0,L|203:254,1,150.000005722046,6|0,3:0|0:0,0:0:0:0:
111,215,167673,2,0,L|195:202,1,75.0000028610231,6|0,3:0|0:0,0:0:0:0:
294,330,167832,5,8,1:3:0:0:
331,323,167912,1,0,1:0:0:0:
368,316,167992,1,0,1:0:0:0:
405,309,168072,1,0,1:0:0:0:
441,302,168152,1,0,1:0:0:0:
265,226,168311,5,0,1:0:0:0:
301,233,168391,1,0,1:0:0:0:
411,55,168550,5,0,1:0:0:0:
374,63,168630,2,0,P|338:125|451:189,1,225.000008583069,6|0,3:0|0:0,0:0:0:0:
512,157,168949,2,0,P|482:123|411:128,1,75.0000028610231,6|0,3:0|0:0,0:0:0:0:
232,22,169108,5,6,3:0:0:0:
195,43,169189,1,0,1:0:0:0:
175,79,169269,1,0,1:0:0:0:
176,122,169348,1,0,1:0:0:0:
199,157,169428,1,8,0:3:0:0:
213,154,169508,1,8,0:3:0:0:
227,152,169588,1,8,0:3:0:0:
241,150,169667,1,8,0:3:0:0:
256,147,169747,1,8,0:3:0:0:
384,268,169907,6,0,P|341:256|207:232,1,150.000005722046,6|0,3:0|0:0,0:0:0:0:
193,306,170146,1,0,0:0:0:0:
193,306,170226,2,0,B|178:319|178:319|92:305,1,75.0000028610231,6|0,3:0|0:0,0:0:0:0:
0,205,170386,2,0,B|15:192|15:192|101:206,1,75.0000028610231,6|0,3:0|0:0,0:0:0:0:
100,271,170545,5,0,3:0:0:0:
99,278,170598,1,0,3:0:0:0:
97,284,170652,1,0,3:0:0:0:
97,291,170705,2,0,P|121:272|306:304,1,225.000008583069,2|0,1:0|0:0,0:0:0:0:
355,352,171024,6,0,B|428:369|428:369|511:326,1,150.000005722046,6|0,3:1|0:0,0:0:0:0:
491,151,171263,2,0,B|418:134|418:134|335:177,1,150.000005722046,6|0,3:0|0:0,0:0:0:0:
415,287,171503,2,0,L|427:210,1,75.0000028610231,6|0,3:0|0:0,0:0:0:0:
275,16,171662,5,8,1:3:0:0:
226,72,171769,1,0,1:0:0:0:
250,141,171875,1,0,1:0:0:0:
352,157,171981,5,8,1:3:0:0:
401,101,172088,1,0,1:0:0:0:
377,32,172194,1,0,1:0:0:0:
311,86,172300,6,0,P|153:130|112:135,1,150.000005722046,6|0,3:0|0:0,0:0:0:0:
61,308,172540,2,0,P|219:264|260:259,1,150.000005722046,6|0,3:0|0:0,0:0:0:0:
305,288,172779,2,0,P|303:257|259:220,1,75.0000028610231,6|0,3:0|0:0,0:0:0:0:
92,40,172939,5,0,1:0:0:0:
48,65,173019,1,0,1:0:0:0:
23,109,173098,1,0,1:0:0:0:
25,160,173178,1,0,1:0:0:0:
52,202,173258,1,8,0:3:0:0:
66,188,173338,1,8,0:3:0:0:
84,196,173417,1,8,0:3:0:0:
96,185,173497,1,8,0:3:0:0:
111,191,173577,1,8,0:3:0:0:
119,181,173656,1,8,0:3:0:0:
130,191,173736,6,0,B|164:184|164:184|387:248|387:248|437:237,1,300.000011444092,6|6,3:0|3:0,0:0:0:0:
402,4,174215,5,6,3:0:0:0:
390,53,174294,1,0,1:0:0:0:
379,103,174374,1,0,1:0:0:0:
367,154,174454,1,0,1:0:0:0:
357,204,174534,1,8,0:3:0:0:
351,179,174613,1,8,0:3:0:0:
345,154,174693,1,8,0:3:0:0:
339,129,174773,1,8,0:3:0:0:
334,104,174853,1,8,0:3:0:0:
312,93,174933,1,8,0:3:0:0:
306,115,175013,6,0,L|530:167,1,225.000008583069,6|0,3:0|0:0,0:0:0:0:
495,84,175332,2,0,L|509:158,1,75.0000028610231,6|0,3:0|0:0,0:0:0:0:
408,331,175492,2,0,L|421:257,1,75.0000028610231,6|0,3:0|0:0,0:0:0:0:
301,254,175651,5,0,3:0:0:0:
302,261,175705,1,0,3:0:0:0:
304,267,175758,1,0,3:0:0:0:
304,274,175811,2,0,P|280:255|95:287,1,225.000008583069,2|0,1:0|0:0,0:0:0:0:
47,336,176130,6,0,P|161:334|181:290,1,150.000005722046,6|0,3:1|0:0,0:0:0:0:
221,224,176370,1,6,3:0:0:0:
221,224,176449,2,0,P|134:225|114:269,1,75.0000028610231
102,278,176609,1,6,3:0:0:0:
0,97,176769,2,0,P|60:108|115:125,1,100.000003814697,10|0,0:0|0:0,0:0:0:0:
113,114,176943,2,0,L|184:101,2,50.0000019073487
237,143,177118,2,0,P|283:125|422:86,1,150.000005722046,2|0,0:0|0:0,0:0:0:0:
512,50,177427,6,0,P|435:28|406:118,1,150.000005722046,6|0,3:1|0:0,0:0:0:0:
461,239,177658,2,0,P|384:261|355:171,1,150.000005722046,6|0,3:0|0:0,0:0:0:0:
414,179,177890,2,0,P|441:259|416:265,1,75.0000028610231,6|0,3:0|0:0,0:0:0:0:
412,299,178045,1,8,0:0:0:0:
246,170,178204,5,8,3:0:0:0:
249,194,178284,1,8,3:0:0:0:
253,219,178364,1,6,3:0:0:0:
184,319,178533,1,6,3:0:0:0:
66,326,178683,1,4,3:0:0:0:
299,101,178857,6,0,P|198:122|31:137,1,225.000008583069,4|0,3:1|0:0,0:0:0:0:
9,164,179174,2,0,P|108:192|126:197,1,75.0000028610231,4|0,3:0|0:0,0:0:0:0:
145,97,179333,1,8,0:0:0:0:
138,83,179412,1,0,0:0:0:0:
32,29,179650,2,0,B|62:50|62:50|234:80,1,200,2|2,0:0|0:0,0:0:0:0:
283,12,180126,6,0,P|269:95|384:158,1,225.000008583069,6|0,3:1|0:0,0:0:0:0:
423,225,180438,2,0,P|462:218|509:169,1,75.0000028610231,6|0,3:0|0:0,0:0:0:0:
494,120,180598,1,8,0:0:0:0:
433,73,180757,1,4,3:0:0:0:
304,226,180917,1,8,0:0:0:0:
369,280,181076,1,6,3:0:0:0:
512,334,181236,6,0,P|420:350|329:369,1,150.000005722046,4|0,3:1|0:0,0:0:0:0:
297,241,181496,2,0,P|205:225|114:206,1,150.000005722046,6|0,3:0|0:0,0:0:0:0:
34,355,181714,2,0,L|121:330,1,75.0000028610231,6|0,3:0|0:0,0:0:0:0:
225,163,181894,6,0,P|218:338|153:370,1,239.999992675781,8|0,0:0|0:0,0:0:0:0:
179,362,182292,2,0,P|228:340|290:367,1,119.999996337891
341,302,182532,6,0,P|436:343|484:308,1,150.000005722046,6|0,3:1|0:0,0:0:0:0:
462,115,182781,2,0,P|392:132|381:211,1,150.000005722046,6|0,3:0|0:0,0:0:0:0:
417,264,183010,1,6,3:0:0:0:
490,248,183150,1,0,1:0:0:0:
287,114,183310,1,0,1:0:0:0:
311,117,183389,1,0,1:0:0:0:
336,121,183469,1,2,1:0:0:0:
397,66,183629,1,6,3:0:0:0:
323,37,183788,1,4,3:0:0:0:
241,316,183950,6,0,P|208:227|141:106,1,225.000008583069,4|0,3:1|0:0,0:0:0:0:
171,29,184274,2,0,P|162:70|151:147,1,75.0000028610231,4|0,3:0|0:0,0:0:0:0:
153,361,184436,2,0,P|190:273|220:126,1,225.000008583069,4|0,3:0|0:0,0:0:0:0:
34,183,184750,5,4,3:1:0:0:
69,175,184828,1,0,1:0:0:0:
102,191,184907,1,0,1:0:0:0:
117,225,184985,1,0,1:0:0:0:
107,261,185064,1,0,1:0:0:0:
458,212,185223,2,0,P|349:220|169:254,1,225.000008583069,4|0,3:1|0:0,0:0:0:0:
306,351,185542,2,0,P|304:314|306:277,1,75.0000028610231,4|0,3:0|0:0,0:0:0:0:
109,260,185702,2,0,P|218:252|398:218,1,225.000008583069,4|0,3:1|0:0,0:0:0:0:
347,131,186021,6,0,B|385:145|385:145|389:194,1,75.0000028610231,8|0,0:0|0:0,0:0:0:0:
481,384,186350,6,0,B|526:348|526:348|504:238,1,150.000005722046,4|0,3:1|0:0,0:0:0:0:
473,185,186581,1,4,3:0:0:0:
461,165,186659,2,0,P|482:119|513:85,1,75.0000028610231
511,25,186813,1,4,3:0:0:0:
319,145,186988,5,8,0:0:0:0:
309,132,187092,5,0,0:0:0:0:
313,21,187302,6,0,B|341:1|387:38|296:88|333:0|235:32,1,150
122,12,187617,2,0,B|164:53|164:53|116:192,1,150.000005722046,6|0,3:1|0:0,0:0:0:0:
0,299,187860,2,0,B|14:242|14:242|158:214,1,150.000005722046,6|0,3:0|0:0,0:0:0:0:
250,233,188103,2,0,B|221:240|221:240|173:185,1,75.0000028610231,6|0,3:0|0:0,0:0:0:0:
337,120,188265,5,0,1:0:0:0:
375,267,188424,1,0,1:0:0:0:
385,244,188504,1,0,1:0:0:0:
395,221,188584,1,2,1:0:0:0:
474,215,188743,1,6,3:0:0:0:
507,293,188903,1,4,3:0:0:0:
242,384,189052,6,0,P|216:285|126:158,1,225.000008583069,4|0,3:1|0:0,0:0:0:0:
9,127,189371,2,0,P|34:163|98:157,1,75.0000028610231,4|0,3:0|0:0,0:0:0:0:
223,137,189530,1,8,0:0:0:0:
244,126,189613,1,0,0:0:0:0:
169,9,189864,6,0,B|190:50|171:97|149:81|131:114|147:159,1,150,2|0,0:0|0:0,0:0:0:0:
151,166,190179,1,2,0:0:0:0:
338,26,190338,6,0,B|390:6|390:6|481:107|481:107|538:124,1,225.000008583069,6|0,3:1|0:0,0:0:0:0:
512,86,190657,2,0,P|478:101|475:150,1,75.0000028610231,6|0,3:0|0:0,0:0:0:0:
493,315,190817,1,8,0:0:0:0:
444,259,190966,1,4,3:0:0:0:
225,190,191127,1,8,0:0:0:0:
286,78,191299,1,6,3:0:0:0:
402,372,191471,6,0,P|372:354|203:369,1,150.000005722046,4|0,3:1|0:0,0:0:0:0:
154,380,191699,2,0,P|184:363|256:209,1,150.000005722046,6|0,3:0|0:0,0:0:0:0:
119,188,191927,2,0,P|118:222|172:309,1,75.0000028610231,6|0,3:0|0:0,0:0:0:0:
340,264,192115,1,8,0:0:0:0:
326,248,192430,6,0,P|354:173|427:58,1,179.999994506836
512,23,192731,2,0,B|496:58|496:58|351:39,1,150.000005722046,6|0,3:1|0:0,0:0:0:0:
205,116,192966,2,0,B|221:151|221:151|366:132,1,150.000005722046,6|0,3:0|0:0,0:0:0:0:
507,170,193202,2,0,B|491:205|491:205|393:192,1,75.0000028610231,6|0,3:0|0:0,0:0:0:0:
266,47,193359,1,8,0:0:0:0:
134,197,193518,5,8,0:3:0:0:
128,191,193598,1,8,0:3:0:0:
122,177,193678,1,10,0:3:0:0:
123,154,193757,1,8,0:3:0:0:
144,132,193837,1,10,3:3:0:0:
181,127,193917,1,8,3:3:0:0:
217,153,193997,1,8,3:3:0:0:
233,202,194076,1,8,3:3:0:0:
218,260,194156,6,0,P|185:171|118:50,1,225.000008583069,4|0,3:1|0:0,0:0:0:0:
28,1,194475,2,0,P|19:42|8:119,1,75.0000028610231,4|0,3:0|0:0,0:0:0:0:
66,357,194635,2,0,P|105:270|143:137,1,225.000008583069,4|0,3:0|0:0,0:0:0:0:
100,29,194954,5,4,3:0:0:0:
149,13,195034,1,0,1:0:0:0:
201,18,195114,1,0,1:0:0:0:
247,42,195193,1,0,1:0:0:0:
272,87,195273,1,0,1:0:0:0:
215,300,195433,6,0,P|181:217|174:71,1,225.000008583069,4|0,3:1|0:0,0:0:0:0:
310,0,195737,2,0,P|288:30|277:66,1,75.0000028610231,4|0,3:0|0:0,0:0:0:0:
285,263,195901,2,0,P|319:180|417:72,1,225.000008583069,4|0,3:0|0:0,0:0:0:0:
512,132,196230,5,6,3:0:0:0:
485,176,196310,1,0,1:0:0:0:
441,205,196390,1,0,1:0:0:0:
391,217,196470,1,0,1:0:0:0:
343,198,196550,1,0,1:0:0:0:
340,12,196709,6,0,P|266:96|116:180,1,255.000004863739,6|0,3:1|0:0,0:0:0:0:
13,73,197028,2,0,P|64:79|87:113,1,85.0000016212464,4|0,3:0|0:0,0:0:0:0:
209,384,197188,2,0,P|127:322|57:184,1,255.000004863739,4|0,3:0|0:0,0:0:0:0:
248,142,197507,5,4,3:0:0:0:
247,194,197587,1,0,1:0:0:0:
224,241,197667,1,0,1:0:0:0:
186,276,197746,1,0,1:0:0:0:
135,284,197826,1,0,1:0:0:0:
255,4,197986,6,0,P|309:170|414:317,1,284.999992389679,4|0,3:1|0:0,0:0:0:0:
488,358,198305,2,0,P|473:310|430:274,1,94.9999974632264,4|0,3:0|0:0,0:0:0:0:
233,30,198464,2,0,P|179:196|74:343,1,284.999992389679,4|0,3:0|0:0,0:0:0:0:
0,384,198784,2,0,P|15:336|58:300,1,94.9999974632264,4|0,3:0|0:0,0:0:0:0:
239,272,198943,5,0,3:0:0:0:
245,274,198996,1,0,3:0:0:0:
251,276,199050,1,0,3:0:0:0:
257,278,199103,1,2,1:0:0:0:
377,66,199422,6,0,P|364:100|353:168,1,75.0000028610231,2|0,0:0|0:0,0:0:0:0:
472,91,199581,2,0,P|464:126|440:190,1,75.0000028610231,2|0,0:0|0:0,0:0:0:0:
75,125,199901,6,0,L|99:227,1,75.0000028610231,2|0,0:0|0:0,0:0:0:0:
342,211,200220,6,0,P|329:245|318:313,1,75.0000028610231,2|0,0:0|0:0,0:0:0:0:
437,236,200379,2,0,P|429:271|405:335,1,75.0000028610231,2|0,0:0|0:0,0:0:0:0:
105,278,200698,6,0,L|129:380,1,75.0000028610231,2|0,0:0|0:0,0:0:0:0:
0,246,200858,5,0,3:0:0:0:
2,252,200911,1,0,3:0:0:0:
4,258,200964,1,0,3:0:0:0:
6,264,201018,2,0,B|21:313|21:313|231:344,2,225.000008583069,2|4|4,1:0|3:0|3:0,0:0:0:0:
274,185,201656,6,0,P|182:219|89:246,1,194.999991073609,4|0,3:1|0:0,0:0:0:0:
92,234,201975,1,4,3:0:0:0:
151,183,202135,1,4,3:0:0:0:
288,354,202294,1,8,0:0:0:0:
491,283,202454,2,0,P|472:158|472:74,1,194.999991073609,4|0,3:0|0:0,0:0:0:0:
486,83,202773,1,4,3:0:0:0:
285,269,202932,6,0,P|158:249|108:132,2,259.999988098145,4|4|8,3:0|3:0|0:0,0:0:0:0:
408,76,203731,2,0,P|337:108|354:225,1,194.999991073609,4|0,3:0|0:0,0:0:0:0:
364,284,204050,2,0,P|345:211|342:207,1,64.9999970245363,4|0,3:0|0:0,0:0:0:0:
230,172,204210,5,2,0:0:0:0:
186,354,204369,5,4,3:0:0:0:
186,354,204449,1,0,0:0:0:0:
186,354,204529,2,0,B|172:361|172:361|36:330,1,129.999994049073,6|0,3:0|0:0,0:0:0:0:
14,179,204848,5,10,0:0:0:0:
52,174,204954,1,0,0:0:0:0:
79,201,205061,1,0,0:0:0:0:
152,188,205167,5,6,3:0:0:0:
175,257,205273,1,0,0:0:0:0:
126,312,205380,1,0,0:0:0:0:
188,356,205486,6,0,P|198:234|318:137,1,259.999988098145,2|0,0:0|0:0,0:0:0:0:
92,68,205965,2,0,L|156:57,1,64.9999970245363,6|0,3:0|0:0,0:0:0:0:
210,0,206124,1,10,0:0:0:0:
223,9,206444,6,0,L|287:19,1,64.9999970245363,4|0,3:0|0:0,0:0:0:0:
428,228,206604,2,0,L|353:216,1,64.9999970245363,8|0,0:0|0:0,0:0:0:0:
343,74,206763,6,0,P|319:157|294:283,1,194.999991073609,6|0,3:1|0:0,0:0:0:0:
291,275,207082,1,6,3:0:0:0:
335,338,207241,1,6,3:0:0:0:
74,364,207401,1,8,0:0:0:0:
124,309,207561,1,4,3:0:0:0:
0,120,207720,1,2,0:0:0:0:
70,163,207880,1,6,3:0:0:0:
280,9,208039,6,0,P|256:92|231:218,1,194.999991073609,2|0,0:0|0:0,0:0:0:0:
201,280,208359,2,0,P|141:266|137:205,1,129.999994049073,4|0,3:0|0:0,0:0:0:0:
228,189,208678,1,8,0:0:0:0:
448,284,208837,1,8,0:0:0:0:
512,42,208997,1,8,0:0:0:0:
496,32,209316,6,0,B|470:58|470:58|501:237,1,194.999991073609,4|0,3:1|0:0,0:0:0:0:
320,324,209635,1,4,3:0:0:0:
398,342,209741,2,0,B|398:325|398:325|371:220,1,86.6666626993817,2|0,0:0|0:0,0:0:0:0:
253,94,209954,2,0,P|247:203|233:260,1,129.999994049073,10|4,0:0|3:0,0:0:0:0:
65,271,210273,1,2,0:0:0:0:
0,91,210433,1,4,3:0:0:0:
259,297,210593,5,2,0:0:0:0:
194,340,210699,1,2,0:0:0:0:
137,291,210805,1,2,0:0:0:0:
161,219,210912,1,6,3:0:0:0:
58,17,211231,5,2,1:0:0:0:
62,30,211310,1,0,1:0:0:0:
65,43,211390,1,0,1:0:0:0:
68,56,211470,1,0,1:0:0:0:
71,69,211550,2,0,L|52:154,3,64.9999970245363,10|0|0|0,1:3|1:0|1:0|1:0,0:0:0:0:
142,102,211869,5,6,3:1:0:0:
201,56,211976,1,0,0:0:0:0:
265,97,212082,1,0,0:0:0:0:
245,169,212188,1,4,3:0:0:0:
292,227,212295,1,0,0:0:0:0:
364,217,212401,1,0,0:0:0:0:
395,150,212507,1,8,0:0:0:0:
361,83,212613,2,0,B|356:71|356:71|370:20,1,66.6666666666667
473,1,212826,5,0,0:0:0:0:
447,28,212932,1,0,0:0:0:0:
447,72,213039,1,0,0:0:0:0:
481,100,213145,1,4,3:0:0:0:
464,176,213252,5,0,0:0:0:0:
498,204,213359,1,0,0:0:0:0:
498,248,213464,1,4,3:0:0:0:
472,275,213571,1,0,0:0:0:0:
434,337,213677,5,0,0:0:0:0:
365,309,213784,1,8,0:0:0:0:
303,348,213890,1,0,0:0:0:0:
234,319,213996,1,0,0:0:0:0:
237,245,214103,1,0,0:0:0:0:
172,208,214209,1,0,0:0:0:0:
112,251,214315,1,0,0:0:0:0:
123,323,214422,2,0,B|111:353|111:353|-23:376,1,129.999994049073,2|4,0:0|3:0,0:0:0:0:
131,110,214741,5,4,3:0:0:0:
136,130,214847,5,0,0:0:0:0:
121,140,214954,5,0,0:0:0:0:
56,109,215060,1,8,0:0:0:0:
59,35,215167,1,0,0:0:0:0:
129,16,215273,1,0,0:0:0:0:
184,64,215380,1,4,3:0:0:0:
255,82,215486,1,0,0:0:0:0:
327,69,215593,1,0,0:0:0:0:
388,29,215699,5,2,0:0:0:0:
384,46,215779,1,0,0:0:0:0:
381,64,215859,1,4,3:0:0:0:
379,81,215938,1,0,0:0:0:0:
377,98,216018,1,0,0:0:0:0:
474,285,216178,5,6,3:0:0:0:
447,244,216257,1,0,0:0:0:0:
438,204,216337,1,8,0:0:0:0:
437,220,216417,1,0,0:0:0:0:
434,236,216497,1,0,0:0:0:0:
431,252,216576,1,0,0:0:0:0:
426,268,216656,1,4,3:0:0:0:
420,283,216736,1,0,0:0:0:0:
414,298,216816,1,8,0:0:0:0:
274,356,216975,6,0,L|224:341,2,51.999997619629,6|0|0,1:3|0:0|0:0,0:0:0:0:
345,325,217167,2,0,B|330:328|330:328|154:285|154:285|100:296,1,216.666656748454,2|4,0:0|3:0,0:0:0:0:
2,382,217613,2,0,P|73:369|142:364,1,129.999994049073,8|4,0:0|3:0,0:0:0:0:
255,85,217932,5,0,0:0:0:0:
219,76,218039,5,0,0:0:0:0:
185,90,218145,5,0,0:0:0:0:
165,121,218252,5,0,0:0:0:0:
174,131,218358,5,0,0:0:0:0:
106,160,218464,1,0,0:0:0:0:
43,120,218571,1,4,3:0:0:0:
36,46,218677,1,0,0:0:0:0:
95,2,218784,1,0,0:0:0:0:
103,12,218890,1,8,0:0:0:0:
261,228,219050,1,8,0:0:0:0:
477,24,219209,5,8,0:0:0:0:
404,5,219315,1,0,0:0:0:0:
336,36,219422,1,0,0:0:0:0:
294,98,219528,2,0,B|306:110|306:110|326:296,1,194.999991073609,4|0,3:1|0:0,0:0:0:0:
284,350,219847,6,0,P|317:261|319:247,1,64.9999970245363,4|0,3:0|0:0,0:0:0:0:
412,103,220007,2,0,P|375:193|372:202,1,64.9999970245363,4|0,3:0|0:0,0:0:0:0:
399,258,220167,1,8,0:0:0:0:
173,126,220326,2,0,P|267:158|322:193,1,129.999994049073,4|0,3:0|0:0,0:0:0:0:
512,290,220645,2,0,P|418:258|363:223,1,129.999994049073,4|0,3:0|0:0,0:0:0:0:
472,189,220964,1,4,3:0:0:0:
204,384,221124,2,0,B|206:353|206:353|139:161,1,194.999991073609,4|0,3:0|0:0,0:0:0:0:
90,252,221443,5,0,1:0:0:0:
57,250,221523,1,0,1:0:0:0:
30,233,221603,1,0,1:0:0:0:
14,205,221683,1,0,1:0:0:0:
13,173,221762,2,0,P|94:165|109:152,1,64.9999970245363,0|0,0:3|1:0,0:0:0:0:
242,40,221922,5,0,1:0:0:0:
242,40,222002,1,0,1:0:0:0:
242,40,222082,2,0,P|192:134|167:233,1,194.999991073609,4|0,3:1|0:0,0:0:0:0:
176,309,222401,1,4,3:0:0:0:
90,252,222560,1,4,3:0:0:0:
306,289,222720,5,10,0:0:0:0:
324,309,222826,2,0,P|320:264|275:212,1,86.6666626993817,2|0,0:0|0:0,0:0:0:0:
186,141,223039,5,6,3:0:0:0:
149,173,223145,2,0,P|163:130|221:91,1,86.6666626993817,2|0,0:0|0:0,0:0:0:0:
499,40,223358,6,0,P|502:90|450:134,1,104.999996795654,6|0,3:0|0:0,0:0:0:0:
456,131,223518,2,0,P|406:125|371:64,1,120,2|0,0:0|0:0,0:0:0:0:
370,53,223678,2,0,P|348:7|288:5,1,104.999996795654,6|0,3:0|0:0,0:0:0:0:
287,6,223837,2,0,P|266:37|280:79,1,59.9999981689454,6|0,3:0|0:0,0:0:0:0:
292,211,223997,5,14,0:0:0:0:
245,267,224103,1,0,0:0:0:0:
174,250,224210,1,0,0:0:0:0:
279,213,224316,5,2,0:0:0:0:
241,251,224422,1,0,0:0:0:0:
191,237,224529,1,0,0:0:0:0:
147,176,224635,6,0,B|77:176|43:279|146:267|114:379|24:386,1,259.999988098145,6|0,3:1|0:0,0:0:0:0:
22,308,225061,5,0,0:0:0:0:
103,285,225167,1,0,0:0:0:0:
189,333,225273,1,10,0:0:0:0:
190,353,225593,6,0,P|173:295|208:255,1,97.4999955368044,6|0,3:0|0:0,0:0:0:0:
204,257,225752,2,0,P|223:213|204:170,1,97.4999955368044,6|0,3:0|0:0,0:0:0:0:
185,159,225912,2,0,P|137:164|113:189,1,64.9999970245363,6|0,3:0|0:0,0:0:0:0:
412,384,226071,5,10,0:0:0:0:
384,212,226231,1,4,3:0:0:0:
257,311,226390,1,4,3:0:0:0:
420,129,226550,5,10,0:0:0:0:
452,138,226656,1,0,0:0:0:0:
464,170,226763,1,0,0:0:0:0:
391,207,226869,1,10,0:0:0:0:
472,67,227028,1,0,0:0:0:0:
214,0,227188,6,0,B|153:32|153:32|190:189,1,194.999991073609,4|0,3:1|0:0,0:0:0:0:
210,227,227507,5,6,3:0:0:0:
253,228,227614,1,0,0:0:0:0:
284,203,227720,1,0,0:0:0:0:
323,118,227826,5,10,0:0:0:0:
374,126,227933,1,0,0:0:0:0:
390,175,228039,1,0,0:0:0:0:
357,225,228145,1,4,3:0:0:0:
364,294,228252,1,0,0:0:0:0:
436,321,228358,1,0,0:0:0:0:
507,253,228465,5,6,3:0:0:0:
431,230,228571,1,0,0:0:0:0:
370,273,228677,1,2,0:0:0:0:
346,347,228784,1,4,3:0:0:0:
354,358,228890,1,0,0:0:0:0:
361,368,228997,5,2,0:0:0:0:
275,356,229103,1,8,0:0:0:0:
224,286,229209,1,0,0:0:0:0:
235,200,229315,1,0,0:0:0:0:
343,134,229422,5,0,1:0:0:0:
327,129,229502,1,0,1:0:0:0:
313,124,229582,1,0,1:0:0:0:
299,117,229662,1,0,1:0:0:0:
280,111,229741,2,0,B|235:96|235:96|150:150|150:150|76:130,1,194.999991073609,4|0,3:1|0:0,0:0:0:0:
26,115,230061,6,0,P|1:79|0:37,2,86.6666626993817,6|0|0,3:0|0:0|0:0,0:0:0:0:
220,256,230380,2,0,P|247:211|242:164,2,86.6666626993817,10|0|0,0:0|0:0|0:0,0:0:0:0:
0,350,230699,1,6,3:0:0:0:
68,311,230805,2,0,P|110:312|151:365,1,86.6666626993817
240,384,231018,5,6,3:0:0:0:
303,340,231124,1,0,0:0:0:0:
294,261,231231,1,0,0:0:0:0:
210,248,231337,5,6,3:0:0:0:
221,242,231417,1,0,0:0:0:0:
232,236,231497,1,0,0:0:0:0:
243,230,231577,1,0,0:0:0:0:
254,224,231656,1,8,0:0:0:0:
267,210,231736,1,0,0:0:0:0:
276,185,231816,1,0,0:0:0:0:
269,153,231896,1,0,0:0:0:0:
288,119,231976,1,4,3:0:0:0:
326,95,232055,1,0,0:0:0:0:
377,103,232135,1,0,0:0:0:0:
415,147,232215,1,0,0:0:0:0:
361,210,232295,6,0,P|322:158|369:16,1,225.000008583069,6|0,3:1|0:0,0:0:0:0:
452,7,232614,1,4,3:0:0:0:
411,113,232773,1,6,3:0:0:0:
191,78,232933,5,10,0:0:0:0:
210,0,233039,1,0,0:0:0:0:
276,45,233146,1,2,0:0:0:0:
205,102,233252,5,6,3:0:0:0:
127,82,233359,1,0,0:0:0:0:
50,104,233465,1,2,0:0:0:0:
0,166,233571,1,6,3:0:0:0:
70,329,233731,5,0,0:0:0:0:
69,299,233811,1,2,0:0:0:0:
88,276,233890,2,0,P|124:260|182:285,1,75.0000028610231,4|0,3:0|0:0,0:0:0:0:
181,156,234050,2,0,P|212:179|220:241,1,75.0000028610231,6|0,3:0|0:0,0:0:0:0:
314,349,234210,5,14,0:0:0:0:
349,311,234289,1,0,0:0:0:0:
349,258,234369,1,0,0:0:0:0:
378,214,234449,1,0,0:0:0:0:
429,202,234529,1,0,0:0:0:0:
470,219,234609,1,0,0:0:0:0:
482,253,234688,1,4,3:0:0:0:
468,279,234768,1,0,0:0:0:0:
445,283,234848,6,0,B|415:298|405:320|405:320|379:224|436:159|514:248|538:78|487:34,1,375.000014305115,6|0,3:1|0:0,0:0:0:0:
437,0,235327,1,4,3:0:0:0:
270,114,235486,5,10,0:0:0:0:
260,117,235550,1,0,0:0:0:0:
250,119,235614,1,0,0:0:0:0:
240,121,235678,1,0,0:0:0:0:
312,0,235805,5,6,3:0:0:0:
350,22,235885,1,0,0:0:0:0:
377,58,235965,1,4,3:0:0:0:
387,101,236045,1,0,0:0:0:0:
383,145,236124,1,6,3:0:0:0:
34,36,236284,1,8,0:0:0:0:
89,156,236443,5,6,3:0:0:0:
127,134,236523,1,0,0:0:0:0:
154,98,236603,1,4,3:0:0:0:
164,55,236682,1,0,0:0:0:0:
160,11,236763,2,0,P|106:55|84:201,1,194.999991073609,10|0,0:0|0:0,0:0:0:0:
115,240,237082,1,4,3:0:0:0:
218,190,237241,1,4,3:0:0:0:
397,371,237401,6,0,B|376:352|376:352|285:369,1,104.999996795654,12|0,3:2|0:0,0:0:0:0:
218,384,237720,1,6,3:0:0:0:
162,309,237880,1,4,3:0:0:0:
393,274,238039,6,0,B|365:247|365:247|240:271,1,142.49999619484,14|0,0:0|0:0,0:0:0:0:
154,299,238359,1,6,3:0:0:0:
98,224,238519,1,4,3:0:0:0:
394,173,238678,6,0,B|361:142|361:142|215:169,1,179.999994506836,14|0,0:0|0:0,0:0:0:0:
92,207,238997,1,6,3:0:0:0:
36,132,239157,1,4,3:0:0:0:
388,61,239316,6,0,B|348:23|348:23|166:57,1,217.500006637573,14|0,0:0|0:0,0:0:0:0:
1,56,239635,2,0,P|21:3|41:-15,2,72.5000022125245,6|0|0,3:0|0:0|0:0,0:0:0:0:
92,207,239954,5,10,0:0:0:0:
137,185,240061,1,0,0:0:0:0:
153,137,240167,1,0,0:0:0:0:
239,114,240273,5,10,0:0:0:0:
288,148,240380,1,0,0:0:0:0:
290,207,240486,1,0,0:0:0:0:
352,280,240593,5,10,0:0:0:0:
391,222,240699,1,0,0:0:0:0:
460,216,240805,1,0,0:0:0:0:
331,298,240912,5,10,0:0:0:0:
250,293,241018,1,0,0:0:0:0:
202,229,241124,1,0,0:0:0:0:
239,114,241231,5,10,0:0:0:0:
111,341,241390,1,4,3:0:0:0:
43,98,241550,1,10,0:0:0:0:
250,293,241710,1,4,3:0:0:0:
239,114,241869,5,10,0:0:0:0:
269,140,241976,1,2,0:0:0:0:
267,179,242082,1,2,0:0:0:0:
153,172,242188,5,10,0:0:0:0:
77,200,242295,1,2,0:0:0:0:
66,277,242401,1,2,0:0:0:0:
100,353,242513,6,0,B|210:346|313:310|405:262|370:216|468:164|468:164|515:140|515:140|475:152|475:152|467:145|467:145|393:183|393:183|408:191|408:191|350:234|302:246|204:217|151:145|151:145|50:141|-24:174|-24:174|-3:166|-3:166|11:192|11:192|-5:202|-5:202|11:192|11:192|33:222|33:222|21:233|21:233|33:222|33:222|61:255|61:255|47:261|47:261|110:236|226:223|310:279,1,1583.99999516602,2|4,0:0|3:0,0:0:0:0:
336,371,245530,5,0,0:0:0:0:
439,384,246009,1,8,3:0:0:0:
498,325,246488,1,4,3:0:0:0:
489,292,246647,1,4,3:0:0:0:
481,260,246807,1,4,3:0:0:0:
317,221,246966,5,8,0:3:0:0:
322,203,247286,1,0,0:0:0:0:
314,171,247446,1,0,0:0:0:0:
487,76,247605,5,4,3:0:0:0:
487,58,248083,1,4,3:0:0:0:
413,18,248562,1,8,0:3:0:0:
224,182,249041,1,4,3:0:0:0:
232,150,249201,1,4,3:0:0:0:
241,118,249360,1,4,3:0:0:0:
5,39,249520,5,8,3:0:0:0:
9,55,249839,1,0,0:0:0:0:
89,73,249998,1,0,3:0:0:0:
151,236,250158,6,0,P|262:214|310:209,1,150.000005722046,4|0,3:0|0:0,0:0:0:0:
390,314,250637,1,4,3:0:0:0:
382,282,250797,1,4,3:0:0:0:
373,250,250956,1,4,3:0:0:0:
124,316,251115,6,0,P|58:303|72:237,1,150.000005722046,8|0,0:3|0:0,0:0:0:0:
255,361,251594,1,4,3:0:0:0:
203,299,251754,2,0,P|208:271|223:222,1,75.0000028610231
0,86,252073,2,0,P|11:121|18:158,1,75.0000028610231,8|0,3:0|0:0,0:0:0:0:
89,252,252392,1,0,3:0:0:0:
142,230,252552,1,0,3:0:0:0:
216,15,252711,6,0,P|191:98|176:169,1,150.000005722046,4|0,3:0|0:0,0:0:0:0:
0,2,253190,1,4,3:0:0:0:
70,49,253350,1,4,3:0:0:0:
139,8,253509,1,4,3:0:0:0:
247,211,253669,5,8,0:3:0:0:
249,195,254147,1,4,3:0:0:0:
317,153,254307,1,4,3:0:0:0:
388,189,254466,1,4,3:0:0:0:
174,384,254626,2,0,P|190:319|193:307,1,75.0000028610231,8|0,3:0|0:0,0:0:0:0:
165,235,254945,1,0,3:0:0:0:
173,203,255105,1,0,3:0:0:0:
0,342,255264,6,0,P|56:339|192:308,1,179.999994506836,4|0,3:0|0:0,0:0:0:0:
246,257,255743,1,0,3:0:0:0:
384,377,255903,2,0,P|402:329|409:286,1,89.9999972534181,2|0,0:0|3:0,0:0:0:0:
220,97,256222,6,0,P|257:218|273:282,1,179.999994506836,10|0,0:3|0:0,0:0:0:0:
177,313,256700,1,4,3:0:0:0:
99,294,256860,1,6,3:0:0:0:
84,209,257019,1,4,3:0:0:0:
211,111,257179,1,10,3:0:0:0:
221,99,257498,1,6,3:0:0:0:
262,175,257658,1,4,3:0:0:0:
461,52,257817,6,0,P|381:69|360:74,1,89.9999972534181,4|0,3:0|0:0,0:0:0:0:
384,249,258137,1,2,0:0:0:0:
462,223,258296,1,4,3:0:0:0:
434,147,258456,1,6,3:0:0:0:
421,156,258615,1,4,3:0:0:0:
309,365,258775,6,0,P|313:303|207:240,1,179.999994506836,10|0,0:3|0:0,0:0:0:0:
154,293,259254,1,6,3:0:0:0:
229,334,259414,1,4,3:0:0:0:
144,306,259573,1,4,3:0:0:0:
287,155,259732,2,0,P|177:169|87:176,1,179.999994506836,8|0,3:0|0:0,0:0:0:0:
188,115,260211,1,0,3:0:0:0:
334,283,260371,6,0,P|444:297|534:304,1,179.999994506836,4|2,3:0|0:0,0:0:0:0:
512,215,260849,1,4,3:0:0:0:
389,174,261009,2,0,P|397:218|413:260,1,89.9999972534181,6|4,3:0|3:0,0:0:0:0:
214,384,261328,6,0,P|251:263|267:199,1,179.999994506836,10|0,0:3|0:0,0:0:0:0:
120,130,261807,2,0,P|198:157|218:165,1,89.9999972534181,4|2,3:0|0:0,0:0:0:0:
258,219,262125,1,4,3:0:0:0:
428,54,262286,6,0,P|326:81|246:93,1,179.999994506836,6|6,3:0|3:0,0:0:0:0:
197,34,262764,1,4,3:0:0:0:
127,214,262923,6,0,P|47:197|26:192,1,89.9999972534181,4|0,3:0|0:0,0:0:0:0:
40,33,263243,1,2,0:0:0:0:
118,59,263402,1,8,3:0:0:0:
90,135,263562,1,2,0:0:0:0:
77,126,263721,1,0,0:0:0:0:
61,354,263881,6,0,P|123:358|186:252,1,179.999994506836,10|0,0:3|0:0,0:0:0:0:
269,368,264360,1,4,3:0:0:0:
324,309,264520,1,4,3:0:0:0:
269,233,264679,1,4,3:0:0:0:
381,91,264839,2,0,P|271:105|181:112,1,179.999994506836,8|0,3:0|0:0,0:0:0:0:
145,51,265317,1,0,3:0:0:0:
0,214,265477,6,0,P|110:200|195:191,1,179.999994506836,4|0,3:0|3:0,0:0:0:0:
169,206,265956,1,4,3:0:0:0:
269,368,266115,2,0,P|273:333|283:276,1,89.9999972534181,2|4,0:0|3:0,0:0:0:0:
457,155,266434,5,6,3:0:0:0:
458,245,266594,1,8,0:3:0:0:
372,272,266754,1,0,0:0:0:0:
319,200,266913,1,4,3:0:0:0:
372,127,267073,1,0,0:0:0:0:
201,125,267232,5,4,3:0:0:0:
281,95,267392,1,8,3:0:0:0:
320,14,267552,1,0,3:0:0:0:
37,50,267711,5,0,3:0:0:0:
59,54,267790,1,0,3:0:0:0:
81,58,267870,1,0,3:0:0:0:
103,63,267950,1,0,3:0:0:0:
124,68,268030,1,4,3:0:0:0:
19,370,268349,5,0,3:0:0:0:
85,324,268509,1,8,3:0:0:0:
216,384,268669,2,0,P|224:337|232:288,1,89.9999972534181,2|4,0:0|3:0,0:0:0:0:
66,141,268988,5,2,3:0:0:0:
65,231,269148,1,8,0:3:0:0:
151,258,269308,1,8,0:3:0:0:
204,186,269467,1,8,0:3:0:0:
151,113,269627,1,4,3:0:0:0:
205,46,269786,1,4,3:0:0:0:
335,127,269945,5,0,3:0:0:0:
398,59,270108,1,4,3:0:0:0:
479,104,270271,1,4,3:0:0:0:
264,254,270434,1,4,3:0:0:0:
334,306,270597,2,0,P|435:289|534:284,1,200,0|2,3:0|0:0,0:0:0:0:
498,267,271062,5,4,0:3:0:0:
458,368,271222,1,6,0:3:0:0:
419,380,271381,1,4,0:3:0:0:
255,250,271541,1,10,0:3:0:0:
174,288,271700,1,8,0:3:0:0:
94,108,271860,1,8,0:3:0:0:
13,70,272019,1,8,0:3:0:0:
252,273,272178,1,14,3:3:0:0:
281,16,272338,5,12,3:0:0:0:
192,204,272498,1,14,3:0:0:0:
443,114,272657,5,12,3:0:0:0:
310,149,272817,1,14,3:0:0:0:
415,258,272977,5,0,3:0:0:0:
415,258,273056,1,0,3:0:0:0:
415,258,273136,1,8,0:0:0:0:
18,372,273296,1,8,0:0:0:0:
434,379,273455,1,10,0:0:0:0:
68,268,273615,1,8,0:0:0:0:
257,345,273775,6,0,P|250:300|242:244,1,100,2|4,0:0|3:0,0:0:0:0:
427,77,274094,5,10,0:3:0:0:
184,131,274254,1,8,0:3:0:0:
349,148,274413,1,8,0:3:0:0:
112,36,274573,2,0,P|199:51|230:56,1,100,8|0,0:3|0:0,0:0:0:0:
445,229,274892,5,0,3:0:0:0:
445,229,274945,1,0,3:0:0:0:
445,229,274998,1,0,3:0:0:0:
445,229,275051,2,0,L|428:152,1,69.9999978637696,8|0,0:0|0:0,0:0:0:0:
354,261,275211,2,0,L|343:338,1,69.9999978637696,8|0,0:0|0:0,0:0:0:0:
199,141,275370,2,0,B|206:147|206:147|224:258,1,80,8|0,0:0|0:0,0:0:0:0:
105,363,275530,2,0,B|112:356|112:356|130:245,1,80
47,59,275690,6,0,P|71:87|135:85,1,75.0000028610231,4|0,3:1|0:0,0:0:0:0:
256,0,275849,2,0,P|226:22|225:86,1,75.0000028610231
436,15,276009,2,0,B|362:-20|319:44|319:44|316:89|270:103,1,194.999991073609,2|0,0:0|0:0,0:0:0:0:
199,141,276328,6,0,B|143:165|143:165|359:187,1,225.000008583069,10|0,0:0|0:0,0:0:0:0:
381,118,276647,2,0,P|405:146|410:183,1,75.0000028610231,2|0,0:0|0:0,0:0:0:0:
302,275,276807,2,0,P|354:272|379:247,1,75.0000028610231,6|0,3:0|0:0,0:0:0:0:
512,196,276966,2,0,P|453:272|442:394,1,194.999991073609,4|0,3:0|0:0,0:0:0:0:
448,378,277286,1,2,0:0:0:0:
53,127,277605,6,0,B|-27:91|46:-85|245:4|204:235|27:114|132:332,1,425.000008106232,14|0,0:0|0:0,0:0:0:0:
156,334,278083,1,4,3:0:0:0:
229,139,278243,2,0,P|341:163|448:272,1,225.000008583069,4|0,3:1|0:0,0:0:0:0:
386,314,278562,2,0,P|346:267|347:194,1,129.999994049073,2|0,0:0|0:0,0:0:0:0:
439,46,278881,1,10,0:0:0:0:
445,65,279200,6,0,P|421:93|357:91,1,64.9999970245363,2|0,0:0|0:0,0:0:0:0:
169,8,279360,2,0,P|205:16|229:44,1,64.9999970245363,4|0,3:0|0:0,0:0:0:0:
307,8,279520,2,0,P|286:97|190:114,1,200,4|0,3:0|0:0,0:0:0:0:
8,384,280158,6,0,B|62:376|78:315|78:315|60:224|60:224|29:207|29:207|11:113|11:113|32:46|104:50,1,425.000008106232,12|0,0:0|0:0,0:0:0:0:
159,80,280637,1,4,3:0:0:0:
192,270,280796,2,0,B|243:287|297:237|250:216|302:134|393:164,1,225.000008583069,4|0,3:1|0:0,0:0:0:0:
438,182,281115,2,0,P|396:252|347:229,1,129.999994049073,2|0,0:0|0:0,0:0:0:0:
319,71,281434,1,10,0:0:0:0:
264,333,281754,6,0,P|267:299|297:272,1,64.9999970245363,2|0,0:0|0:0,0:0:0:0:
408,329,281913,2,0,P|404:362|374:389,1,64.9999970245363,4|0,3:0|0:0,0:0:0:0:
192,270,282073,2,0,B|131:251|78:296|131:331|64:368|25:352,1,200,4|2,3:0|0:0,0:0:0:0:
400,119,282711,6,0,B|463:108|497:59|497:59|375:55|336:-20|336:-20|243:40|268:178|343:138|338:247,1,595.000011348725,14|0,0:0|0:0,0:0:0:0:
367,320,283349,2,0,B|287:306|287:306|253:251|253:251|138:233,1,225.000008583069,4|0,3:1|0:0,0:0:0:0:
87,230,283669,2,0,P|163:192|189:114,1,129.999994049073,2|0,0:0|0:0,0:0:0:0:
6,0,283988,1,10,0:0:0:0:
0,12,284307,6,0,P|67:60|202:56,1,194.999991073609,2|0,0:0|0:0,0:0:0:0:
299,0,284626,2,0,B|260:31|260:31|247:120,1,100,4|0,3:0|0:0,0:0:0:0:
273,319,284945,1,10,0:0:0:0:
286,339,285264,5,8,0:0:0:0:
207,285,285424,1,4,3:0:0:0:
65,353,285583,1,0,0:0:0:0:
111,261,285743,1,4,3:0:0:0:
421,133,285903,6,0,B|480:160|494:229|465:280|409:277|432:368|432:368|376:330|341:235|408:254|425:167|362:113,1,525.000020027161,6|0,3:1|0:0,0:0:0:0:
357,117,286541,1,8,0:0:0:0:
171,351,286860,2,0,P|133:249|20:51,2,300.000011444092,2|4|2,0:0|3:0|0:0,0:0:0:0:
453,57,287817,6,0,B|467:19|515:7|515:7|391:-15|248:58|231:171|231:171|265:144|321:152,1,525.000020027161,14|0,0:0|0:0,0:0:0:0:
406,225,288456,2,0,B|456:257|518:199|519:119|403:60|292:115|276:225|326:294,1,419.999987182618,4|0,3:1|0:0,0:0:0:0:
332,307,289094,1,8,0:0:0:0:
165,384,289413,2,0,P|132:268|70:166,2,239.999992675781,0|4|2,0:0|3:0|0:0,0:0:0:0:
91,39,290371,6,0,B|14:83|14:83|291:19|291:19|356:34|363:125|292:165,1,525.000020027161,14|0,0:0|0:0,0:0:0:0:
287,248,291009,2,0,B|299:154|414:93|531:127|531:127|447:145|453:242,1,419.999987182618,6|0,3:1|0:0,0:0:0:0:
458,224,291647,1,8,0:0:0:0:
292,384,291966,2,0,P|258:263|164:160,2,239.999992675781,2|4|2,0:0|3:0|0:0,0:0:0:0:
47,5,292924,6,0,B|147:-47|255:63|141:311|40:21|-9:144|27:345|69:268|145:255|131:364|91:385,1,525.000020027161,14|0,0:0|0:0,0:0:0:0:
73,384,293562,2,0,B|85:278|199:231|340:263|264:426|426:364,1,419.999987182618,4|0,3:1|0:0,0:0:0:0:
427,357,294200,1,8,0:0:0:0:
492,239,294520,1,0,0:0:0:0:
66,185,294839,5,8,0:0:0:0:
299,163,295058,1,4,3:0:0:0:
467,0,295278,1,4,3:0:0:0:
201,337,295498,5,10,0:0:0:0:
205,209,295718,1,4,3:0:0:0:
315,274,295937,1,4,3:0:0:0:
0,72,296157,6,0,P|281:142|445:172,1,454.999979171754,6|0,3:1|0:0,0:0:0:0:
512,271,296795,2,0,B|502:287|502:287|451:305|408:299,1,100,8|0,0:0|0:0,0:0:0:0:
382,227,297114,1,2,0:0:0:0:
393,232,297274,1,4,3:0:0:0:
199,373,297433,2,0,P|207:281|216:198,1,150,4|0,3:0|0:0,0:0:0:0:
196,206,297752,2,0,P|225:288|231:314,1,100,2|0,0:0|0:0,0:0:0:0:
65,24,298071,6,0,B|42:26|26:69|43:125|129:167|174:76|190:17|271:-5|363:-12|379:139|345:173|239:194|227:105,1,480,14|0,0:0|0:0,0:0:0:0:
479,6,298710,2,0,P|423:82|379:273,2,259.999988098145,4|0|8,3:1|0:0|0:0,0:0:0:0:
303,325,299667,1,0,0:0:0:0:
383,337,299827,1,4,3:0:0:0:
27,340,299986,2,0,P|130:283|153:289,1,150,4|0,3:0|0:0,0:0:0:0:
139,300,300305,2,0,P|182:325|226:347,1,100,2|0,0:0|0:0,0:0:0:0:
451,384,300625,6,0,P|417:325|322:5,1,400,14|0,0:0|0:0,0:0:0:0:
336,22,301103,1,4,3:0:0:0:
300,250,301263,5,12,0:0:0:0:
221,248,301422,1,6,3:0:0:0:
185,175,301582,1,6,3:0:0:0:
301,267,301742,5,8,0:0:0:0:
170,309,301901,1,4,3:0:0:0:
80,203,302061,1,4,3:0:0:0:
476,109,302220,5,8,0:0:0:0:
376,134,302380,1,4,3:0:0:0:
279,159,302539,1,4,3:0:0:0:
512,384,302699,5,8,0:0:0:0:
376,223,302859,1,4,3:0:0:0:
471,24,303018,1,4,3:0:0:0:
495,305,303178,5,8,3:2:0:0:
507,293,303258,1,4,3:0:0:0:
498,274,303337,1,4,3:0:0:0:
468,266,303417,1,4,3:0:0:0:
437,286,303497,1,0,1:0:0:0:
416,332,303577,1,0,1:0:0:0:
360,349,303657,1,0,1:0:0:0:
309,322,303736,1,0,1:0:0:0:
298,267,303816,5,8,0:0:0:0:
477,102,303976,1,8,0:0:0:0:
258,180,304135,1,8,0:0:0:0:
512,190,304295,1,8,0:0:0:0:
29,90,304774,5,8,3:0:0:0:
386,106,304934,1,8,3:0:0:0:
69,3,305093,1,12,3:0:0:0:
351,194,305253,1,12,3:0:0:0:
93,370,305571,5,0,3:0:0:0:
97,357,305625,1,0,3:0:0:0:
102,344,305678,1,0,3:0:0:0:
105,332,305731,1,0,1:1:0:0:
76,257,305944,1,4,3:0:0:0:
0,282,306157,1,4,3:0:0:0:
30,353,306369,6,0,P|45:300|80:137,1,200,6|0,3:1|0:0,0:0:0:0:
161,178,306848,2,0,P|158:153|154:99,1,50,2|0,0:0|0:0,0:0:0:0:
1,87,307007,2,0,P|131:51|152:79,1,150
164,117,307327,2,0,P|196:158|262:158,1,100,6|0,3:0|0:0,0:0:0:0:
491,0,307646,6,0,P|389:41|361:303,1,389.999982147218,10|2,0:0|0:0,0:0:0:0:
125,373,308284,2,0,P|224:365|256:275,1,200,0|2,0:0|0:0,0:0:0:0:
36,232,308763,5,0,0:0:0:0:
36,232,308843,1,0,0:0:0:0:
36,232,308922,2,0,B|83:251|83:251|363:181|363:181|415:201,2,389.999982147218,6|6|6,3:0|3:0|3:0,0:0:0:0:
199,7,310199,2,0,P|190:58|175:128,1,119.999996337891,8|0,0:0|0:0,0:0:0:0:
97,164,311157,1,2,0:0:0:0:
246,384,311476,6,0,P|261:331|296:168,1,200,4|0,3:1|0:0,0:0:0:0:
373,124,311954,2,0,P|370:149|366:203,1,50,6|0,3:0|0:0,0:0:0:0:
342,249,312114,2,0,P|472:285|493:257,1,150
512,224,312434,2,0,P|463:233|455:280,1,100,6|0,3:0|0:0,0:0:0:0:
260,381,312753,6,0,P|132:347|104:109,1,389.999982147218,8|0,0:0|0:0,0:0:0:0:
67,6,313391,2,0,P|161:39|158:90,1,150.000005722046
91,108,313869,1,0,0:0:0:0:
179,275,314028,5,14,0:0:0:0:
167,197,314188,1,6,3:0:0:0:
224,141,314347,1,4,3:0:0:0:
242,384,314507,5,14,0:0:0:0:
301,251,314667,1,4,3:0:0:0:
451,270,314826,1,4,3:0:0:0:
486,102,314986,5,14,0:0:0:0:
313,269,315146,1,10,0:0:0:0:
191,43,315305,1,4,3:0:0:0:
1,267,315465,5,14,0:0:0:0:
304,174,315625,1,4,3:0:0:0:
52,356,315784,1,4,3:0:0:0:
424,384,315943,5,8,0:0:0:0:
382,312,316103,1,4,3:0:0:0:
451,270,316262,5,8,0:0:0:0:
73,184,316422,1,4,3:0:0:0:
512,28,316582,6,0,B|362:-19|362:-19|297:0|277:83|329:148,1,324.999985122681,6|0,3:1|0:0,0:0:0:0:
325,138,317061,2,0,B|343:173|335:231|287:245|287:245|169:208,1,250,6|0,3:0|0:0,0:0:0:0:
146,199,317539,2,0,P|161:168|223:144,1,100,6|0,3:0|0:0,0:0:0:0:
478,341,317859,5,8,0:0:0:0:
208,293,318098,1,4,3:0:0:0:
367,263,318337,1,4,3:0:0:0:
22,356,318497,5,8,0:3:0:0:
74,327,318603,1,8,0:3:0:0:
133,332,318710,1,8,0:3:0:0:
197,383,318816,5,6,0:3:0:0:
230,384,318922,1,4,0:3:0:0:
257,364,319029,1,4,0:3:0:0:
208,293,319135,6,0,B|159:236|196:170|196:170|260:141|257:60,1,250,6|0,3:1|0:0,0:0:0:0:
256,52,319614,2,0,B|211:102|157:76|109:26|195:14|111:-75|-16:-52|0:66|53:86,1,350,6|0,3:0|0:0,0:0:0:0:
61,105,320252,5,2,3:0:0:0:
59,114,320305,1,0,3:0:0:0:
57,124,320359,1,0,3:0:0:0:
55,133,320412,1,8,0:0:0:0:
410,94,320571,1,8,0:0:0:0:
427,113,320891,5,4,3:0:0:0:
332,20,321050,2,0,P|259:44|225:116,1,150
227,132,321369,1,8,0:3:0:0:
325,115,321529,1,4,0:3:0:0:
512,352,321688,6,0,B|379:331|379:331|321:369|321:369|154:343,1,324.999985122681,6|0,3:1|0:0,0:0:0:0:
134,297,322167,2,0,P|220:234|189:344,1,275.000008392334,6|0,3:0|0:0,0:0:0:0:
189,352,322646,1,6,3:0:0:0:
86,382,322805,1,4,3:0:0:0:
175,107,322965,6,0,B|212:93|274:114|238:163|267:181|354:190|410:122|358:36|282:39|282:39|233:40|168:65|134:128,1,500,8|0,0:0|0:0,0:0:0:0:
0,303,324242,6,0,B|15:283|15:283|91:288,1,75.0000028610231,14|0,0:0|0:0,0:0:0:0:
306,339,324401,2,0,B|291:359|291:359|215:354,1,75.0000028610231,6|0,3:0|0:0,0:0:0:0:
150,331,324561,1,4,3:0:0:0:
211,130,324721,6,0,L|189:201,1,75.0000028610231,14|0,0:0|0:0,0:0:0:0:
154,317,324880,1,4,3:0:0:0:
82,207,325040,1,4,3:0:0:0:
387,35,325199,6,0,B|414:47|414:47|419:91,1,75.0000028610231,14|0,0:0|0:0,0:0:0:0:
373,299,325359,2,0,B|390:242|390:242|369:214|369:214|363:154,1,150.000005722046,10|4,0:0|3:0,0:0:0:0:
309,40,325678,6,0,B|284:57|284:57|289:102,1,75.0000028610231,14|0,0:0|0:0,0:0:0:0:
300,258,325837,1,4,3:0:0:0:
444,185,325997,1,4,3:0:0:0:
162,51,326157,5,0,3:0:0:0:
106,41,326236,1,0,3:0:0:0:
62,77,326316,1,4,3:0:0:0:
61,133,326396,1,4,3:0:0:0:
96,177,326476,1,0,3:0:0:0:
150,190,326555,1,0,3:0:0:0:
177,238,326635,1,4,3:0:0:0:
161,290,326715,1,4,3:0:0:0:
105,299,326795,6,0,B|69:280|69:280|58:209,1,75.0000028610231,14|0,0:0|0:0,0:0:0:0:
251,84,326954,2,0,B|215:103|215:103|204:174,1,75.0000028610231,6|0,3:0|0:0,0:0:0:0:
250,264,327114,1,4,3:0:0:0:
512,62,327274,6,0,L|438:47,1,75.0000028610231,14|0,0:0|0:0,0:0:0:0:
326,41,327433,1,4,3:0:0:0:
385,141,327593,1,4,3:0:0:0:
381,382,327752,6,0,B|409:371|409:371|423:327,1,75.0000028610231,14|0,0:0|0:0,0:0:0:0:
456,184,327912,2,0,B|418:227|418:227|306:206,1,150.000005722046,6|4,3:0|3:0,0:0:0:0:
110,170,328231,1,8,0:0:0:0:
203,117,328391,1,4,3:0:0:0:
121,51,328551,1,4,3:0:0:0:
276,2,328710,5,8,0:0:0:0:
341,336,328869,1,8,0:0:0:0:
0,301,329029,1,8,0:0:0:0:
512,113,329348,5,6,3:1:0:0:
428,161,329508,1,0,0:0:0:0:
470,325,329668,1,2,0:0:0:0:
94,280,329987,5,10,0:0:0:0:
200,266,330146,1,0,0:0:0:0:
305,254,330306,1,4,3:0:0:0:
61,368,330466,1,6,3:0:0:0:
43,356,330785,5,2,0:0:0:0:
78,264,330944,1,0,0:0:0:0:
191,184,331104,1,0,0:0:0:0:
387,384,331263,1,10,0:0:0:0:
242,380,331422,2,0,P|229:319|240:254,1,100
277,213,331742,1,6,3:0:0:0:
441,321,331902,5,6,3:0:0:0:
512,272,332061,1,0,0:0:0:0:
421,103,332221,1,2,0:0:0:0:
31,109,332540,5,10,0:0:0:0:
137,123,332699,1,0,0:0:0:0:
242,133,332859,1,4,3:0:0:0:
15,24,333019,1,6,3:0:0:0:
0,36,333338,5,2,0:0:0:0:
95,0,333497,1,0,0:0:0:0:
229,38,333657,1,0,0:0:0:0:
99,266,333817,1,10,0:0:0:0:
236,225,333976,2,0,P|207:169|158:126,1,100
101,121,334295,1,6,3:0:0:0:
78,354,334454,5,6,3:0:0:0:
0,307,334614,1,0,0:0:0:0:
28,139,334774,1,2,0:0:0:0:
474,384,335093,5,10,0:0:0:0:
368,375,335252,1,0,0:0:0:0:
261,362,335412,1,4,3:0:0:0:
499,284,335572,1,6,3:0:0:0:
512,295,335891,5,2,0:0:0:0:
422,322,336050,1,0,0:0:0:0:
312,256,336210,1,0,0:0:0:0:
448,78,336368,1,10,0:0:0:0:
316,110,336529,2,0,P|346:170|380:197,1,100
434,227,336848,1,6,3:0:0:0:
432,0,337008,5,4,3:0:0:0:
512,32,337167,1,0,0:0:0:0:
507,224,337327,1,2,0:0:0:0:
2,203,337646,5,10,0:0:0:0:
108,217,337805,1,0,0:0:0:0:
213,230,337965,1,4,3:0:0:0:
15,309,338125,1,6,3:0:0:0:
0,300,338444,5,10,0:0:0:0:
96,294,338603,1,0,0:0:0:0:
144,154,338731,2,0,L|132:113,2,40,0|0|0,3:0|3:0|3:0,0:0:0:0:
138,177,338923,5,10,0:0:0:0:
337,384,339082,1,4,3:0:0:0:
404,99,339242,1,4,3:0:0:0:
177,299,339401,5,10,0:0:0:0:
483,307,339561,1,4,3:0:0:0:
283,75,339720,1,4,3:0:0:0:
227,384,339880,2,0,P|258:326|397:183,1,209.999993591309,10|0,0:0|0:0,0:0:0:0:
431,149,340198,6,0,B|400:126|400:126|121:149,1,299.999990844727,6|0,3:1|0:0,0:0:0:0:
117,163,340677,1,4,3:0:0:0:
13,345,340836,2,0,B|37:315|37:315|260:258,1,239.999992675781,8|0,0:0|0:0,0:0:0:0:
133,260,341315,1,4,3:0:0:0:
259,286,341475,1,4,3:0:0:0:
184,323,341634,1,0,0:0:0:0:
145,252,341794,1,6,3:0:0:0:
218,218,341953,1,6,3:0:0:0:
409,384,342113,6,0,P|392:294|375:222,1,119.999996337891,8|0,0:0|0:0,0:0:0:0:
448,210,342432,1,6,3:0:0:0:
480,82,342592,1,6,3:0:0:0:
177,337,342751,5,8,0:0:0:0:
199,2,343070,5,8,0:0:0:0:
251,75,343230,1,8,0:0:0:0:
0,338,343549,5,8,0:0:0:0:
512,314,343868,5,8,0:0:0:0:
332,54,344187,5,8,0:0:0:0:
275,384,344347,2,0,B|281:358|281:358|241:193,1,179.999994506836,10|0,0:0|0:0,0:0:0:0:
297,137,344666,6,0,P|273:200|268:217,1,59.9999981689454,10|0,0:0|0:0,0:0:0:0:
193,330,344826,2,0,P|169:267|164:250,1,59.9999981689454,8|0,0:0|0:0,0:0:0:0:
121,47,344985,2,0,P|97:110|92:127,1,59.9999981689454,10|0,0:0|0:0,0:0:0:0:
0,377,345304,5,6,3:1:0:0:
74,361,345411,1,0,0:0:0:0:
70,287,345517,1,0,0:0:0:0:
141,268,345624,2,0,P|114:212|103:195,1,59.9999981689454,8|0,0:0|0:0,0:0:0:0:
221,95,345783,2,0,P|236:63|268:2,2,93.3333304850261,6|0|0,3:0|0:0|0:0,0:0:0:0:
169,157,346062,5,0,0:0:0:0:
431,382,346262,5,10,0:0:0:0:
480,368,346342,1,0,0:0:0:0:
508,326,346422,1,0,0:0:0:0:
500,276,346501,1,0,0:0:0:0:
456,246,346581,2,0,P|367:269|306:289,1,139.999995727539,6|0,3:0|0:0,0:0:0:0:
199,335,346820,5,4,3:0:0:0:
205,348,346900,1,10,0:0:0:0:
236,315,346980,1,0,0:0:0:0:
238,269,347060,1,6,3:0:0:0:
210,233,347140,1,0,0:0:0:0:
167,222,347219,1,0,0:0:0:0:
116,237,347299,1,0,0:0:0:0:
57,221,347379,1,8,0:0:0:0:
21,168,347459,1,0,0:0:0:0:
32,100,347539,1,2,0:0:0:0:
91,59,347618,1,2,0:0:0:0:
162,74,347698,1,10,0:0:0:0:
203,138,347778,1,2,0:0:0:0:
272,169,347858,2,0,B|283:171|283:171|340:147,2,66.6666666666667,6|0|0,3:0|0:0|0:0,0:0:0:0:
406,205,348177,5,8,0:0:0:0:
414,172,348257,1,0,0:0:0:0:
429,141,348336,1,6,3:0:0:0:
343,298,348496,1,0,0:0:0:0:
329,263,348576,1,0,0:0:0:0:
311,235,348656,1,2,0:0:0:0:
271,61,348815,5,10,0:0:0:0:
263,45,348895,1,0,0:0:0:0:
255,29,348975,1,0,0:0:0:0:
246,14,349054,1,0,0:0:0:0:
276,3,349134,5,2,1:0:0:0:
267,39,349214,1,0,1:0:0:0:
260,76,349294,1,0,1:0:0:0:
253,113,349374,1,0,1:0:0:0:
246,150,349453,1,0,1:0:0:0:
213,159,349533,5,6,1:3:0:0:
222,195,349613,1,0,1:0:0:0:
229,232,349693,1,0,1:0:0:0:
236,269,349773,1,0,1:0:0:0:
0,368,349932,5,6,1:3:0:0:
14,325,350012,1,0,1:0:0:0:
47,293,350092,1,0,1:0:0:0:
90,278,350172,1,0,1:0:0:0:
135,284,350251,1,0,1:0:0:0:
171,308,350331,1,0,1:0:0:0:
171,323,350411,5,6,3:1:0:0:
242,348,350517,1,0,0:0:0:0:
312,317,350624,1,0,0:0:0:0:
390,327,350730,2,0,P|404:354|416:382,1,59.9999981689454,10|0,0:0|0:0,0:0:0:0:
304,213,350890,2,0,P|318:181|329:147,2,69.9999978637696,6|0|0,3:0|0:0|0:0,0:0:0:0:
371,255,351129,5,2,0:0:0:0:
393,250,351209,1,0,0:0:0:0:
416,246,351289,1,0,0:0:0:0:
438,239,351368,2,0,P|451:210|465:166,1,69.9999978637696,8|0,0:0|0:0,0:0:0:0:
292,73,351528,5,0,0:0:0:0:
292,73,351608,1,0,0:0:0:0:
292,73,351687,2,0,B|278:59|278:59|261:-9,2,79.9999975585938,6|0|0,3:0|0:0|0:0,0:0:0:0:
202,94,352006,5,10,0:0:0:0:
233,127,352086,1,0,0:0:0:0:
235,173,352166,1,6,3:0:0:0:
207,209,352246,1,0,0:0:0:0:
164,220,352326,1,0,0:0:0:0:
113,205,352406,1,0,0:0:0:0:
54,221,352485,1,8,0:0:0:0:
18,274,352565,1,0,0:0:0:0:
29,342,352645,1,2,0:0:0:0:
88,383,352725,1,2,0:0:0:0:
162,381,352804,1,10,0:0:0:0:
204,321,352884,1,2,0:0:0:0:
186,307,352964,2,0,B|175:302|175:302|101:322,2,66.6666666666667,6|0|0,3:1|0:0|0:0,0:0:0:0:
257,243,353283,5,10,0:0:0:0:
267,281,353363,1,0,0:0:0:0:
288,315,353443,1,6,3:0:0:0:
317,342,353523,1,0,0:0:0:0:
353,361,353602,1,0,0:0:0:0:
392,369,353682,1,0,0:0:0:0:
492,130,353922,6,0,L|467:64,3,50,10|0|0|0,0:0|0:0|0:0|0:0,0:0:0:0:
512,138,354240,5,6,1:3:0:0:
503,174,354320,1,0,1:0:0:0:
496,211,354400,1,0,1:0:0:0:
489,248,354480,1,0,1:0:0:0:
482,285,354560,1,0,1:0:0:0:
441,306,354640,5,6,1:3:0:0:
436,288,354719,1,0,1:0:0:0:
433,270,354799,1,0,1:0:0:0:
429,251,354879,1,0,1:0:0:0:
425,233,354959,1,0,1:0:0:0:
381,230,355039,5,6,1:3:0:0:
390,194,355118,1,0,1:0:0:0:
397,157,355198,1,0,1:0:0:0:
404,120,355278,1,0,1:0:0:0:
411,83,355358,1,0,1:0:0:0:
267,0,355517,5,6,1:3:0:0:
283,46,355597,1,0,1:0:0:0:
266,91,355677,1,0,1:0:0:0:
223,115,355757,1,0,1:0:0:0:
175,105,355836,1,0,1:0:0:0:
174,91,355916,5,6,1:3:0:0:
126,81,355996,1,0,1:0:0:0:
83,104,356076,1,0,1:0:0:0:
66,150,356156,1,0,1:0:0:0:
82,196,356235,1,0,1:0:0:0:
96,203,356315,5,6,1:3:0:0:
112,249,356395,1,0,1:0:0:0:
95,295,356475,1,0,1:0:0:0:
52,318,356554,1,0,1:0:0:0:
4,308,356634,1,0,1:0:0:0:
261,188,356794,5,6,3:0:0:0:
252,211,356874,1,0,3:0:0:0:
246,235,356953,1,0,3:0:0:0:
240,260,357033,1,0,3:0:0:0:
237,284,357113,1,0,3:0:0:0:
257,305,357193,5,6,3:0:0:0:
240,260,357273,1,0,3:0:0:0:
229,216,357352,1,0,3:0:0:0:
218,170,357432,1,0,3:0:0:0:
212,126,357512,1,0,3:0:0:0:
223,115,357592,5,6,3:0:0:0:
175,125,357672,1,0,3:0:0:0:
132,101,357751,1,0,3:0:0:0:
115,56,357831,1,0,3:0:0:0:
131,10,357911,1,0,3:0:0:0:
340,300,358070,6,0,L|330:349,13,50,10|0|0|0|0|0|0|0|0|0|0|0|0|0,0:0|0:0|0:0|0:0|0:0|0:0|0:0|0:0|0:0|0:0|0:0|0:0|0:0|0:0,0:0:0:0:
428,382,359187,5,0,3:0:0:0:
421,371,359241,1,0,3:0:0:0:
416,359,359294,1,0,3:0:0:0:
412,348,359347,1,14,3:0:0:0:
