osu file format v14

[General]
AudioFilename: audio.mp3
AudioLeadIn: 0
PreviewTime: 201717
Countdown: 0
SampleSet: Soft
StackLeniency: 0.5
Mode: 0
LetterboxInBreaks: 0
EpilepsyWarning: 1
WidescreenStoryboard: 1

[Editor]
Bookmarks: 156727,157093,157337,157459,157581,157825,166117,184410,189776,292660
DistanceSpacing: 1
BeatDivisor: 6
GridSize: 4
TimelineZoom: 1.2

[Metadata]
Title:Mr. Invisible
TitleUnicode:Mr. Invisible
Artist:Thank You Scientist
ArtistUnicode:Thank You Scientist
Creator:DTM9 Nowa
Version:Insane
Source:
Tags:alternative alt progressive prog rock Stranger Heads Prevail English fa featured artist mappers' guild
BeatmapID:2387334
BeatmapSetID:1130581

[Difficulty]
HPDrainRate:6
CircleSize:4.3
OverallDifficulty:8
ApproachRate:9
SliderMultiplier:1.8
SliderTickRate:1

[Events]
//Background and Video events
0,0,"stranger_heads_prevail.jpg",0,0
//Break Periods
2,143172,150489
2,323146,329536
2,429982,432525
//Storyboard Layer 0 (Background)
//Storyboard Layer 1 (Fail)
//Storyboard Layer 2 (Pass)
//Storyboard Layer 3 (Foreground)
Sprite,Foreground,Centre,"sb\ring.png",285,259 F,6,141231,141581,0.75,0 S,13,141231,141581,0.25,1
Sprite,Foreground,Centre,"sb\ring.png",298,257 F,6,141352,141702,0.75,0 S,13,141352,141702,0.25,1
Sprite,Foreground,Centre,"sb\ring.png",311,252 F,6,141474,141824,0.75,0 S,13,141474,141824,0.25,1
Sprite,Foreground,Centre,"sb\ring.png",322,243 F,6,141596,141946,0.75,0 S,13,141596,141946,0.25,1
Sprite,Foreground,Centre,"sb\ring.png",329,231 F,6,141718,142068,0.75,0 S,13,141718,142068,0.25,1
Sprite,Foreground,Centre,"sb\ring.png",383,218 F,6,141839,142189,0.75,0 S,13,141839,142189,0.25,1
Sprite,Foreground,Centre,"sb\ring.png",436,235 F,6,141961,142311,0.75,0 S,13,141961,142311,0.25,1
Sprite,Foreground,Centre,"sb\ring.png",474,276 F,6,142083,142433,0.75,0 S,13,142083,142433,0.25,1
Sprite,Foreground,Centre,"sb\ring.png",478,333 F,6,142207,142557,0.75,0 S,13,142207,142557,0.25,1
Sprite,Foreground,Centre,"sb\ring.png",363,174 F,6,114890,115240,0.75,0 S,13,114890,115240,0.25,1
Sprite,Foreground,Centre,"sb\ring.png",252,87 F,6,115866,116216,0.75,0 S,13,115866,116216,0.25,1
Sprite,Foreground,Centre,"sb\ring.png",179,93 F,6,116110,116460,0.75,0 S,13,116110,116460,0.25,1
Sprite,Foreground,Centre,"sb\ring.png",105,136 F,6,116354,116704,0.75,0 S,13,116354,116704,0.25,1
Sprite,Foreground,Centre,"sb\ring.png",83,230 F,6,116598,116948,0.75,0 S,13,116598,116948,0.25,1
Sprite,Foreground,Centre,"sb\ring.png",151,314 F,6,116842,117192,0.75,0 S,13,116842,117192,0.25,1
Sprite,Foreground,Centre,"sb\ring.png",219,161 F,6,117086,117436,0.75,0 S,13,117086,117436,0.25,1
Sprite,Foreground,Centre,"sb\ring.png",260,383 F,6,117329,117679,0.75,0 S,13,117329,117679,0.25,1
Sprite,Foreground,Centre,"sb\ring.png",311,118 F,6,117573,117923,0.75,0 S,13,117573,117923,0.25,1
Sprite,Foreground,Centre,"sb\ring.png",378,424 F,6,117817,118167,0.75,0 S,13,117817,118167,0.25,1
Sprite,Foreground,Centre,"sb\ring.png",301,405 F,6,198556,198906,0.75,0 S,13,198556,198906,0.25,1
Sprite,Foreground,Centre,"sb\ring.png",138,382 F,6,199044,199394,0.75,0 S,13,199044,199394,0.25,1
Sprite,Foreground,Centre,"sb\ring.png",143,195 F,6,199532,199882,0.75,0 S,13,199532,199882,0.25,1
Sprite,Foreground,Centre,"sb\ring.png",237,300 F,6,199776,200126,0.75,0 S,13,199776,200126,0.25,1
Sprite,Foreground,Centre,"sb\ring.png",237,300 F,6,199898,200248,0.75,0 S,13,199898,200248,0.25,1
Sprite,Foreground,Centre,"sb\ring.png",237,300 F,6,200020,200370,0.75,0 S,13,200020,200370,0.25,1
Sprite,Foreground,Centre,"sb\ring.png",94,342 F,6,200264,200614,0.75,0 S,13,200264,200614,0.25,1
Sprite,Foreground,Centre,"sb\ring.png",126,183 F,6,200508,200858,0.75,0 S,13,200508,200858,0.25,1
Sprite,Foreground,Centre,"sb\ring.png",242,97 F,6,200752,201102,0.75,0 S,13,200752,201102,0.25,1
Sprite,Foreground,Centre,"sb\ring.png",230,311 F,6,200995,201345,0.75,0 S,13,200995,201345,0.25,1
Sprite,Foreground,Centre,"sb\ring.png",365,85 F,6,201239,201589,0.75,0 S,13,201239,201589,0.25,1
Sprite,Foreground,Centre,"sb\ring.png",556,435 F,6,201483,201833,0.75,0 S,13,201483,201833,0.25,1
Sprite,Foreground,Centre,"sb\ring.png",173,368 F,6,368353,368703,0.75,0 S,13,368353,368703,0.25,1
Sprite,Foreground,Centre,"sb\ring.png",306,238 F,6,369329,369679,0.75,0 S,13,369329,369679,0.25,1
Sprite,Foreground,Centre,"sb\ring.png",339,316 F,6,369817,370167,0.75,0 S,13,369817,370167,0.25,1
Sprite,Foreground,Centre,"sb\ring.png",236,179 F,6,370060,370410,0.75,0 S,13,370060,370410,0.25,1
Sprite,Foreground,Centre,"sb\ring.png",341,327 F,6,370305,370655,0.75,0 S,13,370305,370655,0.25,1
Sprite,Foreground,Centre,"sb\ring.png",170,155 F,6,370549,370899,0.75,0 S,13,370549,370899,0.25,1
Sprite,Foreground,Centre,"sb\ring.png",349,338 F,6,370792,371142,0.75,0 S,13,370792,371142,0.25,1
Sprite,Foreground,Centre,"sb\ring.png",159,86 F,6,371036,371386,0.75,0 S,13,371036,371386,0.25,1
Sprite,Foreground,Centre,"sb\ring.png",79,417 F,6,371280,371630,0.75,0 S,13,371280,371630,0.25,1
Sprite,Foreground,Centre,"sb\ring.png",236,281 F,6,427366,427716,0.75,0 S,13,427366,427716,0.25,1
Sprite,Foreground,Centre,"sb\ring.png",271,315 F,6,427488,427838,0.75,0 S,13,427488,427838,0.25,1
Sprite,Foreground,Centre,"sb\ring.png",320,324 F,6,427610,427960,0.75,0 S,13,427610,427960,0.25,1
Sprite,Foreground,Centre,"sb\ring.png",281,351 F,6,427732,428082,0.75,0 S,13,427732,428082,0.25,1
Sprite,Foreground,Centre,"sb\ring.png",242,354 F,6,427854,428204,0.75,0 S,13,427854,428204,0.25,1
Sprite,Foreground,Centre,"sb\ring.png",269,384 F,6,427976,428326,0.75,0 S,13,427976,428326,0.25,1
Sprite,Foreground,Centre,"sb\ring.png",300,394 F,6,428098,428448,0.75,0 S,13,428098,428448,0.25,1
Sprite,Foreground,Centre,"sb\ring.png",281,413 F,6,428220,428570,0.75,0 S,13,428220,428570,0.25,1
Sprite,Foreground,Centre,"sb\ring.png",255,419 F,6,428342,428692,0.75,0 S,13,428342,428692,0.25,1
Sprite,Foreground,Centre,"sb\ring.png",430,368 F,6,331458,331808,0.75,0 S,13,331458,331808,0.25,1
Sprite,Foreground,Centre,"sb\ring.png",391,287 F,6,331921,332271,0.75,0 S,13,331921,332271,0.25,1
Sprite,Foreground,Centre,"sb\ring.png",298,369 F,6,332384,332734,0.75,0 S,13,332384,332734,0.25,1
Sprite,Foreground,Centre,"sb\ring.png",286,337 F,6,332500,332850,0.75,0 S,13,332500,332850,0.25,1
Sprite,Foreground,Centre,"sb\ring.png",262,314 F,6,332616,332966,0.75,0 S,13,332616,332966,0.25,1
Sprite,Foreground,Centre,"sb\ring.png",230,304 F,6,332732,333082,0.75,0 S,13,332732,333082,0.25,1
Sprite,Foreground,Centre,"sb\ring.png",199,317 F,6,332847,333197,0.75,0 S,13,332847,333197,0.25,1
Sprite,Foreground,Centre,"sb\ring.png",252,320 F,6,332963,333313,0.75,0 S,13,332963,333313,0.25,1
Sprite,Foreground,Centre,"sb\ring.png",303,303 F,6,333079,333429,0.75,0 S,13,333079,333429,0.25,1
Sprite,Foreground,Centre,"sb\ring.png",344,268 F,6,333195,333545,0.75,0 S,13,333195,333545,0.25,1
Sprite,Foreground,Centre,"sb\ring.png",369,220 F,6,333311,333661,0.75,0 S,13,333311,333661,0.25,1
Sprite,Foreground,Centre,"sb\ring.png",307,182 F,6,333427,333777,0.75,0 S,13,333427,333777,0.25,1
Sprite,Foreground,Centre,"sb\ring.png",236,174 F,6,333542,333892,0.75,0 S,13,333542,333892,0.25,1
Sprite,Foreground,Centre,"sb\ring.png",133,271 F,6,334388,334738,0.75,0 S,13,334388,334738,0.25,1
Sprite,Foreground,Centre,"sb\ring.png",166,203 F,6,334503,334853,0.75,0 S,13,334503,334853,0.25,1
Sprite,Foreground,Centre,"sb\ring.png",236,174 F,6,334621,334971,0.75,0 S,13,334621,334971,0.25,1
Sprite,Foreground,Centre,"sb\ring.png",307,182 F,6,334738,335088,0.75,0 S,13,334738,335088,0.25,1
Sprite,Foreground,Centre,"sb\ring.png",503,422 F,6,334971,335321,0.75,0 S,13,334971,335321,0.25,1
Sprite,Foreground,Centre,"sb\ring.png",576,136 F,6,335205,335555,0.75,0 S,13,335205,335555,0.25,1
Sprite,Foreground,Centre,"sb\ring.png",576,136 F,6,335788,336138,0.75,0 S,13,335788,336138,0.25,1
Sprite,Foreground,Centre,"sb\ring.png",484,412 F,6,336372,336722,0.75,0 S,13,336372,336722,0.25,1
Sprite,Foreground,Centre,"sb\ring.png",416,131 F,6,336605,336955,0.75,0 S,13,336605,336955,0.25,1
Sprite,Foreground,Centre,"sb\ring.png",180,387 F,6,336923,337273,0.75,0 S,13,336923,337273,0.25,1
Sprite,Foreground,Centre,"sb\ring.png",101,426 F,6,46476,46826,0.75,0 S,13,46476,46826,0.25,1
Sprite,Foreground,Centre,"sb\ring.png",114,433 F,6,46598,46948,0.75,0 S,13,46598,46948,0.25,1
Sprite,Foreground,Centre,"sb\ring.png",137,311 F,6,47086,47436,0.75,0 S,13,47086,47436,0.25,1
Sprite,Foreground,Centre,"sb\ring.png",286,401 F,6,47329,47679,0.75,0 S,13,47329,47679,0.25,1
Sprite,Foreground,Centre,"sb\ring.png",263,230 F,6,47573,47923,0.75,0 S,13,47573,47923,0.25,1
Sprite,Foreground,Centre,"sb\ring.png",296,197 F,6,47694,48044,0.75,0 S,13,47694,48044,0.25,1
Sprite,Foreground,Centre,"sb\ring.png",340,183 F,6,47816,48166,0.75,0 S,13,47816,48166,0.25,1
Sprite,Foreground,Centre,"sb\ring.png",387,193 F,6,47938,48288,0.75,0 S,13,47938,48288,0.25,1
Sprite,Foreground,Centre,"sb\ring.png",422,235 F,6,48061,48411,0.75,0 S,13,48061,48411,0.25,1
Sprite,Foreground,Centre,"sb\ring.png",360,221 F,6,48182,48532,0.75,0 S,13,48182,48532,0.25,1
Sprite,Foreground,Centre,"sb\ring.png",317,173 F,6,48304,48654,0.75,0 S,13,48304,48654,0.25,1
Sprite,Foreground,Centre,"sb\ring.png",297,115 F,6,48426,48776,0.75,0 S,13,48426,48776,0.25,1
Sprite,Foreground,Centre,"sb\ring.png",339,56 F,6,48549,48899,0.75,0 S,13,48549,48899,0.25,1
Sprite,Foreground,Centre,"sb\ring.png",472,378 F,6,397622,397972,0.75,0 S,13,397622,397972,0.25,1
Sprite,Foreground,Centre,"sb\ring.png",473,257 F,6,397970,398320,0.75,0 S,13,397970,398320,0.25,1
Sprite,Foreground,Centre,"sb\ring.png",279,240 F,6,398319,398669,0.75,0 S,13,398319,398669,0.25,1
Sprite,Foreground,Centre,"sb\ring.png",240,380 F,6,398564,398914,0.75,0 S,13,398564,398914,0.25,1
Sprite,Foreground,Centre,"sb\ring.png",259,310 F,6,399066,399416,0.75,0 S,13,399066,399416,0.25,1
Sprite,Foreground,Centre,"sb\ring.png",259,310 F,6,399555,399905,0.75,0 S,13,399555,399905,0.25,1
Sprite,Foreground,Centre,"sb\hl.png",0,0 C,0,282825,,255,255,255 M,0,282825,282885,444,206,422.8027,213.2815 F,2,282825,283446,1,0 S,2,282825,283446,0.7,0.14 M,0,282885,282946,422.8027,213.2815,400.5754,216.285
Sprite,Foreground,Centre,"sb\hl.png",342,136 C,0,283068,,255,255,255 F,2,283068,283568,1,0 S,2,283068,283568,0.7,0.14
Sprite,Foreground,Centre,"sb\hl.png",0,0 C,0,283190,,255,255,255 M,0,283190,283250,342,136,364.2016,138.8081 F,2,283190,283750,1,0 S,2,283190,283750,0.7,0.14
Sprite,Foreground,Centre,"sb\hl.png",235,200 C,0,283394,,255,255,255 F,2,283394,283894,1,0 S,2,283394,283894,0.7,0.14
Sprite,Foreground,Centre,"sb\hl.png",0,0 C,0,283524,,255,255,255 M,0,283524,283584,215,195,181.4503,177.5793 F,2,283524,284186,1,0 S,2,283524,284186,0.7,0.14 M,0,283584,283645,181.4503,177.5793,191.7895,184.8986 M,0,283645,283686,191.7895,184.8986,215,195
Sprite,Foreground,Centre,"sb\hl.png",0,0 C,0,283767,,255,255,255 M,0,283767,283827,293,236,329,224 F,2,283767,284388,1,0 S,2,283767,284388,0.7,0.14 M,0,283827,283888,329,224,293,236
Sprite,Foreground,Centre,"sb\hl.png",216,282 C,0,284002,,255,255,255 F,2,284002,284502,1,0 S,2,284002,284502,0.7,0.14
Sprite,Foreground,Centre,"sb\hl.png",203,292 C,0,284078,,255,255,255 F,2,284078,284578,1,0 S,2,284078,284578,0.7,0.14
Sprite,Foreground,Centre,"sb\hl.png",191,311 C,0,284155,,255,255,255 F,2,284155,284655,1,0 S,2,284155,284655,0.7,0.14
Sprite,Foreground,Centre,"sb\hl.png",182,336 C,0,284232,,255,255,255 F,2,284232,284732,1,0 S,2,284232,284732,0.7,0.14
Sprite,Foreground,Centre,"sb\hl.png",0,0 C,0,284309,,255,255,255 M,0,284309,284366,184,375,188.6352,397.0174 F,2,284309,284885,1,0 S,2,284309,284885,0.7,0.14 M,0,284366,284385,188.6352,397.0174,190.1803,404.3565
Sprite,Foreground,Centre,"sb\hl.png",0,0 C,0,410530,,255,255,255 M,0,410530,410590,380,394,358.0438,391.4377 F,2,410530,411151,1,0 S,2,410530,411151,0.7,0.14 M,0,410590,410651,358.0438,391.4377,339.0348,380.062
Sprite,Foreground,Centre,"sb\hl.png",0,0 C,0,410774,,255,255,255 M,0,410774,410834,291,269,298.5049,299.1608 F,2,410774,411395,1,0 S,2,410774,411395,0.7,0.14 M,0,410834,410895,298.5049,299.1608,291.9333,329.4376
Sprite,Foreground,Centre,"sb\hl.png",0,0 C,0,411018,,255,255,255 M,0,411018,411078,172,416,191.6061,381.484 F,2,411018,411639,1,0 S,2,411018,411639,0.7,0.14 M,0,411078,411139,191.6061,381.484,227.2965,364.4722
Sprite,Foreground,Centre,"sb\hl.png",0,0 C,0,411262,,192,192,192 M,0,411262,411322,387,397,412.1607,388.2653 F,2,411262,411883,1,0 S,2,411262,411883,0.7,0.14 M,0,411322,411383,412.1607,388.2653,429.8883,368.514
Sprite,Foreground,Centre,"sb\hl.png",404,259 C,0,411505,,192,192,192 F,2,411505,412005,1,0 S,2,411505,412005,0.7,0.14
Sprite,Foreground,Centre,"sb\hl.png",0,0 C,0,411627,,192,192,192 M,0,411627,411687,372,228,370.1562,254.5886 F,2,411627,412248,1,0 S,2,411627,412248,0.7,0.14 M,0,411687,411748,370.1562,254.5886,382,278
Sprite,Foreground,Centre,"sb\hl.png",512,344 C,0,411871,,80,165,148 F,2,411871,412371,1,0 S,2,411871,412371,0.7,0.14
Sprite,Foreground,Centre,"sb\hl.png",491,300 C,0,411993,,80,165,148 F,2,411993,412493,1,0 S,2,411993,412493,0.7,0.14
Sprite,Foreground,Centre,"sb\hl.png",488,251 C,0,412115,,80,165,148 F,2,412115,412615,1,0 S,2,412115,412615,0.7,0.14
Sprite,Foreground,Centre,"sb\hl.png",0,0 C,0,412237,,80,165,148 M,0,412237,412297,505,205,526.4173,188.8351 F,2,412237,412858,1,0 S,2,412237,412858,0.7,0.14 M,0,412297,412358,526.4173,188.8351,552.195,181.3943
Sprite,Foreground,Centre,"sb\hl.png",389,293 C,0,412481,,225,213,138 F,2,412481,412981,1,0 S,2,412481,412981,0.7,0.14
Sprite,Foreground,Centre,"sb\hl.png",332,273 C,0,412603,,225,213,138 F,2,412603,413103,1,0 S,2,412603,413103,0.7,0.14
Sprite,Foreground,Centre,"sb\hl.png",329,214 C,0,412725,,225,213,138 F,2,412725,413225,1,0 S,2,412725,413225,0.7,0.14
Sprite,Foreground,Centre,"sb\hl.png",0,0 C,0,412977,,192,192,192 M,0,412977,413037,502,334,493.1866,359.4775 F,2,412977,413598,1,0 S,2,412977,413598,0.7,0.14 M,0,413037,413098,493.1866,359.4775,488.9538,386.0937
Sprite,Foreground,Centre,"sb\hl.png",0,0 C,0,413220,,192,192,192 M,0,413220,413280,330,434,324.1851,407.636 F,2,413220,413841,1,0 S,2,413220,413841,0.7,0.14 M,0,413280,413341,324.1851,407.636,319.191,381.1042
Sprite,Foreground,Centre,"sb\hl.png",568,380 C,0,413464,,192,192,192 F,2,413464,413964,1,0 S,2,413464,413964,0.7,0.14
Sprite,Foreground,Centre,"sb\hl.png",481,258 C,0,413708,,80,165,148 F,2,413708,414208,1,0 S,2,413708,414208,0.7,0.14
Sprite,Foreground,Centre,"sb\hl.png",469,261 C,0,413789,,225,213,138 F,2,413789,414289,1,0 S,2,413789,414289,0.7,0.14
Sprite,Foreground,Centre,"sb\hl.png",459,266 C,0,413870,,192,192,192 F,2,413870,414370,1,0 S,2,413870,414370,0.7,0.14
Sprite,Foreground,Centre,"sb\hl.png",0,0 C,0,413952,,80,165,148 M,0,413952,414012,449,273,426.9604,288.4027 F,2,413952,414695,1,0 S,2,413952,414695,0.7,0.14 M,0,414012,414073,426.9604,288.4027,401.6056,297.262 M,0,414073,414134,401.6056,297.262,374.8204,298.9328 M,0,414134,414195,374.8204,298.9328,348.5927,293.2993
Sprite,Foreground,Centre,"sb\hl.png",270,221 C,0,414439,,225,213,138 F,2,414439,414939,1,0 S,2,414439,414939,0.7,0.14
Sprite,Foreground,Centre,"sb\hl.png",259,244 C,0,414561,,225,213,138 F,2,414561,415061,1,0 S,2,414561,415061,0.7,0.14
Sprite,Foreground,Centre,"sb\hl.png",225,251 C,0,414683,,225,213,138 F,2,414683,415183,1,0 S,2,414683,415183,0.7,0.14
Sprite,Foreground,Centre,"sb\hl.png",197,219 C,0,414805,,225,213,138 F,2,414805,415305,1,0 S,2,414805,415305,0.7,0.14
Sprite,Foreground,Centre,"sb\hl.png",221,165 C,0,414927,,225,213,138 F,2,414927,415427,1,0 S,2,414927,415427,0.7,0.14
Sprite,Foreground,Centre,"sb\hl.png",0,0 C,0,415050,,225,213,138 M,0,415050,415110,275,152,300.862,158.6502 F,2,415050,415671,1,0 S,2,415050,415671,0.7,0.14 M,0,415110,415171,300.862,158.6502,322.8189,173.8343
Sprite,Foreground,Centre,"sb\hl.png",421,234 C,0,415294,,192,192,192 F,2,415294,415794,1,0 S,2,415294,415794,0.7,0.14
Sprite,Foreground,Centre,"sb\hl.png",0,0 C,0,415416,,192,192,192 M,0,415416,415476,421,234,416.6115,207.4628 F,2,415416,416037,1,0 S,2,415416,416037,0.7,0.14 M,0,415476,415537,416.6115,207.4628,405.6135,182.948
Sprite,Foreground,Centre,"sb\hl.png",0,0 C,0,415659,,192,192,192 M,0,415659,415719,246,241,250.3885,267.5372 F,2,415659,416280,1,0 S,2,415659,416280,0.7,0.14 M,0,415719,415780,250.3885,267.5372,261.3865,292.052
Sprite,Foreground,Centre,"sb\hl.png",0,0 C,0,415903,,80,165,148 M,0,415903,415963,425,328,398.1438,326.6069 F,2,415903,416646,1,0 S,2,415903,416646,0.7,0.14 M,0,415963,416024,398.1438,326.6069,371.8993,332.3355 M,0,416024,416085,371.8993,332.3355,348.1103,344.7711 M,0,416085,416146,348.1103,344.7711,328.216,362.8383
Sprite,Foreground,Centre,"sb\hl.png",266,391 C,0,416268,,80,165,148 F,2,416268,416768,1,0 S,2,416268,416768,0.7,0.14
Sprite,Foreground,Centre,"sb\hl.png",236,397 C,0,416390,,80,165,148 F,2,416390,416890,1,0 S,2,416390,416890,0.7,0.14
Sprite,Foreground,Centre,"sb\hl.png",199,353 C,0,416512,,80,165,148 F,2,416512,417012,1,0 S,2,416512,417012,0.7,0.14
Sprite,Foreground,Centre,"sb\hl.png",145,344 C,0,416634,,80,165,148 F,2,416634,417134,1,0 S,2,416634,417134,0.7,0.14
Sprite,Foreground,Centre,"sb\hl.png",91,374 C,0,416756,,80,165,148 F,2,416756,417256,1,0 S,2,416756,417256,0.7,0.14
Sprite,Foreground,Centre,"sb\hl.png",0,0 C,0,416879,,225,213,138 M,0,416879,416939,77,426,75.69663,399.1225 F,2,416879,417500,1,0 S,2,416879,417500,0.7,0.14 M,0,416939,417000,75.69663,399.1225,80.84325,372.7363
Sprite,Foreground,Centre,"sb\hl.png",0,0 C,0,417123,,225,213,138 M,0,417123,417183,83,238,81.69663,264.8776 F,2,417123,417744,1,0 S,2,417123,417744,0.7,0.14 M,0,417183,417244,81.69663,264.8776,86.84325,291.2637
Sprite,Foreground,Centre,"sb\hl.png",240,382 C,0,417367,,192,192,192 F,2,417367,417867,1,0 S,2,417367,417867,0.7,0.14
Sprite,Foreground,Centre,"sb\hl.png",278,393 C,0,417488,,192,192,192 F,2,417488,417988,1,0 S,2,417488,417988,0.7,0.14
Sprite,Foreground,Centre,"sb\hl.png",318,388 C,0,417610,,192,192,192 F,2,417610,418110,1,0 S,2,417610,418110,0.7,0.14
Sprite,Foreground,Centre,"sb\hl.png",352,367 C,0,417732,,192,192,192 F,2,417732,418232,1,0 S,2,417732,418232,0.7,0.14
Sprite,Foreground,Centre,"sb\hl.png",374,333 C,0,417855,,192,192,192 F,2,417855,418355,1,0 S,2,417855,418355,0.7,0.14
Sprite,Foreground,Centre,"sb\hl.png",411,278 C,0,417976,,192,192,192 F,2,417976,418476,1,0 S,2,417976,418476,0.7,0.14
Sprite,Foreground,Centre,"sb\hl.png",475,265 C,0,418098,,192,192,192 F,2,418098,418598,1,0 S,2,418098,418598,0.7,0.14
Sprite,Foreground,Centre,"sb\hl.png",530,301 C,0,418220,,192,192,192 F,2,418220,418720,1,0 S,2,418220,418720,0.7,0.14
Sprite,Foreground,Centre,"sb\hl.png",544,365 C,0,418342,,192,192,192 F,2,418342,418842,1,0 S,2,418342,418842,0.7,0.14
Sprite,Foreground,Centre,"sb\hl.png",374,333 C,0,418586,,80,165,148 F,2,418586,419086,1,0 S,2,418586,419086,0.7,0.14
Sprite,Foreground,Centre,"sb\hl.png",411,278 C,0,418707,,80,165,148 F,2,418707,419207,1,0 S,2,418707,419207,0.7,0.14
Sprite,Foreground,Centre,"sb\hl.png",475,265 C,0,418829,,80,165,148 F,2,418829,419329,1,0 S,2,418829,419329,0.7,0.14
Sprite,Foreground,Centre,"sb\hl.png",520,251 C,0,418952,,80,165,148 F,2,418952,419452,1,0 S,2,418952,419452,0.7,0.14
Sprite,Foreground,Centre,"sb\hl.png",547,209 C,0,419073,,80,165,148 F,2,419073,419573,1,0 S,2,419073,419573,0.7,0.14
Sprite,Foreground,Centre,"sb\hl.png",550,162 C,0,419196,,80,165,148 F,2,419196,419696,1,0 S,2,419196,419696,0.7,0.14
Sprite,Foreground,Centre,"sb\hl.png",0,0 C,0,419318,,225,213,138 M,0,419318,419378,537,116,518.3505,96.90409 F,2,419318,419939,1,0 S,2,419318,419939,0.7,0.14 M,0,419378,419439,518.3505,96.90409,493.3727,87.4791
Sprite,Foreground,Centre,"sb\hl.png",0,0 C,0,419562,,225,213,138 M,0,419562,419622,365,176,383.6495,195.0959 F,2,419562,420183,1,0 S,2,419562,420183,0.7,0.14 M,0,419622,419683,383.6495,195.0959,408.6273,204.5209
Sprite,Foreground,Centre,"sb\hl.png",576,270 C,0,419806,,192,192,192 F,2,419806,420306,1,0 S,2,419806,420306,0.7,0.14
Sprite,Foreground,Centre,"sb\hl.png",522,276 C,0,419927,,192,192,192 F,2,419927,420427,1,0 S,2,419927,420427,0.7,0.14
Sprite,Foreground,Centre,"sb\hl.png",480,308 C,0,420049,,192,192,192 F,2,420049,420549,1,0 S,2,420049,420549,0.7,0.14
Sprite,Foreground,Centre,"sb\hl.png",458,356 C,0,420171,,192,192,192 F,2,420171,420671,1,0 S,2,420171,420671,0.7,0.14
Sprite,Foreground,Centre,"sb\hl.png",0,0 C,0,420294,,192,192,192 M,0,420294,420354,456,408,442.1841,385.0444 F,2,420294,420915,1,0 S,2,420294,420915,0.7,0.14 M,0,420354,420415,442.1841,385.0444,438.1237,358.6076
Sprite,Foreground,Centre,"sb\hl.png",0,0 C,0,420537,,192,192,192 M,0,420537,420597,313,254,299.1841,276.9556 F,2,420537,421158,1,0 S,2,420537,421158,0.7,0.14 M,0,420597,420658,299.1841,276.9556,295.1237,303.3925
Sprite,Foreground,Centre,"sb\hl.png",437,239 C,0,420780,,80,165,148 F,2,420780,421280,1,0 S,2,420780,421280,0.7,0.14
Sprite,Foreground,Centre,"sb\hl.png",468,196 C,0,420902,,80,165,148 F,2,420902,421402,1,0 S,2,420902,421402,0.7,0.14
Sprite,Foreground,Centre,"sb\hl.png",415,191 C,0,421025,,80,165,148 F,2,421025,421525,1,0 S,2,421025,421525,0.7,0.14
Sprite,Foreground,Centre,"sb\hl.png",537,359 C,0,421269,,225,213,138 F,2,421269,421769,1,0 S,2,421269,421769,0.7,0.14
Sprite,Foreground,Centre,"sb\hl.png",556,291 C,0,421391,,225,213,138 F,2,421391,421891,1,0 S,2,421391,421891,0.7,0.14
Sprite,Foreground,Centre,"sb\hl.png",490,306 C,0,421514,,225,213,138 F,2,421514,422014,1,0 S,2,421514,422014,0.7,0.14
Sprite,Foreground,Centre,"sb\hl.png",349,409 C,0,421757,,192,192,192 F,2,421757,422257,1,0 S,2,421757,422257,0.7,0.14
Sprite,Foreground,Centre,"sb\hl.png",197,300 C,0,422001,,192,192,192 F,2,422001,422501,1,0 S,2,422001,422501,0.7,0.14
Sprite,Foreground,Centre,"sb\hl.png",444,391 C,0,422244,,192,192,192 F,2,422244,422744,1,0 S,2,422244,422744,0.7,0.14
Sprite,Foreground,Centre,"sb\hl.png",263,306 C,0,422488,,80,165,148 F,2,422488,422988,1,0 S,2,422488,422988,0.7,0.14
Sprite,Foreground,Centre,"sb\hl.png",197,300 C,0,422611,,80,165,148 F,2,422611,423111,1,0 S,2,422611,423111,0.7,0.14
Sprite,Foreground,Centre,"sb\hl.png",0,0 C,0,422733,,80,165,148 M,0,422733,422793,152,347,153.0734,373.705 F,2,422733,423476,1,0 S,2,422733,423476,0.7,0.14 M,0,422793,422854,153.0734,373.705,142.9849,398.3736 M,0,422854,422915,142.9849,398.3736,123.5949,416.5851 M,0,422915,422976,123.5949,416.5851,98.41512,425.0823
Sprite,Foreground,Centre,"sb\hl.png",97,181 C,0,423220,,225,213,138 F,2,423220,423720,1,0 S,2,423220,423720,0.7,0.14
Sprite,Foreground,Centre,"sb\hl.png",127,166 C,0,423341,,225,213,138 F,2,423341,423841,1,0 S,2,423341,423841,0.7,0.14
Sprite,Foreground,Centre,"sb\hl.png",160,166 C,0,423463,,225,213,138 F,2,423463,423963,1,0 S,2,423463,423963,0.7,0.14
Sprite,Foreground,Centre,"sb\hl.png",190,180 C,0,423585,,225,213,138 F,2,423585,424085,1,0 S,2,423585,424085,0.7,0.14
Sprite,Foreground,Centre,"sb\hl.png",211,206 C,0,423708,,192,192,192 F,2,423708,424208,1,0 S,2,423708,424208,0.7,0.14
Sprite,Foreground,Centre,"sb\hl.png",207,146 C,0,423829,,192,192,192 F,2,423829,424329,1,0 S,2,423829,424329,0.7,0.14
Sprite,Foreground,Centre,"sb\hl.png",238,95 C,0,423951,,192,192,192 F,2,423951,424451,1,0 S,2,423951,424451,0.7,0.14
Sprite,Foreground,Centre,"sb\hl.png",293,73 C,0,424073,,192,192,192 F,2,424073,424573,1,0 S,2,424073,424573,0.7,0.14
Sprite,Foreground,Centre,"sb\hl.png",0,0 C,0,424196,,192,192,192 M,0,424196,424256,351,87,356.3689,113.4608 F,2,424196,424817,1,0 S,2,424196,424817,0.7,0.14 M,0,424256,424317,356.3689,113.4608,361.7377,139.9216
Sprite,Foreground,Centre,"sb\hl.png",0,0 C,0,424440,,192,192,192 M,0,424440,424500,482,286,486.999,259.4668 F,2,424440,425061,1,0 S,2,424440,425061,0.7,0.14 M,0,424500,424561,486.999,259.4668,491.998,232.9336
Sprite,Foreground,Centre,"sb\hl.png",0,0 C,0,424684,,80,165,148 M,0,424684,424744,281,324,302.3083,340.4351 F,2,424684,425427,1,0 S,2,424684,425427,0.7,0.14 M,0,424744,424805,302.3083,340.4351,326.8989,351.3019 M,0,424805,424866,326.8989,351.3019,353.358,355.9852 M,0,424866,424927,353.358,355.9852,380.1918,354.3904
Sprite,Foreground,Centre,"sb\hl.png",464,365 C,0,425049,,80,165,148 F,2,425049,425549,1,0 S,2,425049,425549,0.7,0.14
Sprite,Foreground,Centre,"sb\hl.png",482,377 C,0,425171,,80,165,148 F,2,425171,425671,1,0 S,2,425171,425671,0.7,0.14
Sprite,Foreground,Centre,"sb\hl.png",449,414 C,0,425293,,80,165,148 F,2,425293,425793,1,0 S,2,425293,425793,0.7,0.14
Sprite,Foreground,Centre,"sb\hl.png",398,437 C,0,425415,,80,165,148 F,2,425415,425915,1,0 S,2,425415,425915,0.7,0.14
Sprite,Foreground,Centre,"sb\hl.png",340,440 C,0,425536,,80,165,148 F,2,425536,426036,1,0 S,2,425536,426036,0.7,0.14
Sprite,Foreground,Centre,"sb\hl.png",0,0 C,0,425659,,225,213,138 M,0,425659,425719,286,414,268.2806,393.8621 F,2,425659,426280,1,0 S,2,425659,426280,0.7,0.14 M,0,425719,425780,268.2806,393.8621,244.9808,380.6725
Sprite,Foreground,Centre,"sb\hl.png",0,0 C,0,425903,,225,213,138 M,0,425903,425963,64,396,89.66879,403.864 F,2,425903,426524,1,0 S,2,425903,426524,0.7,0.14 M,0,425963,426024,89.66879,403.864,116.4697,403.5151
Sprite,Foreground,Centre,"sb\hl.png",0,0 C,0,426147,,192,192,192 M,0,426147,426207,206,321,210.5736,294.3902 F,2,426147,426768,1,0 S,2,426147,426768,0.7,0.14 M,0,426207,426268,210.5736,294.3902,215.1471,267.7804
Sprite,Foreground,Centre,"sb\hl.png",0,0 C,0,426391,,192,192,192 M,0,426391,426451,81,186,85.57356,212.6098 F,2,426391,427012,1,0 S,2,426391,427012,0.7,0.14 M,0,426451,426512,85.57356,212.6098,90.14713,239.2196
Sprite,Foreground,Centre,"sb\hl.png",234,266 C,0,426634,,80,165,148 F,2,426634,427134,1,0 S,2,426634,427134,0.7,0.14
Sprite,Foreground,Centre,"sb\hl.png",271,232 C,0,426756,,80,165,148 F,2,426756,427256,1,0 S,2,426756,427256,0.7,0.14
Sprite,Foreground,Centre,"sb\hl.png",288,184 C,0,426878,,80,165,148 F,2,426878,427378,1,0 S,2,426878,427378,0.7,0.14
Sprite,Foreground,Centre,"sb\hl.png",276,130 C,0,427000,,80,165,148 F,2,427000,427500,1,0 S,2,427000,427500,0.7,0.14
Sprite,Foreground,Centre,"sb\hl.png",221,91 C,0,427122,,80,165,148 F,2,427122,427622,1,0 S,2,427122,427622,0.7,0.14
Sprite,Foreground,Centre,"sb\hl.png",236,281 C,0,427366,,225,213,138 F,2,427366,427866,1,0 S,2,427366,427866,0.7,0.14
Sprite,Foreground,Centre,"sb\hl.png",271,315 C,0,427488,,225,213,138 F,2,427488,427988,1,0 S,2,427488,427988,0.7,0.14
Sprite,Foreground,Centre,"sb\hl.png",320,324 C,0,427610,,225,213,138 F,2,427610,428110,1,0 S,2,427610,428110,0.7,0.14
Sprite,Foreground,Centre,"sb\hl.png",281,351 C,0,427732,,225,213,138 F,2,427732,428232,1,0 S,2,427732,428232,0.7,0.14
Sprite,Foreground,Centre,"sb\hl.png",242,354 C,0,427854,,225,213,138 F,2,427854,428354,1,0 S,2,427854,428354,0.7,0.14
Sprite,Foreground,Centre,"sb\hl.png",269,384 C,0,427976,,225,213,138 F,2,427976,428476,1,0 S,2,427976,428476,0.7,0.14
Sprite,Foreground,Centre,"sb\hl.png",300,394 C,0,428098,,225,213,138 F,2,428098,428598,1,0 S,2,428098,428598,0.7,0.14
Sprite,Foreground,Centre,"sb\hl.png",281,413 C,0,428220,,225,213,138 F,2,428220,428720,1,0 S,2,428220,428720,0.7,0.14
Sprite,Foreground,Centre,"sb\hl.png",255,419 C,0,428342,,225,213,138 F,2,428342,428842,1,0 S,2,428342,428842,0.7,0.14
Sprite,Foreground,Centre,"sb\hl.png",0,0 C,0,355710,,225,213,138 M,0,355710,355768,69,287,90.94049,282.0135 F,2,355710,356444,1,0 S,2,355710,356444,0.7,0.14 M,0,355768,355827,90.94049,282.0135,112.881,277.027 M,0,355827,355885,112.881,277.027,90.94049,282.0135 M,0,355885,355944,90.94049,282.0135,69,287
Sprite,Foreground,Centre,"sb\hl.png",0,0 C,0,356178,,225,213,138 M,0,356178,356236,81,186,101.7842,194.6178 F,2,356178,356912,1,0 S,2,356178,356912,0.7,0.14 M,0,356236,356295,101.7842,194.6178,122,203 M,0,356295,356353,122,203,101.7842,194.6178 M,0,356353,356412,101.7842,194.6178,81,186
Sprite,Foreground,Centre,"sb\hl.png",567,318 C,0,40744,,192,192,192 F,2,40744,41244,1,0 S,2,40744,41244,0.75,0.15
Sprite,Foreground,Centre,"sb\hl.png",445,412 C,0,40988,,192,192,192 F,2,40988,41488,1,0 S,2,40988,41488,0.75,0.15
Sprite,Foreground,Centre,"sb\hl.png",315,360 C,0,41232,,192,192,192 F,2,41232,41732,1,0 S,2,41232,41732,0.75,0.15
Sprite,Foreground,Centre,"sb\hl.png",321,354 C,0,41354,,192,192,192 F,2,41354,41854,1,0 S,2,41354,41854,0.75,0.15
Sprite,Foreground,Centre,"sb\hl.png",326,347 C,0,41476,,192,192,192 F,2,41476,41976,1,0 S,2,41476,41976,0.75,0.15
Sprite,Foreground,Centre,"sb\hl.png",448,401 C,0,41720,,80,165,148 F,2,41720,42220,1,0 S,2,41720,42220,0.75,0.15
Sprite,Foreground,Centre,"sb\hl.png",304,368 C,0,42086,,225,213,138 F,2,42086,42586,1,0 S,2,42086,42586,0.75,0.15
Sprite,Foreground,Centre,"sb\hl.png",160,335 C,0,42451,,192,192,192 F,2,42451,42951,1,0 S,2,42451,42951,0.75,0.15
Sprite,Foreground,Centre,"sb\hl.png",65,389 C,0,42695,,192,192,192 F,2,42695,43195,1,0 S,2,42695,43195,0.75,0.15
Sprite,Foreground,Centre,"sb\hl.png",70,395 C,0,42817,,192,192,192 F,2,42817,43317,1,0 S,2,42817,43317,0.75,0.15
Sprite,Foreground,Centre,"sb\hl.png",75,402 C,0,42939,,192,192,192 F,2,42939,43439,1,0 S,2,42939,43439,0.75,0.15
Sprite,Foreground,Centre,"sb\hl.png",0,0 C,0,43183,,192,192,192 M,0,43183,43243,169,347,189.0278,336.9655 F,2,43183,44048,1,0 S,2,43183,44048,0.75,0.15 M,0,43243,43304,189.0278,336.9655,210.7627,331.6905 M,0,43304,43365,210.7627,331.6905,233.1502,331.7837 M,0,43365,43426,233.1502,331.7837,254.8928,337.2538 M,0,43426,43487,254.8928,337.2538,274.4453,348.1774 M,0,43487,43548,274.4453,348.1774,290.9836,363.2273
Sprite,Foreground,Centre,"sb\hl.png",0,0 C,0,43834,,80,165,148 M,0,43834,43894,398,418,420.4192,417.3561 F,2,43834,44577,1,0 S,2,43834,44577,0.75,0.15 M,0,43894,43955,420.4192,417.3561,442.2873,412.4791 M,0,43955,44016,442.2873,412.4791,420.4192,417.3561 M,0,44016,44077,420.4192,417.3561,398,418
Sprite,Foreground,Centre,"sb\hl.png",0,0 C,0,44321,,225,213,138 M,0,44321,44381,291,363,282.7701,342.2006 F,2,44321,45024,1,0 S,2,44321,45024,0.75,0.15 M,0,44381,44442,282.7701,342.2006,280.1796,320.0287 M,0,44442,44503,280.1796,320.0287,283.7977,297.9693 M,0,44503,44524,283.7977,297.9693,286.2784,290.8974
Sprite,Foreground,Centre,"sb\hl.png",454,412 C,0,44890,,192,192,192 F,2,44890,45390,1,0 S,2,44890,45390,0.75,0.15
Sprite,Foreground,Centre,"sb\hl.png",542,394 C,0,45134,,192,192,192 F,2,45134,45634,1,0 S,2,45134,45634,0.75,0.15
Sprite,Foreground,Centre,"sb\hl.png",550,392 C,0,45256,,192,192,192 F,2,45256,45756,1,0 S,2,45256,45756,0.75,0.15
Sprite,Foreground,Centre,"sb\hl.png",557,391 C,0,45378,,192,192,192 F,2,45378,45878,1,0 S,2,45378,45878,0.75,0.15
Sprite,Foreground,Centre,"sb\hl.png",0,0 C,0,45622,,192,192,192 M,0,45622,45682,444,418,427.5674,402.7236 F,2,45622,46487,1,0 S,2,45622,46487,0.75,0.15 M,0,45682,45743,427.5674,402.7236,408.6979,390.6205 M,0,45743,45804,408.6979,390.6205,387.8477,382.3271 M,0,45804,45865,387.8477,382.3271,365.7424,378.5182 M,0,45865,45926,365.7424,378.5182,343.3343,378.7915 M,0,45926,45987,343.3343,378.7915,321.3409,383.2442
//Storyboard Layer 4 (Overlay)
//Storyboard Sound Samples

[TimingPoints]
-241,487.80487804878,4,2,0,60,1,0
5368,-100,4,2,1,60,0,0
5612,-100,4,2,2,60,0,0
7807,-100,4,2,1,60,0,0
11344,-100,4,2,3,60,0,0
11466,-100,4,2,1,60,0,0
13417,-100,4,2,2,60,0,0
14149,-100,4,2,3,60,0,0
14393,-100,4,2,2,60,0,0
14637,-100,4,2,3,60,0,0
14880,-100,4,2,2,60,0,0
15612,-100,4,2,1,60,0,0
21222,-500,4,2,4,60,0,0
22198,-500,4,2,3,60,0,0
22685,-500,4,2,4,60,0,0
23173,-200,4,2,2,60,0,0
23661,-200,4,2,4,60,0,0
23905,-200,4,2,2,60,0,0
25490,-200,4,2,5,60,0,0
25734,-200,4,2,6,60,0,0
25978,-200,4,2,2,60,0,0
27076,-133.333333333333,4,2,2,60,0,0
27441,-133.333333333333,4,2,6,60,0,0
27807,-285.714285714284,4,2,2,60,0,0
29027,-399.999999999997,4,2,2,60,0,0
30490,-399.999999999997,4,2,2,5,0,0
30978,-133.333333333333,4,2,2,60,0,0
31100,-133.333333333333,4,2,6,60,0,0
31466,-100,4,2,5,60,0,0
31954,-100,4,2,6,60,0,0
32685,-100,4,2,5,60,0,0
32929,-100,4,2,2,60,0,0
33417,-100,4,2,3,60,0,0
33661,-100,4,2,2,60,0,0
33905,-100,4,2,5,60,0,0
34622,497.100248550124,4,2,5,60,1,0
34880,487.80487804878,4,2,2,60,1,0
34880,-100,4,2,2,60,0,0
35367,-100,4,2,5,60,0,0
35611,-100,4,2,2,60,0,0
35855,-100,4,2,5,60,0,0
36831,-100,4,2,1,60,0,0
37318,-100,4,2,3,60,0,0
37562,-100,4,2,2,60,0,0
37806,-100,4,2,5,60,0,0
38782,-100,4,2,2,60,0,0
39270,-100,4,2,5,60,0,0
39514,-100,4,2,2,60,0,0
40001,-100,4,2,5,50,0,0
40733,-100,4,2,2,50,0,0
40977,-100,4,2,1,50,0,0
46587,-100,4,2,2,70,0,0
46831,-100,4,2,4,70,0,0
46953,-100,4,2,2,70,0,0
47075,-100,4,2,4,70,0,0
47197,-100,4,2,2,70,0,0
47318,-100,4,2,6,70,0,0
47440,-100,4,2,2,70,0,0
47562,-100,4,2,4,70,0,0
47684,-100,4,2,2,70,0,0
48050,-100,4,2,6,70,0,0
48172,-100,4,2,2,70,0,0
48538,-100,4,2,1,60,0,0
49636,-100,4,2,3,60,0,0
49879,-100,4,2,1,60,0,0
50245,-100,4,2,7,60,0,0
50327,-100,4,2,3,60,0,0
50489,-100,4,2,2,60,0,0
50977,-100,4,2,8,60,0,0
51465,-100,4,2,1,60,0,0
51831,-100,4,2,2,60,0,0
52075,-100,4,2,1,60,0,0
52318,-100,4,2,9,60,0,0
52440,-100,4,2,1,60,0,0
52684,-100,4,2,7,60,0,0
52928,-100,4,2,1,60,0,0
53172,-100,4,2,3,60,0,0
53416,-100,4,2,1,60,0,0
53660,-100,4,2,3,60,0,0
53782,-100,4,2,7,60,0,0
54229,-100,4,2,3,60,0,0
54392,-100,4,2,2,60,0,0
54879,-100,4,2,1,60,0,0
56587,-100,4,2,2,60,0,0
58050,-100,4,2,1,60,0,0
58172,-100,4,2,2,60,0,0
58416,-100,4,2,1,60,0,0
58538,-100,4,2,2,60,0,0
59392,-100,4,2,1,60,0,0
59513,-100,4,2,2,60,0,0
59757,-100,4,2,1,60,0,0
60367,-100,4,2,2,60,0,0
62197,-100,4,2,10,60,0,0
64148,-83.3333333333333,4,2,1,70,0,0
64636,-83.3333333333333,4,2,3,70,0,0
64879,-83.3333333333333,4,2,1,70,0,0
65123,-83.3333333333333,4,2,3,70,0,0
65366,-83.3333333333333,4,2,1,70,0,0
65611,-83.3333333333333,4,2,3,70,0,0
66099,-83.3333333333333,4,2,1,70,0,0
66465,-100,4,2,1,70,0,0
66587,-100,4,2,3,70,0,0
66831,-100,4,2,1,70,0,0
67075,-133.333333333333,4,2,3,70,0,0
68050,-83.3333333333333,4,2,1,70,0,0
68538,-83.3333333333333,4,2,3,70,0,0
68782,-83.3333333333333,4,2,1,70,0,0
69026,-83.3333333333333,4,2,8,70,0,0
69269,-83.3333333333333,4,2,1,70,0,0
69514,-83.3333333333333,4,2,8,70,0,0
70001,-83.3333333333333,4,2,11,70,0,0
70367,-100,4,2,8,70,0,0
70733,-100,4,2,1,70,0,0
70855,-100,4,2,3,70,0,0
70977,-133.333333333333,4,2,3,70,0,0
71953,-133.333333333333,4,2,1,70,0,0
72440,-133.333333333333,4,2,9,70,0,0
72684,-133.333333333333,4,2,1,70,0,0
72928,-133.333333333333,4,2,9,70,0,0
73416,-133.333333333333,4,2,12,70,0,0
73660,-133.333333333333,4,2,1,70,0,0
73904,-100,4,2,1,70,0,0
74392,-100,4,2,9,70,0,0
74636,-133.333333333333,4,2,1,70,0,0
74879,-133.333333333333,4,2,9,70,0,0
75367,-133.333333333333,4,2,12,70,0,0
75855,-100,4,2,1,70,0,0
76343,-100,4,2,9,70,0,0
76587,-133.333333333333,4,2,1,70,0,0
76831,-133.333333333333,4,2,9,70,0,0
77318,-133.333333333333,4,2,12,70,0,0
78538,-133.333333333333,4,2,8,70,0,0
79148,-133.333333333333,4,2,1,70,0,0
79270,-133.333333333333,4,2,8,70,0,0
79514,-133.333333333333,4,2,4,60,0,0
79757,-133.333333333333,4,2,1,60,0,0
80245,-133.333333333333,4,2,4,60,0,0
80489,-133.333333333333,4,2,3,60,0,0
80733,-133.333333333333,4,2,2,60,0,0
81221,-133.333333333333,4,2,4,60,0,0
81465,-133.333333333333,4,2,3,60,0,0
81709,-133.333333333333,4,2,2,60,0,0
81831,-133.333333333333,4,2,3,60,0,0
81952,-133.333333333333,4,2,2,60,0,0
82197,-133.333333333333,4,2,2,60,0,0
82684,-133.333333333333,4,2,13,60,0,0
83050,-133.333333333333,4,2,2,60,0,0
83904,-133.333333333333,4,2,9,60,0,0
84392,-133.333333333333,4,2,2,60,0,0
84879,-133.333333333333,4,2,4,60,0,0
85367,-133.333333333333,4,2,2,60,0,0
86099,-100,4,2,2,60,0,0
86831,-79.9999999999999,4,2,2,60,0,0
86953,-79.9999999999999,4,2,1,60,0,0
87197,-79.9999999999999,4,2,14,60,0,0
87440,-79.9999999999999,4,2,1,60,0,0
87562,-100,4,2,1,60,0,0
87806,-100,4,2,4,60,0,0
87928,-100,4,2,2,60,0,0
88294,-100,4,2,4,60,0,0
88538,-100,4,2,2,60,0,0
88782,-100,4,2,3,60,0,0
88904,-100,4,2,2,60,0,0
90001,-100,4,2,4,60,0,0
90367,-100,4,2,4,60,0,0
90489,-100,4,2,15,60,0,0
90611,-100,4,2,1,60,0,0
90855,-100,4,2,2,60,0,0
91099,-100,4,2,1,60,0,0
91343,-100,4,2,12,60,0,0
91465,-100,4,2,7,60,0,0
91587,-100,4,2,1,60,0,0
91709,-100,4,2,2,60,0,0
92440,-100,4,2,13,60,0,0
92806,-100,4,2,2,60,0,0
93416,-100,4,2,13,60,0,0
93538,-100,4,2,2,60,0,0
94148,-100,4,2,3,60,0,0
94270,-100,4,2,2,60,0,0
94635,-100,4,2,10,60,0,0
94757,-100,4,2,3,60,0,0
95001,-100,4,2,2,60,0,0
95123,-100,4,2,3,60,0,0
95367,-100,4,2,16,60,0,0
95855,-100,4,2,2,60,0,0
95977,-100,4,2,1,60,0,0
96342,-100,4,2,7,60,0,0
96709,-100,4,2,1,60,0,0
97318,-100,4,2,7,60,0,0
97562,-100,4,2,3,60,0,0
97806,-100,4,2,7,60,0,0
98050,-100,4,2,3,60,0,0
98172,-100,4,2,1,60,0,0
98538,-100,4,2,17,60,0,0
98660,-100,4,2,1,60,0,0
99026,-100,4,2,16,60,0,0
99148,-100,4,2,1,60,0,0
99392,-100,4,2,2,60,0,0
99757,-100,4,2,3,60,0,0
99879,-100,4,2,2,60,0,0
100001,-100,4,2,4,60,0,0
100245,-100,4,2,13,60,0,0
100489,-100,4,2,3,60,0,0
100611,-100,4,2,2,60,0,0
100733,-100,4,2,3,60,0,0
101221,-100,4,2,10,60,0,0
102806,-133.333333333333,4,2,10,60,0,0
103172,-83.3333333333333,4,2,1,70,0,0
103660,-83.3333333333333,4,2,3,70,0,0
103903,-83.3333333333333,4,2,1,70,0,0
104148,-83.3333333333333,4,2,3,70,0,0
104391,-83.3333333333333,4,2,1,70,0,0
104636,-83.3333333333333,4,2,3,70,0,0
105123,-83.3333333333333,4,2,11,70,0,0
105489,-100,4,2,3,70,0,0
105855,-100,4,2,1,70,0,0
106099,-133.333333333333,4,2,3,70,0,0
107074,-83.3333333333333,4,2,1,70,0,0
107562,-83.3333333333333,4,2,3,70,0,0
107806,-83.3333333333333,4,2,1,70,0,0
108050,-83.3333333333333,4,2,8,70,0,0
108294,-83.3333333333333,4,2,1,70,0,0
108539,-83.3333333333333,4,2,8,70,0,0
109026,-83.3333333333333,4,2,11,70,0,0
109391,-100,4,2,8,70,0,0
109757,-100,4,2,1,70,0,0
110001,-133.333333333333,4,2,3,70,0,0
110428,-133.333333333333,4,2,1,70,0,0
110733,-133.333333333333,4,2,3,70,0,0
110977,-133.333333333333,4,2,1,70,0,0
111465,-133.333333333333,4,2,9,70,0,0
111709,-100,4,2,1,70,0,0
111953,-100,4,2,9,70,0,0
112440,-100,4,2,12,70,0,0
112684,-100,4,2,1,70,0,0
112928,-100,4,2,1,70,0,0
113416,-100,4,2,9,70,0,0
113660,-133.333333333333,4,2,1,70,0,0
114392,-133.333333333333,4,2,12,70,0,0
114636,-133.333333333333,4,2,2,60,0,0
114879,-133.333333333333,4,2,1,40,0,0
115855,-133.333333333333,4,2,1,50,0,0
116831,-133.333333333333,4,2,1,60,0,0
117806,-66.6666666666667,4,2,1,80,0,0
118050,-66.6666666666667,4,2,1,60,0,0
118782,-66.6666666666667,4,2,1,70,0,1
119270,-66.6666666666667,4,2,12,70,0,1
119392,-66.6666666666667,4,2,1,70,0,1
119757,-66.6666666666667,4,2,9,70,0,1
120245,-66.6666666666667,4,2,12,70,0,1
120489,-66.6666666666667,4,2,1,70,0,1
120733,-66.6666666666667,4,2,12,70,0,1
121465,-66.6666666666667,4,2,1,70,0,1
121709,-66.6666666666667,4,2,9,70,0,1
122197,-66.6666666666667,4,2,12,70,0,1
122684,-100,4,2,12,70,0,1
123904,-100,4,2,1,70,0,1
124148,-100,4,2,12,70,0,1
124270,-100,4,2,1,70,0,1
124636,-100,4,2,9,70,0,1
124798,-100,4,2,2,70,0,1
125123,-100,4,2,10,70,0,1
125286,-100,4,2,2,70,0,1
126099,-100,4,2,1,70,0,1
126587,-66.6666666666667,4,2,1,70,0,1
127075,-66.6666666666667,4,2,12,70,0,1
127197,-66.6666666666667,4,2,1,70,0,1
127562,-66.6666666666667,4,2,9,70,0,1
128050,-66.6666666666667,4,2,12,70,0,1
128294,-66.6666666666667,4,2,1,70,0,1
128538,-66.6666666666667,4,2,12,70,0,1
129270,-66.6666666666667,4,2,1,70,0,1
129514,-66.6666666666667,4,2,9,70,0,1
130002,-66.6666666666667,4,2,12,70,0,1
130489,-100,4,2,9,70,0,1
130611,-100,4,2,1,70,0,1
130977,-100,4,2,12,70,0,1
131221,-100,4,2,1,70,0,1
131465,-100,4,2,12,70,0,1
131587,-100,4,2,1,70,0,1
131953,-100,4,2,12,70,0,1
132075,-100,4,2,1,70,0,1
132197,-100,4,2,3,70,0,1
132440,-100,4,2,9,70,0,1
132684,-100,4,2,1,70,0,1
132928,-100,4,2,12,70,0,1
133050,-100,4,2,1,70,0,1
133416,-100,4,2,12,70,0,1
134392,-66.6666666666667,4,2,1,70,0,1
134757,-66.6666666666667,4,2,12,70,0,1
135123,-66.6666666666667,4,2,1,70,0,1
135367,-66.6666666666667,4,2,9,70,0,1
135611,-100,4,2,9,70,0,1
136343,-66.6666666666667,4,2,1,70,0,1
137318,-66.6666666666667,4,2,9,70,0,1
137562,-125,4,2,9,70,0,1
138310,497.92531120332,4,2,2,40,1,0
138310,-200,4,2,2,40,0,0
139325,506.329113924051,4,2,2,40,1,0
139325,-250,4,2,2,40,0,0
140337,510.638297872341,4,2,2,40,1,0
140337,-250,4,2,2,40,0,0
141221,487.80487804878,4,2,2,50,1,0
141342,-100,4,2,6,50,0,0
141708,-100,4,2,2,50,0,0
141830,-100,4,2,5,50,0,0
142197,487.80487804878,4,2,1,60,1,0
151216,487.80487804878,4,2,1,60,1,0
153187,487.80487804878,5,2,2,60,1,0
153319,446.096654275093,5,2,2,60,1,0
153654,487.80487804878,5,2,2,60,1,0
154141,480,5,2,2,60,1,0
154530,470.588235294118,5,2,2,60,1,0
154530,-222.222222222221,5,2,2,60,0,0
155620,487.80487804878,4,2,18,60,1,0
155985,-100,4,2,7,60,0,0
156473,-100,4,2,1,60,0,0
156718,-100,4,2,3,60,0,0
156839,-100,4,2,1,60,0,0
156960,-100,4,2,3,60,0,0
157083,-100,4,2,7,60,0,0
157205,-100,4,2,1,60,0,0
157327,-100,4,2,3,60,0,0
157449,-100,4,2,7,60,0,0
158302,-100,4,2,3,60,0,0
158424,-100,4,2,1,60,0,0
158790,-100,4,2,8,60,0,0
159034,-100,4,2,1,60,0,0
159156,-100,4,2,8,60,0,0
159522,-100,4,2,7,60,0,0
160254,-100,4,2,3,60,0,0
160376,-100,4,2,1,60,0,0
160499,-100,4,2,3,60,0,0
160741,-100,4,2,3,60,0,0
160824,-100,4,2,3,60,0,0
160985,-100,4,2,7,60,0,0
161474,-100,4,2,12,60,0,0
162693,-285.714285714284,4,2,1,60,0,0
163424,-100,4,2,1,60,0,0
163913,-100,4,2,2,60,0,0
164400,-100,4,2,4,60,0,0
164523,-100,4,2,3,60,0,0
164645,-100,4,2,2,60,0,0
165255,-100,4,2,3,60,0,0
165377,-100,4,2,1,60,0,0
165621,-100,4,2,3,60,0,0
165864,-100,4,2,2,60,0,0
166230,-100,4,2,15,60,0,0
166595,-100,4,2,19,60,0,0
166840,-100,4,2,1,60,0,0
166961,-66.6666666666667,4,2,19,60,0,0
167327,-100,4,2,1,60,0,0
167816,-100,4,2,2,60,0,0
167937,-100,4,2,4,60,0,0
168059,-100,4,2,2,60,0,0
168181,-100,4,2,4,60,0,0
168302,-100,4,2,2,60,0,0
168547,-100,4,2,15,60,0,0
168668,-100,4,2,2,60,0,0
169035,-100,4,2,3,60,0,0
169278,-100,4,2,1,60,0,0
169523,-100,4,2,3,60,0,0
169767,-100,4,2,2,60,0,0
170376,-100,4,2,3,60,0,0
170498,-66.6666666666667,4,2,13,60,0,0
171229,-100,4,2,1,60,0,0
171717,-100,4,2,2,60,0,0
173180,-100,4,2,13,60,0,0
173303,-100,4,2,3,60,0,0
173669,-100,4,2,2,60,0,0
173913,-100,4,2,3,60,0,0
174035,-100,4,2,2,60,0,0
174278,-100,4,2,4,60,0,0
174401,-100,4,2,15,60,0,0
174523,-100,4,2,3,60,0,0
174645,-100,4,2,2,60,0,0
174889,-100,4,2,3,60,0,0
175010,-100,4,2,2,60,0,0
175132,-100,4,2,1,60,0,0
175377,-100,4,2,3,60,0,0
175620,-100,4,2,2,60,0,0
175864,-100,4,2,3,60,0,0
176108,-100,4,2,1,60,0,0
176839,-133.333333333333,4,2,1,60,0,0
176962,-133.333333333333,4,2,3,60,0,0
177084,-133.333333333333,4,2,1,60,0,0
177937,-133.333333333333,4,2,3,60,0,0
178060,-133.333333333333,4,2,2,60,0,0
179034,-100,4,2,20,60,0,0
179523,-100,4,2,2,60,0,0
179766,-100,4,2,4,60,0,0
179889,-100,4,2,15,60,0,0
180010,-100,4,2,2,60,0,0
180133,-100,4,2,15,60,0,0
180376,-100,4,2,2,60,0,0
180742,-100,4,2,15,60,0,0
180864,-100,4,2,3,60,0,0
180985,-100,4,2,1,60,0,0
181230,-100,4,2,3,60,0,0
181474,-100,4,2,2,60,0,0
181840,-100,4,2,13,60,0,0
182205,-76.9230769230769,4,2,13,60,0,0
182450,-76.9230769230769,4,2,1,60,0,0
182572,-76.9230769230769,4,2,13,60,0,0
182937,-100,4,2,20,60,0,0
183424,-100,4,2,1,60,0,0
183913,-100,4,2,3,60,0,0
184157,-100,4,2,1,60,0,0
186473,-133.333333333333,4,2,1,60,0,0
186839,-83.3333333333333,4,2,2,70,0,0
187328,-83.3333333333333,4,2,3,70,0,0
187570,-83.3333333333333,4,2,1,70,0,0
187816,-83.3333333333333,4,2,3,70,0,0
188791,-83.3333333333333,4,2,2,70,0,0
189156,-100,4,2,2,70,0,0
189279,-100,4,2,3,70,0,0
189523,-100,4,2,2,70,0,0
189766,-133.333333333333,4,2,5,70,0,0
190741,-83.3333333333333,4,2,2,70,0,0
191230,-83.3333333333333,4,2,3,70,0,0
191473,-83.3333333333333,4,2,1,70,0,0
191718,-83.3333333333333,4,2,3,70,0,0
191961,-83.3333333333333,4,2,1,70,0,0
192206,-83.3333333333333,4,2,3,70,0,0
192693,-83.3333333333333,4,2,21,70,0,0
193058,-100,4,2,5,70,0,0
193425,-100,4,2,2,70,0,0
193668,-133.333333333333,4,2,3,70,0,0
194156,-133.333333333333,4,2,3,55,0,0
194400,-133.333333333333,4,2,6,55,0,0
194644,-133.333333333333,4,2,2,70,0,0
195133,-133.333333333333,4,2,9,70,0,0
195375,-133.333333333333,4,2,2,70,0,0
195619,-133.333333333333,4,2,9,70,0,0
195863,-133.333333333333,4,2,2,70,0,0
196107,-133.333333333333,4,2,10,70,0,0
196351,-133.333333333333,4,2,2,70,0,0
196595,-100,4,2,10,70,0,0
196961,-100,4,2,2,70,0,0
197084,-100,4,2,9,70,0,0
197327,-133.333333333333,4,2,2,70,0,0
197571,-133.333333333333,4,2,9,70,0,0
198059,-133.333333333333,4,2,10,70,0,0
198302,-133.333333333333,4,2,2,60,0,0
198546,-133.333333333333,4,2,10,40,0,0
198790,-133.333333333333,4,2,2,40,0,0
199522,-133.333333333333,4,2,2,50,0,0
200010,-133.333333333333,4,2,18,50,0,0
200498,-133.333333333333,4,2,18,60,0,0
201473,-66.6666666666667,4,2,18,80,0,0
201717,-66.6666666666667,4,2,18,60,0,0
202449,-66.6666666666667,4,2,1,70,0,1
202937,-66.6666666666667,4,2,12,70,0,1
203059,-66.6666666666667,4,2,1,70,0,1
203424,-66.6666666666667,4,2,9,70,0,1
203913,-66.6666666666667,4,2,12,70,0,1
204157,-66.6666666666667,4,2,1,70,0,1
204401,-66.6666666666667,4,2,12,70,0,1
205132,-66.6666666666667,4,2,1,70,0,1
205377,-66.6666666666667,4,2,9,70,0,1
205619,-66.6666666666667,4,2,1,70,0,1
205864,-66.6666666666667,4,2,12,70,0,1
206351,-100,4,2,9,70,0,1
207328,-100,4,2,12,70,0,1
207572,-100,4,2,1,70,0,1
207815,-100,4,2,12,70,0,1
207938,-100,4,2,1,70,0,1
208302,-100,4,2,9,70,0,1
208465,-100,4,2,2,70,0,1
208791,-100,4,2,10,70,0,1
208953,-100,4,2,2,70,0,1
209279,-100,4,2,10,70,0,1
209401,-100,4,2,2,70,0,1
209766,-100,4,2,12,70,0,1
210010,-100,4,2,1,70,0,1
210254,-66.6666666666667,4,2,1,70,0,1
210741,-66.6666666666667,4,2,12,70,0,1
210864,-66.6666666666667,4,2,1,70,0,1
211230,-66.6666666666667,4,2,9,70,0,1
211717,-66.6666666666667,4,2,12,70,0,1
211962,-66.6666666666667,4,2,1,70,0,1
212206,-66.6666666666667,4,2,12,70,0,1
212937,-66.6666666666667,4,2,1,70,0,1
213180,-66.6666666666667,4,2,9,70,0,1
213669,-66.6666666666667,4,2,12,70,0,1
214156,-100,4,2,9,70,0,1
214279,-100,4,2,1,70,0,1
214644,-100,4,2,12,70,0,1
214889,-100,4,2,1,70,0,1
215133,-100,4,2,12,70,0,1
215255,-100,4,2,1,70,0,1
215619,-100,4,2,12,70,0,1
215741,-100,4,2,1,70,0,1
215863,-100,4,2,3,70,0,1
216107,-100,4,2,9,70,0,1
216352,-100,4,2,1,70,0,1
216595,-100,4,2,12,70,0,1
216718,-100,4,2,1,70,0,1
217083,-100,4,2,12,70,0,1
217571,-100,4,2,9,70,0,1
218059,-66.6666666666667,4,2,1,70,0,1
218425,-66.6666666666667,4,2,12,70,0,1
218791,-66.6666666666667,4,2,1,70,0,1
219035,-66.6666666666667,4,2,9,70,0,1
219278,-100,4,2,9,70,0,1
220010,-66.6666666666667,4,2,1,70,0,1
220498,-66.6666666666667,4,2,9,70,0,1
220742,-66.6666666666667,4,2,1,70,0,1
220986,-66.6666666666667,4,2,9,70,0,1
221229,-125,4,2,9,70,0,1
221961,-100,4,2,10,60,0,0
222449,-100,4,2,9,60,0,0
222693,-100,4,2,2,60,0,0
222937,-100,4,2,10,60,0,0
223059,-100,4,2,2,60,0,0
223424,-100,4,2,9,60,0,0
223668,-100,4,2,2,60,0,0
223912,-100,4,2,10,60,0,0
224400,-100,4,2,9,60,0,0
224888,-100,4,2,12,60,0,0
225010,-100,4,2,1,60,0,0
225376,-100,4,2,12,60,0,0
225498,-100,4,2,1,60,0,0
225863,-66.6666666666667,4,2,1,70,0,1
226229,-66.6666666666667,4,2,12,70,0,1
226595,-66.6666666666667,4,2,1,70,0,1
226839,-66.6666666666667,4,2,9,70,0,1
227082,-100,4,2,9,70,0,1
227815,-66.6666666666667,4,2,12,70,0,1
228180,-66.6666666666667,4,2,1,70,0,1
228302,-66.6666666666667,4,2,9,70,0,1
228546,-66.6666666666667,4,2,1,70,0,1
228790,-66.6666666666667,4,2,9,70,0,1
229034,-200,4,2,9,70,0,1
229766,-66.6666666666667,4,2,12,70,0,1
230497,-66.6666666666667,4,2,1,70,0,1
230741,-66.6666666666667,4,2,12,70,0,1
231229,-125,4,2,9,70,0,1
231717,-83.3333333333333,4,2,12,70,0,1
232693,-125,4,2,12,70,0,1
233668,-66.6666666666667,4,2,12,70,0,1
234033,-66.6666666666667,4,2,1,70,0,1
234155,-66.6666666666667,4,2,9,70,0,1
234399,-66.6666666666667,4,2,1,70,0,1
234643,-66.6666666666667,4,2,12,70,0,1
235132,-66.6666666666667,4,2,8,70,0,1
235376,-66.6666666666667,4,2,4,70,0,1
235619,-66.6666666666667,4,2,1,70,0,1
237083,-100,4,2,1,70,0,1
237565,468.75,4,2,1,70,1,0
243307,-100,4,2,8,70,0,0
244127,-100,4,2,22,70,0,0
244244,-100,4,2,18,70,0,0
244596,-100,4,2,22,70,0,0
244713,-100,4,2,18,70,0,0
244830,-100,4,2,22,70,0,0
244947,-100,4,2,18,70,0,0
245065,-100,4,2,1,70,0,0
246940,-100,4,2,3,70,0,0
247174,-100,4,2,1,70,0,0
247877,-100,4,2,7,70,0,0
248463,-100,4,2,1,70,0,0
249752,-100,4,2,7,70,0,0
249869,-100,4,2,1,70,0,0
250690,-100,4,2,3,70,0,0
250924,-100,4,2,1,70,0,0
254440,-100,4,2,3,70,0,0
254674,-100,4,2,1,70,0,0
256315,-66.6666666666667,4,2,1,70,0,0
256783,-66.6666666666667,4,2,9,70,0,0
257018,-66.6666666666667,4,2,1,70,0,0
257252,-133.333333333333,4,2,12,70,0,0
257486,-133.333333333333,4,2,1,70,0,0
257721,-133.333333333333,4,2,12,70,0,0
257955,-133.333333333333,4,2,1,70,0,0
258190,-66.6666666666667,4,2,12,70,0,0
258541,-66.6666666666667,4,2,1,70,0,0
258658,-66.6666666666667,4,2,9,70,0,0
258893,-66.6666666666667,4,2,8,70,0,0
259127,-66.6666666666667,4,2,12,70,0,0
259361,-66.6666666666667,4,2,8,70,0,0
259713,-66.6666666666667,4,2,1,70,0,0
260065,-83.3333333333333,4,2,1,70,0,0
261940,-83.3333333333333,4,2,3,70,0,0
262174,-83.3333333333333,4,2,1,70,0,0
262877,-83.3333333333333,4,2,7,70,0,0
263463,-83.3333333333333,4,2,1,70,0,0
264752,-83.3333333333333,4,2,7,70,0,0
264869,-83.3333333333333,4,2,1,70,0,0
265690,-83.3333333333333,4,2,3,70,0,0
265924,-83.3333333333333,4,2,1,70,0,0
269440,-83.3333333333333,4,2,3,70,0,0
269674,-83.3333333333333,4,2,1,70,0,0
269908,-83.3333333333333,4,2,7,70,0,0
270143,-83.3333333333333,4,2,3,70,0,0
270377,-83.3333333333333,4,2,1,70,0,0
271315,-66.6666666666667,4,2,1,70,0,0
271783,-66.6666666666667,4,2,9,70,0,0
272018,-66.6666666666667,4,2,1,70,0,0
272252,-100,4,2,12,70,0,0
272486,-100,4,2,1,70,0,0
272721,-100,4,2,12,70,0,0
272955,-100,4,2,1,70,0,0
273190,-250,4,2,1,40,0,0
275065,-100,4,2,12,50,0,0
275416,-100,4,2,7,50,0,0
275533,-100,4,2,1,50,0,0
275768,-100,4,2,3,50,0,0
275885,-100,4,2,7,50,0,0
276354,-100,4,2,3,50,0,0
276471,-100,4,2,1,50,0,0
276705,-100,4,2,7,50,0,0
276823,-100,4,2,3,50,0,0
276940,-100,4,2,1,50,0,0
277174,-100,4,2,3,50,0,0
277291,-100,4,2,7,50,0,0
277525,-100,4,2,1,50,0,0
277643,-100,4,2,3,50,0,0
277760,-100,4,2,7,50,0,0
277878,-100,4,2,1,50,0,0
278111,-100,4,2,7,50,0,0
278346,-100,4,2,1,50,0,0
278580,-100,4,2,7,50,0,0
278815,-100,4,2,1,50,0,0
279049,-100,4,2,1,50,0,0
279284,-100,4,2,1,50,0,0
279636,-100,4,2,3,50,0,0
279753,-100,4,2,1,50,0,0
279986,-100,4,2,7,50,0,0
280104,-100,4,2,3,50,0,0
280221,-100,4,2,12,50,0,0
280455,-100,4,2,1,50,0,0
280706,703.125000274658,4,2,1,70,1,0
280706,-66.6666666666667,4,2,1,70,0,0
281233,-66.6666666666667,4,2,1,50,0,0
281409,-41.6666666666667,4,2,1,80,0,0
281936,-41.6666666666667,4,2,1,50,0,0
282112,-41.6666666666667,4,2,1,90,0,0
282815,487.80487804878,4,2,2,60,1,0
283514,487.80487804878,4,2,2,60,1,0
283514,-58.8235294117647,4,2,2,60,0,0
283992,460.652591170825,4,2,2,60,1,0
284447,468.75,4,2,2,70,1,1
284447,-58.8235294117647,4,2,2,70,0,1
284681,-58.8235294117647,4,2,2,70,0,1
284915,-58.8235294117647,4,2,5,70,0,1
285384,-58.8235294117647,4,2,2,70,0,1
285618,-58.8235294117647,4,2,5,70,0,1
286087,-76.9230769230769,4,2,5,70,0,1
286556,-76.9230769230769,4,2,21,70,0,1
286790,-76.9230769230769,4,2,5,70,0,1
287259,-76.9230769230769,4,2,2,70,0,1
287728,-100,4,2,2,70,0,1
287962,-100,4,2,5,70,0,1
288197,-76.9230769230769,4,2,2,70,0,1
288431,-76.9230769230769,4,2,5,70,0,1
288548,-76.9230769230769,4,2,1,70,0,1
288900,-76.9230769230769,4,2,3,70,0,1
289134,-76.9230769230769,4,2,1,70,0,1
289368,-76.9230769230769,4,2,5,70,0,1
290072,-76.9230769230769,4,2,2,70,0,1
290306,-76.9230769230769,4,2,5,70,0,1
290775,-76.9230769230769,4,2,2,70,0,1
291009,-76.9230769230769,4,2,5,70,0,1
291712,-76.9230769230769,4,2,2,70,0,1
292650,-76.9230769230769,4,2,5,70,0,1
294759,-76.9230769230769,4,2,2,70,0,1
295462,-76.9230769230769,4,2,3,70,0,1
295697,-76.9230769230769,4,2,1,70,0,1
295931,-76.9230769230769,4,2,3,70,0,1
296048,-76.9230769230769,4,2,2,70,0,1
296400,-76.9230769230769,4,2,21,70,0,1
296634,-76.9230769230769,4,2,5,70,0,1
296986,-76.9230769230769,4,2,2,70,0,1
297337,-76.9230769230769,4,2,5,70,0,1
297572,-76.9230769230769,4,2,2,70,0,1
297806,-76.9230769230769,4,2,3,70,0,1
298275,-76.9230769230769,4,2,2,70,0,1
299447,-58.8235294117647,4,2,2,70,0,1
301087,-76.9230769230769,4,2,5,70,0,1
301556,-76.9230769230769,4,2,21,70,0,1
301789,-76.9230769230769,4,2,5,70,0,1
302728,-100,4,2,5,70,0,1
303197,-76.9230769230769,4,2,2,70,0,1
303431,-76.9230769230769,4,2,21,70,0,1
303509,-76.9230769230769,4,2,2,70,0,1
303900,-76.9230769230769,4,2,21,70,0,1
304368,-76.9230769230769,4,2,5,70,0,1
304485,-76.9230769230769,4,2,2,70,0,1
304837,-76.9230769230769,4,2,5,70,0,1
305072,-76.9230769230769,4,2,1,70,0,1
305306,-76.9230769230769,4,2,1,70,0,1
305775,-76.9230769230769,4,2,2,70,0,1
306947,-76.9230769230769,4,2,10,70,0,1
307415,-76.9230769230769,4,2,6,70,0,1
307649,-76.9230769230769,4,2,2,70,0,1
309524,-76.9230769230769,4,2,5,70,0,1
310697,-76.9230769230769,4,2,2,70,0,1
310931,-76.9230769230769,4,2,21,70,0,1
311048,-76.9230769230769,4,2,2,70,0,1
311400,-76.9230769230769,4,2,5,70,0,1
312220,-76.9230769230769,4,2,6,70,0,1
312572,-76.9230769230769,4,2,2,70,0,1
314915,-76.9230769230769,4,2,9,70,0,1
315618,-76.9230769230769,4,2,2,70,0,1
315853,-76.9230769230769,4,2,10,70,0,1
316087,-76.9230769230769,4,2,2,70,0,1
316322,-76.9230769230769,4,2,10,70,0,1
316556,-76.9230769230769,4,2,2,70,0,1
316790,-76.9230769230769,4,2,10,70,0,1
317259,-100,4,2,9,70,0,1
317650,-100,4,2,2,70,0,1
317728,-100,4,2,10,70,0,1
317962,-100,4,2,2,70,0,1
318197,-100,4,2,10,70,0,1
318548,-100,4,2,2,70,0,1
318665,-100,4,2,10,70,0,1
319017,-100,4,2,2,70,0,1
319603,-100,4,2,9,70,0,1
319720,-100,4,2,9,70,0,1
319837,-100,4,2,2,70,0,1
320066,519.480519480519,4,2,2,70,1,0
320924,519.480519480519,4,2,2,60,1,0
321397,497.92531120332,4,2,2,50,1,0
321963,473.372781065089,4,2,2,40,1,0
331448,463.320463320463,4,2,2,30,1,0
331448,-166.666666666667,4,2,2,30,0,0
331911,-125,4,2,2,40,0,0
332374,-100,4,2,2,50,0,0
332837,-100,4,2,2,60,0,0
333301,-100,4,2,2,70,0,0
334378,466.926070038911,4,2,2,70,1,0
335195,-100,4,2,1,60,0,0
335778,-100,4,2,6,60,0,0
336362,-100,4,2,5,60,0,0
336913,504.201680672269,4,2,2,60,1,0
337419,468.75,4,2,10,60,1,0
337419,-133.333333333333,4,2,10,60,0,0
337770,-133.333333333333,4,2,2,60,0,0
337887,-133.333333333333,4,2,10,60,0,0
338239,-133.333333333333,4,2,2,60,0,0
338356,-133.333333333333,4,2,10,60,0,0
338473,-79.9999999999999,4,2,2,60,0,0
338825,468.75,4,2,9,60,1,0
338942,-100,4,2,2,60,0,0
339176,-100,4,2,1,60,0,0
339293,-100,4,2,12,60,0,0
339410,-100,4,2,1,60,0,0
339761,-100,4,2,12,60,0,0
339879,-100,4,2,1,60,0,0
340114,-100,4,2,18,60,0,0
340230,-100,4,2,9,60,0,0
340348,-100,4,2,18,60,0,0
340700,-100,4,2,2,60,0,0
341168,-100,4,2,10,60,0,0
341520,-100,4,2,2,60,0,0
341636,-100,4,2,10,60,0,0
341989,-100,4,2,2,60,0,0
342105,-100,4,2,10,60,0,0
342223,-100,4,2,2,60,0,0
342575,-100,4,2,9,60,0,0
342692,-100,4,2,2,60,0,0
343043,-100,4,2,9,60,0,0
343512,-100,4,2,2,60,0,0
343981,-100,4,2,10,60,0,0
344450,-100,4,2,2,60,0,0
344918,-100,4,2,10,60,0,0
345035,-100,4,2,2,60,0,0
345387,-100,4,2,10,60,0,0
345504,-100,4,2,2,60,0,0
345855,-100,4,2,10,60,0,0
345973,-100,4,2,2,60,0,0
346207,-66.6666666666667,4,2,2,60,0,0
346324,-66.6666666666667,4,2,9,60,0,0
346442,-66.6666666666667,4,2,2,60,0,0
346792,-66.6666666666667,4,2,10,60,0,0
346910,-66.6666666666667,4,2,2,60,0,0
347262,-66.6666666666667,4,2,10,60,0,0
347379,-66.6666666666667,4,2,2,60,0,0
347731,-66.6666666666667,4,2,10,60,0,0
347848,-66.6666666666667,4,2,2,60,0,0
348200,-100,4,2,2,60,0,0
348668,-100,4,2,10,60,0,0
349020,-100,4,2,2,60,0,0
349137,-100,4,2,9,60,0,0
349371,-100,4,2,1,60,0,0
349606,-100,4,2,10,60,0,0
349723,-100,4,2,2,60,0,0
350074,-100,4,2,10,60,0,0
350192,-100,4,2,2,60,0,0
350543,-100,4,2,10,60,0,0
350660,-100,4,2,2,60,0,0
351012,-100,4,2,6,60,0,0
351364,-100,4,2,2,60,0,0
351950,-100,4,2,6,60,0,0
352067,-100,4,2,8,60,0,0
352184,-100,4,2,1,60,0,0
352887,-100,4,2,8,60,0,0
353590,-100,4,2,1,60,0,0
353825,-100,4,2,8,60,0,0
354176,-100,4,2,1,60,0,0
354293,-100,4,2,8,60,0,0
354645,-100,4,2,1,60,0,0
355231,-100,4,2,8,60,0,0
355700,-100,4,2,2,60,0,0
356637,487.80487804878,4,2,1,70,1,1
356637,-66.6666666666667,4,2,1,70,0,1
356758,-66.6666666666667,4,2,1,70,0,0
357612,-66.6666666666667,4,2,3,70,0,0
358344,-100,4,2,3,70,0,0
358588,-66.6666666666667,4,2,1,70,0,0
360051,-100,4,2,3,70,0,0
360132,-100,4,2,4,70,0,0
360214,-100,4,2,3,70,0,0
360539,-66.6666666666667,4,2,1,70,0,0
361271,451.127819548872,4,2,1,70,1,0
361496,510.638297872341,4,2,1,70,1,0
361751,-100,4,2,3,70,0,0
362490,487.80487804878,4,2,1,70,1,0
362490,-66.6666666666667,4,2,1,70,0,0
362855,-100,4,2,1,70,0,0
364929,-100,4,2,9,70,0,0
365172,-100,4,2,1,70,0,0
365416,-58.8235294117647,4,2,12,70,0,0
365781,-100,4,2,12,70,0,0
365904,-100,4,2,9,70,0,0
366392,-100,4,2,1,70,0,0
366880,-100,4,2,9,70,0,0
367124,-100,4,2,1,70,0,0
367368,-58.8235294117647,4,2,12,70,0,0
367733,-100,4,2,12,70,0,0
367855,-100,4,2,9,60,0,0
368343,-133.333333333333,4,2,1,40,0,0
369319,-86.9565217391303,4,2,1,50,0,0
370295,-86.9565217391303,4,2,1,60,0,0
371270,-66.6666666666667,4,2,1,80,0,0
371514,-66.6666666666667,4,2,1,60,0,0
372246,-66.6666666666667,4,2,1,70,0,1
372733,-66.6666666666667,4,2,12,70,0,1
372856,-66.6666666666667,4,2,1,70,0,1
372977,-76.9230769230769,4,2,1,70,0,1
373221,-76.9230769230769,4,2,9,70,0,1
373709,-66.6666666666667,4,2,12,70,0,1
373953,-66.6666666666667,4,2,1,70,0,1
374197,-66.6666666666667,4,2,12,70,0,1
374929,-66.6666666666667,4,2,1,70,0,1
375173,-66.6666666666667,4,2,9,70,0,1
375417,-66.6666666666667,4,2,1,70,0,1
375660,-66.6666666666667,4,2,12,70,0,1
376148,-100,4,2,15,70,0,1
376636,-100,4,2,3,70,0,1
376880,-100,4,2,7,70,0,1
377368,-100,4,2,1,70,0,1
377612,-100,4,2,7,70,0,1
377734,-100,4,2,1,70,0,1
378100,-100,4,2,3,70,0,1
378262,-100,4,2,2,70,0,1
378587,-100,4,2,4,70,0,1
378750,-100,4,2,2,70,0,1
379075,-100,4,2,4,70,0,1
379197,-100,4,2,2,70,0,1
379563,-100,4,2,7,70,0,1
379807,-100,4,2,1,70,0,1
380051,-66.6666666666667,4,2,1,70,0,1
380539,-66.6666666666667,4,2,12,70,0,1
380661,-66.6666666666667,4,2,1,70,0,1
381026,-66.6666666666667,4,2,9,70,0,1
381514,-66.6666666666667,4,2,12,70,0,1
381758,-66.6666666666667,4,2,1,70,0,1
382002,-66.6666666666667,4,2,12,70,0,1
382733,-66.6666666666667,4,2,1,70,0,1
382978,-66.6666666666667,4,2,9,70,0,1
383465,-66.6666666666667,4,2,12,70,0,1
383953,-100,4,2,9,70,0,1
384075,-100,4,2,1,70,0,1
384441,-100,4,2,12,70,0,1
384685,-100,4,2,1,70,0,1
384929,-100,4,2,12,70,0,1
385051,-100,4,2,1,70,0,1
385417,-100,4,2,12,70,0,1
385539,-100,4,2,1,70,0,1
385661,-100,4,2,3,70,0,1
385904,-100,4,2,9,70,0,1
386148,-100,4,2,1,70,0,1
386392,-100,4,2,12,70,0,1
386514,-100,4,2,1,70,0,1
386880,-100,4,2,12,70,0,1
387368,-100,4,2,9,70,0,1
387856,-66.6666666666667,4,2,1,70,0,1
388343,-66.6666666666667,4,2,9,70,0,1
388587,-66.6666666666667,4,2,1,70,0,1
388831,-66.6666666666667,4,2,9,70,0,1
389075,-100,4,2,9,70,0,1
389807,-66.6666666666667,4,2,1,70,0,1
390294,-66.6666666666667,4,2,9,70,0,1
390538,-66.6666666666667,4,2,1,70,0,1
390782,-66.6666666666667,4,2,9,70,0,1
391026,-125,4,2,9,70,0,1
391758,-83.3333333333333,4,2,13,60,0,0
392245,-83.3333333333333,4,2,3,60,0,0
392489,-83.3333333333333,4,2,2,60,0,0
392733,-83.3333333333333,4,2,13,60,0,0
393220,-83.3333333333333,4,2,3,60,0,0
393343,-83.3333333333333,4,2,2,60,0,0
393709,-83.3333333333333,4,2,7,60,0,0
393953,-83.3333333333333,4,2,1,60,0,0
394196,-83.3333333333333,4,2,7,60,0,0
394685,-83.3333333333333,4,2,15,60,0,0
394806,-83.3333333333333,4,2,1,60,0,0
395172,-83.3333333333333,4,2,7,60,0,0
395294,-83.3333333333333,4,2,1,60,0,0
395660,-66.6666666666667,4,2,1,70,0,1
396147,-66.6666666666667,4,2,9,70,0,1
396391,-66.6666666666667,4,2,1,70,0,1
396635,-66.6666666666667,4,2,9,70,0,1
396880,-90.9090909090909,4,2,9,70,0,1
397612,465.116279069767,4,2,1,70,1,1
397612,-50,4,2,1,70,0,1
398309,491.803278688525,4,2,1,70,1,1
398309,-50,4,2,1,70,0,1
398554,-50,4,2,1,70,0,0
398812,488.20179007323,4,2,1,70,1,0
399545,487.80487804878,3,2,1,70,1,1
399545,-66.6666666666667,3,2,1,70,0,1
399788,-66.6666666666667,3,2,7,70,0,1
399910,-66.6666666666667,3,2,1,70,0,1
400276,-100,3,2,17,70,0,1
400398,-100,3,2,1,70,0,1
400764,-100,3,2,3,70,0,1
400886,-100,3,2,1,70,0,1
401008,-66.6666666666667,3,2,1,70,0,1
401252,-66.6666666666667,3,2,3,70,0,1
401374,-66.6666666666667,3,2,1,70,0,1
401496,-66.6666666666667,3,2,3,70,0,1
401618,-66.6666666666667,3,2,1,70,0,1
401740,-66.6666666666667,3,2,17,70,0,1
401984,-66.6666666666667,3,2,7,70,0,1
402105,-66.6666666666667,3,2,1,70,0,1
402471,-66.6666666666667,3,2,1,70,0,1
402715,-66.6666666666667,3,2,3,70,0,1
402836,-66.6666666666667,3,2,1,70,0,1
402959,-66.6666666666667,3,2,7,70,0,1
403203,-100,3,2,17,70,0,1
403447,-100,3,2,7,70,0,1
403568,-100,3,2,1,70,0,1
403691,-100,3,2,3,70,0,1
403813,-100,3,2,1,70,0,1
403935,-66.6666666666667,3,2,1,70,0,1
404423,-66.6666666666667,3,2,7,70,0,1
404544,-66.6666666666667,3,2,1,70,0,1
404667,-66.6666666666667,3,2,17,70,0,1
404910,-66.6666666666667,3,2,7,70,0,1
405153,-66.6666666666667,3,2,1,70,0,1
405642,-66.6666666666667,3,2,3,70,0,1
405764,-66.6666666666667,3,2,1,70,0,1
405886,-66.6666666666667,3,2,3,70,0,1
406130,-100,3,2,17,70,0,1
406252,-100,3,2,1,70,0,1
406374,-100,3,2,3,70,0,1
406495,-100,3,2,1,70,0,1
406618,-100,3,2,3,70,0,1
406739,-100,3,2,1,70,0,1
406862,-66.6666666666667,3,2,1,70,0,1
407349,-66.6666666666667,3,2,3,70,0,1
407471,-66.6666666666667,3,2,1,70,0,1
407594,-66.6666666666667,3,2,17,70,0,1
407837,-66.6666666666667,3,2,7,70,0,1
407959,-66.6666666666667,3,2,1,70,0,1
408813,-66.6666666666667,3,2,3,70,0,1
408934,-66.6666666666667,3,2,1,70,0,1
409057,-100,3,2,17,70,0,1
409179,-100,3,2,1,70,0,1
409545,-100,3,2,3,70,0,1
409788,-100,3,2,8,70,0,1
410520,-100,3,2,14,70,0,1
410764,-71.4285714285714,3,2,14,70,0,1
411008,-55.5555555555556,3,2,14,70,0,1
411252,487.80487804878,4,2,23,60,1,0
411252,-83.3333333333333,4,2,23,60,0,0
411373,-83.3333333333333,4,2,1,60,0,0
411495,-83.3333333333333,4,2,24,60,0,0
411739,-83.3333333333333,4,2,1,60,0,0
411983,-83.3333333333333,4,2,12,60,0,0
412105,-83.3333333333333,4,2,25,42,0,0
412349,-83.3333333333333,4,2,12,60,0,0
412471,-83.3333333333333,4,2,24,60,0,0
412593,-83.3333333333333,4,2,1,60,0,0
412715,-83.3333333333333,4,2,24,60,0,0
412967,487.80487804878,3,2,24,60,1,0
412967,-83.3333333333333,4,2,24,60,0,0
413210,-83.3333333333333,4,2,25,42,0,0
413332,-83.3333333333333,4,2,12,60,0,0
413698,-83.3333333333333,4,2,25,42,0,0
413942,-83.3333333333333,4,2,24,60,0,0
414186,-83.3333333333333,4,2,1,60,0,0
414430,-83.3333333333333,4,2,24,60,0,0
414552,-83.3333333333333,4,2,25,42,0,0
414796,-83.3333333333333,4,2,23,60,0,0
414918,-83.3333333333333,4,2,24,60,0,0
415040,-83.3333333333333,4,2,1,60,0,0
415284,-83.3333333333333,4,2,23,60,0,0
415406,-83.3333333333333,4,2,24,60,0,0
415649,-83.3333333333333,4,2,25,42,0,0
415771,-83.3333333333333,4,2,1,60,0,0
415893,-83.3333333333333,4,2,24,60,0,0
416137,-83.3333333333333,4,2,25,42,0,0
416259,-83.3333333333333,4,2,23,60,0,0
416381,-83.3333333333333,4,2,12,60,0,0
416503,-83.3333333333333,4,2,1,60,0,0
416625,-83.3333333333333,4,2,23,60,0,0
416869,-83.3333333333333,4,2,12,60,0,0
416991,-83.3333333333333,4,2,1,60,0,0
417113,-83.3333333333333,4,2,23,60,0,0
417357,-83.3333333333333,4,2,12,60,0,0
417479,-83.3333333333333,4,2,1,60,0,0
417601,-83.3333333333333,4,2,25,42,0,0
417723,-83.3333333333333,4,2,1,60,0,0
417845,-83.3333333333333,4,2,24,60,0,0
417967,-83.3333333333333,4,2,25,42,0,0
418210,-83.3333333333333,4,2,23,60,0,0
418332,-83.3333333333333,4,2,12,60,0,0
418576,-83.3333333333333,4,2,1,60,0,0
418820,-83.3333333333333,4,2,12,60,0,0
418942,-83.3333333333333,4,2,1,60,0,0
419186,-83.3333333333333,4,2,23,60,0,0
419308,-83.3333333333333,4,2,12,60,0,0
419430,-83.3333333333333,4,2,1,60,0,0
419552,-83.3333333333333,4,2,25,42,0,0
419674,-83.3333333333333,4,2,1,60,0,0
419796,-83.3333333333333,4,2,24,60,0,0
419877,-83.3333333333333,4,2,25,42,0,0
420040,-83.3333333333333,4,2,23,60,0,0
420162,-83.3333333333333,4,2,1,60,0,0
420284,-83.3333333333333,4,2,12,60,0,0
420406,-83.3333333333333,4,2,23,60,0,0
420527,-83.3333333333333,4,2,1,60,0,0
420649,-83.3333333333333,4,2,23,60,0,0
420771,-83.3333333333333,4,2,12,60,0,0
420893,-83.3333333333333,4,2,1,60,0,0
421015,-83.3333333333333,4,2,25,42,0,0
421137,-83.3333333333333,4,2,12,60,0,0
421381,-83.3333333333333,4,2,1,60,0,0
421503,-83.3333333333333,4,2,25,42,0,0
421747,-83.3333333333333,4,2,24,60,0,0
421991,-83.3333333333333,4,2,25,42,0,0
422113,-83.3333333333333,4,2,12,60,0,0
422479,-83.3333333333333,4,2,1,60,0,0
422723,-83.3333333333333,4,2,12,60,0,0
423210,-83.3333333333333,4,2,24,60,0,0
423332,-83.3333333333333,4,2,1,60,0,0
423454,-83.3333333333333,4,2,25,42,0,0
423698,-83.3333333333333,4,2,24,60,0,0
423820,-83.3333333333333,4,2,1,60,0,0
423942,-83.3333333333333,4,2,25,42,0,0
424064,-83.3333333333333,4,2,1,60,0,0
424186,-83.3333333333333,4,2,24,60,0,0
424308,-83.3333333333333,4,2,25,42,0,0
424430,-83.3333333333333,4,2,23,60,0,0
424552,-83.3333333333333,4,2,25,42,0,0
424674,-83.3333333333333,4,2,24,60,0,0
424918,-83.3333333333333,4,2,25,42,0,0
425040,-83.3333333333333,4,2,23,60,0,0
425162,-83.3333333333333,4,2,24,60,0,0
425284,-83.3333333333333,4,2,1,60,0,0
425406,-83.3333333333333,4,2,25,42,0,0
425527,-83.3333333333333,4,2,23,60,0,0
425649,-83.3333333333333,4,2,24,60,0,0
425893,-83.3333333333333,4,2,23,60,0,0
426137,-83.3333333333333,4,2,12,60,0,0
426381,-83.3333333333333,4,2,1,60,0,0
426625,-83.3333333333333,4,2,24,60,0,0
426747,-83.3333333333333,4,2,25,42,0,0
426869,-83.3333333333333,4,2,1,60,0,0
426991,-83.3333333333333,4,2,12,60,0,0
427113,-83.3333333333333,4,2,8,60,0,0
427967,-83.3333333333333,4,2,14,60,0,0
428332,600,4,2,14,60,1,0
433125,851.063829787234,4,2,1,60,1,0
433337,-100,4,2,1,40,0,0
433763,-100,4,2,1,35,0,0
434188,-100,4,2,1,30,0,0
434614,-100,4,2,1,25,0,0
435039,-100,4,2,1,20,0,0
435465,-100,4,2,1,10,0,0
436103,-100,4,2,1,5,0,0
436529,923.076923076923,4,2,1,35,1,0
436759,-100,4,2,1,25,0,0
436990,-100,4,2,1,15,0,0
437221,-100,4,2,1,5,0,0
437452,1080.010800108,4,2,1,45,1,0
438532,-100,4,2,1,35,0,0
439612,-100,4,2,1,25,0,0
440422,-100,4,2,1,15,0,0
441232,-100,4,2,1,5,0,0
441772,-100,4,2,1,45,0,0
443932,-100,4,2,1,35,0,0
446092,-100,4,2,1,25,0,0
448252,-100,4,2,1,15,0,0
450412,-100,4,2,1,5,0,0

[Colours]
Combo1 : 80,165,148
Combo2 : 225,213,138
Combo3 : 192,192,192

[HitObjects]
80,306,5368,5,2,0:2:0:0:
80,306,5612,6,0,L|231:287,1,135,6|0,3:2|0:0,0:0:0:0:
278,319,6100,1,8,0:2:0:0:
395,273,6466,5,8,0:2:0:0:
384,287,6588,2,0,P|392:242|422:191,1,90,2|0,3:2|3:2,0:0:0:0:
512,133,7198,1,0,3:0:0:0:
502,151,7319,1,0,3:2:0:0:
208,45,7563,5,4,3:2:0:0:
348,140,7807,1,2,0:2:0:0:
191,125,8051,2,0,P|120:155|67:197,1,135,10|2,0:2|0:2,0:0:0:0:
6,166,8783,6,0,P|1:190|3:211,1,45,2|0,0:2|0:0,0:0:0:0:
48,357,9027,1,8,0:2:0:0:
87,255,9271,1,2,0:0:0:0:
229,363,9515,6,0,P|261:324|307:312,1,90,2|0,3:2|0:0,0:0:0:0:
387,356,9880,1,2,0:2:0:0:
387,356,10002,2,0,P|374:335|374:306,1,45,8|2,0:2|0:2,0:0:0:0:
504,201,10368,1,2,0:2:0:0:
504,201,10490,6,0,P|493:144|483:86,1,90,2|2,3:2|0:2,0:0:0:0:
329,54,10978,2,0,P|336:98|345:142,1,90,10|2,0:2|0:2,0:0:0:0:
384,233,11344,1,2,0:2:0:0:
385,225,11466,1,0,3:0:0:0:
259,141,11710,5,2,0:2:0:0:
108,111,11954,2,0,P|57:116|3:145,1,90,10|2,0:2|0:2,0:0:0:0:
17,209,12319,1,2,0:2:0:0:
17,209,12441,2,0,L|9:263,1,45,2|2,3:2|0:2,0:0:0:0:
85,335,12929,2,0,L|103:234,1,90,10|2,0:2|0:2,0:0:0:0:
354,96,13417,6,0,P|307:100|268:137,1,90,6|0,3:2|0:0,0:0:0:0:
192,187,13783,1,2,0:2:0:0:
192,187,13905,2,0,P|145:183|106:146,1,90,10|2,0:2|0:2,0:0:0:0:
262,43,14393,2,0,P|282:85|269:137,1,90,2|2,3:2|0:2,0:0:0:0:
134,199,14880,5,10,0:2:0:0:
120,185,15002,1,2,0:2:0:0:
102,172,15124,1,8,0:2:0:0:
70,154,15246,1,8,0:2:0:0:
26,141,15368,6,0,P|8:188|-1:248,1,90,0|2,3:0|0:2,0:0:0:0:
207,384,15856,2,0,P|200:299|173:214,1,135,10|2,0:2|0:2,0:0:0:0:
229,35,16588,6,0,P|247:67|276:91,1,45,2|0,0:2|0:0,0:0:0:0:
352,142,16832,1,8,0:2:0:0:
351,0,17076,2,0,P|341:35|344:72,1,45,2|2,0:0|0:0,0:0:0:0:
357,150,17319,6,0,P|394:174|417:236,1,90,2|0,3:2|0:0,0:0:0:0:
464,299,17685,2,0,P|443:338|406:362,1,90,2|2,0:2|0:2,0:0:0:0:
263,375,18173,1,10,0:2:0:0:
263,375,18295,6,0,L|147:360,1,90,2|2,3:2|0:2,0:0:0:0:
18,219,18783,2,0,L|107:230,1,90,10|2,0:2|0:2,0:0:0:0:
180,173,19149,1,8,0:2:0:0:
168,175,19271,1,0,3:0:0:0:
316,317,19515,5,2,0:2:0:0:
444,212,19758,2,0,L|522:200,2,67.5,10|2|2,0:2|0:0|0:0,0:0:0:0:
359,184,20246,2,0,L|267:198,1,90,2|0,3:2|0:0,0:0:0:0:
151,315,20734,2,0,L|59:300,1,90,10|2,0:2|0:2,0:0:0:0:
9,119,21222,6,0,P|40:117|70:145,1,72,6|0,0:2|3:0,0:0:0:0:
16,231,22685,1,0,3:0:0:0:
16,231,22929,1,0,3:0:0:0:
69,163,23173,6,0,L|163:146,1,90,6|2,3:2|0:0,0:0:0:0:
218,200,23905,1,2,0:0:0:0:
283,81,24149,6,0,P|332:69|402:116,1,135,6|0,3:2|0:0,0:0:0:0:
475,182,25124,6,0,P|438:214|432:232,1,67.5,6|2,3:2|3:2,0:0:0:0:
453,335,25734,1,2,3:2:0:0:
512,250,25978,1,6,3:2:0:0:
289,335,26466,5,2,0:2:0:0:
289,335,26588,2,0,P|257:334|235:328,1,45,2|2,0:2|0:2,0:0:0:0:
167,280,27076,2,0,P|131:276|91:298,1,67.5000025749208,6|0,3:2|0:0,0:0:0:0:
65,355,27441,1,2,3:2:0:0:
283,246,27807,6,0,P|273:199|230:128,1,125.999996154785,6|0,3:2|0:0,0:0:0:0:
127,88,29027,6,0,P|174:131|239:116,1,135,6|0,3:2|0:0,0:0:0:0:
393,90,30978,5,2,0:2:0:0:
407,80,31099,1,2,3:2:0:0:
423,75,31221,1,2,3:2:0:0:
270,132,31466,1,2,3:2:0:0:
241,132,31587,1,2,3:2:0:0:
213,125,31709,1,2,3:2:0:0:
388,165,31954,5,2,3:2:0:0:
443,182,32076,1,2,3:2:0:0:
476,225,32198,1,2,3:2:0:0:
328,384,32441,5,2,3:2:0:0:
339,322,32563,1,2,3:2:0:0:
361,281,32685,1,2,3:2:0:0:
385,255,32807,1,2,0:2:0:0:
400,244,32929,6,0,P|339:274|301:275,1,90,6|0,3:2|0:0,0:0:0:0:
204,234,33295,1,8,0:2:0:0:
214,229,33417,1,4,0:2:0:0:
153,366,33661,1,2,3:2:0:0:
118,164,33905,1,4,0:2:0:0:
142,355,34393,1,8,0:2:0:0:
282,281,34622,6,0,P|287:262|287:238,2,30,2|2|0,2:2|2:0|2:0,0:0:0:0:
277,295,34880,6,0,L|371:283,1,90,2|2,3:2|0:2,0:0:0:0:
432,324,35245,2,0,L|422:374,1,45,8|4,0:2|0:2,0:0:0:0:
272,305,35611,6,0,L|289:216,1,90,2|4,3:2|0:2,0:0:0:0:
354,151,35977,1,2,0:2:0:0:
394,141,36099,1,2,0:2:0:0:
427,134,36221,1,2,0:2:0:0:
452,131,36343,1,12,0:2:0:0:
452,131,36831,6,0,P|399:127|352:114,1,90,2|0,3:2|0:0,0:0:0:0:
299,49,37197,1,10,0:2:0:0:
308,47,37318,1,4,0:2:0:0:
210,196,37562,6,0,L|202:245,2,30,2|2|2,3:2|0:2|0:2,0:0:0:0:
137,88,37928,6,0,P|103:76|14:120,1,135,2|12,0:2|0:2,0:0:0:0:
220,184,38538,1,2,0:2:0:0:
335,17,38782,5,2,3:2:0:0:
511,104,39026,2,0,L|482:110,3,30,2|2|2|6,0:2|0:2|0:2|0:2,0:0:0:0:
301,204,39514,2,0,L|331:210,3,30,2|2|2|2,3:2|0:2|0:2|0:2,0:0:0:0:
347,202,39839,6,0,L|371:353,1,150,2|0,0:2|3:0,0:0:0:0:
487,384,40489,2,0,L|495:329,1,45,2|0,3:2|0:0,0:0:0:0:
503,262,40733,5,2,3:2:0:0:
381,356,40977,1,2,0:2:0:0:
251,304,41221,1,2,3:2:0:0:
257,298,41343,1,2,0:2:0:0:
262,291,41465,1,2,0:2:0:0:
384,345,41709,5,2,3:2:0:0:
240,312,42075,5,2,0:2:0:0:
96,279,42440,5,2,0:2:0:0:
1,333,42684,1,2,3:2:0:0:
6,339,42806,1,2,0:2:0:0:
11,346,42928,1,2,0:2:0:0:
105,291,43172,2,0,P|163:275|234:316,1,135,2|2,3:2|0:2,0:0:0:0:
334,362,43823,6,0,P|353:362|390:352,2,45,2|2|2,0:0|0:0|0:0,0:0:0:0:
227,307,44310,6,0,P|216:261|225:229,1,75,2|2,0:2|0:2,0:0:0:0:
390,356,44879,5,2,0:2:0:0:
478,338,45123,1,2,3:2:0:0:
486,336,45245,1,2,0:2:0:0:
493,335,45367,1,2,0:2:0:0:
380,362,45611,2,0,P|323:326|252:329,1,135,2|2,3:2|0:2,0:0:0:0:
37,370,46465,5,8,0:2:0:0:
50,377,46587,2,0,L|44:320,3,45,2|2|2|2,3:2|0:2|0:2|0:2,0:0:0:0:
73,255,47075,6,0,P|95:244|121:241,1,45,2|2,0:2|0:2,0:0:0:0:
222,345,47318,2,0,P|201:331|185:310,1,45,2|2,3:2|0:2,0:0:0:0:
199,174,47562,5,2,0:2:0:0:
232,141,47683,1,10,0:2:0:0:
276,127,47805,1,2,0:2:0:0:
323,137,47927,1,2,3:2:0:0:
358,179,48050,5,2,3:2:0:0:
296,165,48171,1,10,0:2:0:0:
253,117,48293,1,10,0:2:0:0:
233,59,48415,1,8,0:2:0:0:
275,0,48538,6,0,P|330:24|384:102,1,135,6|0,3:2|0:0,0:0:0:0:
374,171,49026,2,0,P|415:152|470:166,1,90,10|2,0:2|0:2,0:0:0:0:
477,306,49514,2,0,P|429:315|346:264,1,135,2|2,3:2|0:2,0:0:0:0:
302,221,50001,1,8,0:2:0:0:
471,166,50245,1,2,0:2:0:0:
286,114,50489,6,0,P|224:97|135:95,1,135,2|2,3:2|0:0,0:0:0:0:
64,133,50977,2,0,P|99:163|92:224,1,90,10|0,0:2|0:0,0:0:0:0:
30,241,51343,1,2,3:2:0:0:
32,232,51465,1,0,3:0:0:0:
204,248,51709,5,2,0:2:0:0:
204,248,51831,1,2,0:2:0:0:
204,248,51953,2,0,P|250:246|307:275,1,90,8|2,0:2|0:2,0:0:0:0:
351,339,52318,1,2,0:2:0:0:
351,339,52440,6,0,P|403:336|445:311,1,90,2|2,3:2|0:2,0:0:0:0:
499,150,52928,1,10,0:2:0:0:
452,325,53172,2,0,P|464:302|465:279,1,45,2|2,0:2|0:2,0:0:0:0:
412,121,53416,6,0,P|370:88|280:83,1,135,2|2,3:2|0:2,0:0:0:0:
214,139,53904,2,0,P|263:119|303:65,1,90,8|2,0:2|0:2,0:0:0:0:
191,34,54392,1,2,3:2:0:0:
191,34,54514,1,2,0:2:0:0:
191,34,54636,1,2,0:2:0:0:
288,93,54879,6,0,P|321:70|382:69,1,90,10|0,0:2|0:0,0:0:0:0:
444,101,55245,1,10,0:2:0:0:
446,109,55367,1,0,3:0:0:0:
394,221,55611,2,0,P|381:260|382:322,1,90,2|8,0:2|0:2,0:0:0:0:
413,377,55977,1,2,0:2:0:0:
331,183,56221,1,8,0:2:0:0:
325,167,56343,5,0,3:0:0:0:
193,292,56587,1,2,0:2:0:0:
193,292,56709,1,2,0:2:0:0:
193,292,56831,2,0,P|201:318|208:355,2,45,10|2|2,0:2|0:2|0:2,0:0:0:0:
18,181,57318,6,0,P|47:81|75:23,1,135,2|2,3:2|0:2,0:0:0:0:
116,7,57806,1,8,0:2:0:0:
217,104,58050,1,2,0:2:0:0:
207,107,58172,1,2,0:2:0:0:
197,111,58294,6,0,P|200:86|209:63,2,45,0|2|2,3:0|0:2|0:2,0:0:0:0:
336,217,58782,2,0,P|373:182|434:183,1,90,10|0,0:2|0:0,0:0:0:0:
485,218,59148,1,10,0:2:0:0:
490,225,59270,2,0,L|469:333,1,90,0|0,3:0|0:0,0:0:0:0:
293,376,59757,6,0,L|272:268,1,90,8|0,0:2|0:0,0:0:0:0:
182,122,60245,2,0,L|167:194,1,45,0|2,3:0|0:2,0:0:0:0:
102,218,60489,1,2,0:2:0:0:
102,218,60611,1,0,0:0:0:0:
102,218,60733,2,0,P|76:215|30:198,2,45,10|2|2,0:2|0:2|0:2,0:0:0:0:
242,277,61221,6,0,P|295:228|377:229,1,135,2|2,3:2|0:2,0:0:0:0:
419,257,61709,1,8,0:2:0:0:
373,100,61953,1,0,0:0:0:0:
438,264,62197,5,2,3:2:0:0:
351,240,62684,5,2,3:2:0:0:
294,166,63172,5,2,3:2:0:0:
325,30,63660,5,10,0:2:0:0:
325,30,63782,2,0,P|300:41|279:42,1,45,2|0,3:2|0:0,0:0:0:0:
115,58,64148,6,0,P|49:59|16:94,1,107.999996704102,6|0,3:2|0:0,0:0:0:0:
0,155,64514,1,8,0:2:0:0:
3,163,64636,1,4,0:2:0:0:
135,279,64879,2,0,P|143:218|218:72,1,215.999993408203,2|0,3:2|0:0,0:0:0:0:
443,36,65611,1,12,0:2:0:0:
370,106,65855,6,0,P|399:130|423:140,1,53.9999983520508
498,142,66099,2,0,P|455:159|425:213,1,107.999996704102,2|0,3:2|0:0,0:0:0:0:
488,279,66465,5,8,0:2:0:0:
485,274,66587,2,0,L|393:289,1,90,4|2,0:2|3:2,0:0:0:0:
261,359,67075,2,0,L|156:341,1,101.250003862381,4|0,0:2|0:0,0:0:0:0:
132,356,67562,1,12,0:2:0:0:
192,225,67806,2,0,L|185:189,1,33.7500012874604
148,121,68050,6,0,P|94:105|49:131,1,107.999996704102,2|0,3:2|0:0,0:0:0:0:
6,185,68416,2,0,P|56:201|102:177,1,107.999996704102,8|0,0:2|0:0,0:0:0:0:
157,127,68782,6,0,P|208:110|325:207,1,215.999993408203,2|0,3:2|0:0,0:0:0:0:
446,379,69514,1,14,0:2:0:0:
479,238,69757,1,0,0:0:0:0:
479,238,70001,6,0,P|423:267|372:250,1,107.999996704102,6|0,3:2|0:0,0:0:0:0:
328,207,70367,1,10,0:2:0:0:
328,207,70489,2,0,L|339:116,1,90,4|2,0:2|3:2,0:0:0:0:
417,48,70977,6,0,L|422:86,1,33.7500012874604,2|8,0:2|0:2,0:0:0:0:
339,118,71221,1,8,0:2:0:0:
331,77,71342,1,8,0:2:0:0:
327,37,71464,1,8,0:2:0:0:
489,171,71709,1,2,0:2:0:0:
485,191,71830,1,8,0:2:0:0:
481,210,71953,6,0,L|463:314,1,101.250003862381,6|8,3:2|0:2,0:0:0:0:
226,384,72684,2,0,P|213:343|81:258,1,202.500007724762,2|10,3:2|0:2,0:0:0:0:
14,320,73660,1,2,0:2:0:0:
207,200,73904,6,0,P|264:190|341:159,1,135,6|10,3:2|0:2,0:0:0:0:
393,40,74636,2,0,P|327:57|352:167,1,202.500007724762,2|10,3:2|0:2,0:0:0:0:
441,124,75611,1,0,0:0:0:0:
229,125,75855,6,0,P|163:111|100:86,1,135,6|10,3:2|0:2,0:0:0:0:
15,11,76587,2,0,P|56:41|56:184,1,202.500007724762,2|10,3:2|0:2,0:0:0:0:
0,105,77562,1,0,0:0:0:0:
46,187,77806,5,2,3:2:0:0:
177,40,78050,1,8,0:2:0:0:
154,242,78294,1,8,0:2:0:0:
248,240,78538,1,2,3:2:0:0:
312,309,78782,1,8,0:2:0:0:
318,342,78903,1,8,0:2:0:0:
399,151,79148,5,0,3:0:0:0:
404,177,79270,2,0,L|422:267,1,67.5000025749208,10|0,3:2|3:0,0:0:0:0:
500,383,79757,5,6,3:2:0:0:
512,233,80001,1,0,0:0:0:0:
421,323,80245,2,0,P|384:342|327:341,1,67.5000025749208,10|2,0:2|0:2,0:0:0:0:
254,384,80733,2,0,P|217:365|160:366,1,67.5000025749208,2|0,3:2|0:0,0:0:0:0:
101,279,81221,1,10,0:2:0:0:
0,306,81465,1,2,0:2:0:0:
114,285,81709,6,0,P|131:236|131:213,1,67.5000025749208,2|0,3:2|0:0,0:0:0:0:
182,96,82197,2,0,P|195:126|199:160,1,67.5000025749208,10|0,0:2|0:0,0:0:0:0:
138,217,82562,1,8,0:2:0:0:
131,220,82684,2,0,L|49:210,1,67.5000025749208,2|0,3:2|0:0,0:0:0:0:
196,81,83172,2,0,L|263:72,1,67.5000025749208,10|2,0:2|0:2,0:0:0:0:
401,116,83660,6,0,P|423:80|456:65,2,67.5000025749208,2|2|8,3:2|0:2|3:2,0:0:0:0:
320,220,84392,1,2,0:2:0:0:
320,220,84514,1,2,0:2:0:0:
320,220,84636,2,0,P|329:245|334:276,2,33.7500012874604,0|2|2,3:0|0:2|0:2,0:0:0:0:
195,106,85123,5,8,0:2:0:0:
325,211,85367,2,0,P|361:221|408:215,1,67.5000025749208,2|0,0:2|3:0,0:0:0:0:
512,167,85855,1,2,0:2:0:0:
310,27,86099,2,0,P|316:79|370:148,1,135,8|0,0:2|0:0,0:0:0:0:
435,162,86587,1,0,3:2:0:0:
314,235,86831,5,0,0:0:0:0:
314,235,86953,2,0,P|253:226|187:256,2,112.5,10|2|10,0:2|3:2|0:2,0:0:0:0:
359,315,87562,6,0,P|340:322|297:368,1,45,0|0,3:0|0:0,0:0:0:0:
225,335,87806,1,2,0:2:0:0:
225,335,87928,1,2,0:2:0:0:
225,335,88050,2,0,P|209:348|186:406,2,45,10|2|2,0:2|0:2|0:2,0:0:0:0:
314,235,88538,6,0,P|313:185|251:108,1,135,2|2,3:2|0:2,0:0:0:0:
191,98,89026,1,8,0:2:0:0:
129,233,89270,1,2,0:2:0:0:
129,233,89392,1,2,0:2:0:0:
129,233,89514,2,0,P|131:261|144:296,2,45,0|2|2,3:0|0:2|0:2,0:0:0:0:
269,115,90002,6,0,P|318:152|418:126,1,135,10|2,0:2|0:0,0:0:0:0:
440,87,90489,1,0,3:2:0:0:
512,211,90734,5,2,0:2:0:0:
512,211,90856,1,2,0:2:0:0:
512,211,90978,2,0,P|513:240|505:271,1,45,8|2,0:2|0:2,0:0:0:0:
434,366,91221,1,0,0:0:0:0:
378,169,91465,5,2,3:2:0:0:
324,322,91709,1,2,0:2:0:0:
324,322,91831,1,2,0:2:0:0:
324,322,91953,2,0,P|345:308|368:278,2,45,8|2|2,0:2|0:2|0:2,0:0:0:0:
109,295,92441,6,0,P|174:300|220:347,1,135,2|2,3:2|0:2,0:0:0:0:
155,381,92928,1,8,0:2:0:0:
219,181,93172,1,2,0:2:0:0:
219,181,93294,1,2,0:2:0:0:
219,181,93416,2,0,L|233:119,2,45,2|2|2,3:2|0:2|0:2,0:0:0:0:
35,314,93904,6,0,P|97:276|168:281,1,135,10|8,0:2|0:2,0:0:0:0:
232,348,94392,1,0,3:0:0:0:
203,201,94636,5,10,0:2:0:0:
198,147,94757,2,0,P|210:121|236:101,1,45,0|0,3:0|3:0,0:0:0:0:
382,187,95002,5,10,0:2:0:0:
378,255,95123,2,0,P|366:281|340:301,2,45,0|0|6,3:0|3:0|0:2,0:0:0:0:
222,31,95855,6,0,P|260:59|334:60,1,90,14|0,0:2|0:0,0:0:0:0:
505,15,96343,2,0,P|477:80|461:160,1,135,2|2,3:2|0:2,0:0:0:0:
483,214,96831,1,8,0:2:0:0:
373,115,97075,1,2,0:2:0:0:
309,307,97318,5,2,3:2:0:0:
363,108,97562,1,2,0:2:0:0:
217,343,97806,5,10,0:2:0:0:
271,144,98050,1,2,0:2:0:0:
123,375,98294,6,0,P|92:331|33:315,1,90,0|2,3:0|0:2,0:0:0:0:
88,155,98782,2,0,P|34:145|-18:176,1,90,10|2,0:2|0:2,0:0:0:0:
208,329,99270,5,0,3:0:0:0:
250,183,99514,1,2,0:2:0:0:
250,183,99636,1,2,0:2:0:0:
250,183,99757,2,0,P|241:152|219:129,2,45,10|2|2,0:2|0:2|0:2,0:0:0:0:
307,275,100246,6,0,P|369:230|457:223,1,135,2|2,3:2|0:2,0:0:0:0:
496,270,100734,1,10,0:2:0:0:
457,107,100977,1,2,0:2:0:0:
392,319,101221,5,2,3:2:0:0:
310,262,101709,5,2,3:2:0:0:
213,283,102197,5,2,3:2:0:0:
91,358,102685,5,10,0:2:0:0:
91,358,102806,2,0,P|81:318|42:298,1,67.5000025749208,2|0,3:2|0:0,0:0:0:0:
47,306,103172,6,0,P|97:322|183:279,1,107.999996704102,6|0,3:2|0:0,0:0:0:0:
174,234,103538,1,8,0:2:0:0:
175,224,103660,1,4,0:2:0:0:
276,363,103904,2,0,P|353:270|365:158,1,215.999993408203,2|0,3:2|0:0,0:0:0:0:
153,42,104636,1,12,0:2:0:0:
368,179,104880,6,0,P|355:152|358:125,1,53.9999983520508
512,237,105124,2,0,P|463:262|386:250,1,107.999996704102,6|0,3:2|0:0,0:0:0:0:
320,248,105490,5,8,0:2:0:0:
320,248,105612,2,0,L|333:340,1,90,4|2,0:2|3:2,0:0:0:0:
161,125,106099,2,0,L|146:232,1,101.250003862381,4|0,0:2|0:0,0:0:0:0:
145,250,106587,1,12,0:2:0:0:
225,368,106831,2,0,L|229:335,1,33.7500012874604
258,267,107075,6,0,P|303:236|368:247,1,107.999996704102,2|0,3:2|0:0,0:0:0:0:
434,310,107440,1,8,0:2:0:0:
284,119,107807,6,0,P|222:137|130:266,1,215.999993408203,2|0,3:2|0:0,0:0:0:0:
330,342,108539,1,14,0:2:0:0:
330,342,108782,1,0,0:0:0:0:
0,154,109026,6,0,P|46:181|72:248,1,107.999996704102,6|0,3:2|0:0,0:0:0:0:
161,304,109392,1,10,0:2:0:0:
169,297,109514,2,0,P|187:257|182:208,1,90,4|2,0:2|3:2,0:0:0:0:
77,102,110001,5,4,0:2:0:0:
240,310,110367,2,0,L|243:287,1,16.8750006437302,8|0,0:2|3:0,0:0:0:0:
268,320,110489,1,8,0:2:0:0:
319,308,110610,1,8,0:2:0:0:
370,297,110732,1,0,3:0:0:0:
421,286,110854,1,8,0:2:0:0:
475,311,110978,6,0,L|491:211,1,101.250003862381,6|8,3:2|0:2,0:0:0:0:
442,53,111709,2,0,B|387:37|337:78|337:78|290:119|218:96,1,225,2|0,3:2|0:0,0:0:0:0:
191,27,112440,1,10,0:2:0:0:
191,27,112685,1,2,0:2:0:0:
32,159,112929,6,0,P|86:160|158:226,1,135,6|10,3:2|0:2,0:0:0:0:
19,375,113660,2,0,P|26:338|61:243,1,135.000005149842,2|0,3:2|0:0,0:0:0:0:
307,100,114392,1,10,0:2:0:0:
415,81,114636,1,0,0:0:0:0:
299,118,114879,6,0,P|248:107|213:81,3,67.5000025749208,4|2|2|2,0:2|0:2|0:2|0:2,0:0:0:0:
188,31,115855,5,2,3:2:0:0:
115,37,116099,1,2,3:2:0:0:
41,80,116343,1,2,3:2:0:0:
19,174,116587,1,2,3:2:0:0:
87,258,116831,5,2,3:2:0:0:
155,105,117075,1,2,3:2:0:0:
196,327,117318,1,2,3:2:0:0:
247,62,117562,1,2,3:2:0:0:
314,368,117806,5,10,0:2:0:0:
314,368,118782,6,0,P|285:262|214:186,1,202.500007724762,6|0,3:2|3:0,0:0:0:0:
85,221,119270,2,0,P|104:242|159:249,1,67.5000025749208,10|2,0:2|0:2,0:0:0:0:
312,162,119514,6,0,P|353:61|511:35,1,270.000010299683,2|0,3:2|3:0,0:0:0:0:
512,283,120245,1,10,0:2:0:0:
446,305,120367,1,8,0:2:0:0:
378,296,120489,2,0,P|346:283|321:246,1,67.5000025749208,2|0,3:2|0:0,0:0:0:0:
240,87,120733,6,0,P|161:102|109:209,1,202.500007724762,2|0,3:2|3:0,0:0:0:0:
171,261,121221,1,10,0:2:0:0:
16,28,121465,2,0,P|-18:99|28:297,1,270.000010299683,2|0,3:2|3:0,0:0:0:0:
211,373,122197,6,0,P|236:348|272:342,1,67.5000025749208,10|0,0:2|0:0,0:0:0:0:
280,219,122440,2,0,P|257:196|224:187,1,67.5000025749208
461,374,122684,6,0,P|468:352|467:327,3,45,2|0|0|0,3:2|3:0|3:0|3:0,0:0:0:0:
487,249,123172,2,0,P|455:194|467:128,1,90,2|0,0:2|3:0,0:0:0:0:
504,66,123538,1,0,2:0:0:0:
499,108,123660,1,10,2:2:0:0:
332,226,123904,5,2,2:2:0:0:
289,179,124026,1,2,2:2:0:0:
231,154,124148,1,2,0:2:0:0:
170,154,124270,1,10,0:2:0:0:
112,180,124392,1,2,3:2:0:0:
72,227,124514,1,2,3:2:0:0:
57,126,124798,6,0,P|82:100|129:90,1,60,2|2,3:2|3:2,0:0:0:0:
170,146,125123,6,0,P|204:136|249:151,1,60,2|2,3:2|3:2,0:0:0:0:
394,267,125489,6,0,P|418:251|476:247,2,45,2|10|2,3:2|0:2|3:2,0:0:0:0:
361,339,125855,2,0,P|357:361|359:383,1,45,2|0,3:2|3:0,0:0:0:0:
512,364,126099,5,10,0:2:0:0:
280,256,126343,1,10,0:2:0:0:
60,367,126587,6,0,P|67:288|-15:180,1,202.500007724762,6|0,3:2|3:0,0:0:0:0:
10,63,127075,2,0,P|42:73|70:91,1,67.5000025749208,10|2,0:2|0:2,0:0:0:0:
266,199,127318,6,0,P|390:227|465:124,1,270.000010299683,2|0,3:2|3:0,0:0:0:0:
215,25,128049,1,10,0:2:0:0:
192,92,128171,1,8,0:2:0:0:
210,161,128294,2,0,P|230:188|271:214,1,67.5000025749208,2|0,3:2|0:0,0:0:0:0:
431,33,128538,6,0,P|341:42|299:150,1,202.500007724762,2|0,3:2|3:0,0:0:0:0:
370,206,129025,1,10,0:2:0:0:
165,227,129270,2,0,P|233:209|285:380,1,270.000010299683,2|0,3:2|3:0,0:0:0:0:
37,330,130001,6,0,P|8:304|-1:262,1,67.5000025749208,10|0,0:2|0:0,0:0:0:0:
64,131,130245,2,0,P|41:152|31:205,1,67.5000025749208,0|0,0:2|0:0,0:0:0:0:
180,353,130489,5,2,3:2:0:0:
175,328,130610,1,2,3:2:0:0:
173,306,130732,1,2,3:2:0:0:
171,284,130854,1,2,3:2:0:0:
169,262,130977,2,0,L|159:189,1,45,10|0,0:2|0:0,0:0:0:0:
109,153,131221,5,2,3:2:0:0:
109,153,131343,2,0,L|45:137,2,45,0|2|2,3:0|3:2|3:2,0:0:0:0:
242,195,131953,2,0,L|285:205,1,45,10|2,0:2|3:2,0:0:0:0:
123,55,132440,5,2,0:2:0:0:
276,94,132684,1,2,3:2:0:0:
276,94,132806,1,2,3:2:0:0:
276,94,132928,2,0,L|319:104,2,45,10|2|0,0:2|3:2|0:0,0:0:0:0:
90,265,133416,5,2,3:2:0:0:
58,305,133538,1,0,3:0:0:0:
89,350,133660,1,0,3:0:0:0:
140,338,133782,1,0,3:0:0:0:
143,283,133904,2,0,P|185:257|238:254,1,90,10|0,0:2|3:0,0:0:0:0:
340,275,134270,1,0,3:0:0:0:
285,301,134392,6,0,P|316:217|421:114,2,202.500007724762,6|2|2,0:2|3:2|3:2,0:0:0:0:
512,382,135367,2,0,P|488:339|449:316,1,67.5000025749208,10|0,0:2|0:0,0:0:0:0:
291,311,135611,6,0,P|219:355|144:340,1,135
7,84,136343,2,0,P|67:165|103:260,2,202.500007724762,6|2|2,0:2|3:2|3:2,0:0:0:0:
228,384,137318,1,10,0:2:0:0:
310,297,137562,2,0,P|310:234|331:165,1,108
470,200,138310,6,0,P|470:268|447:343,1,135,2|2,3:2|0:2,0:0:0:0:
327,368,139325,2,0,L|208:354,1,108,2|2,0:2|0:2,0:0:0:0:
157,303,140337,2,0,P|144:318|140:327,4,18,2|2|2|2|2,0:2|0:2|0:2|0:2|0:2,0:0:0:0:
221,203,141221,5,2,3:2:0:0:
234,201,141342,1,2,3:2:0:0:
247,196,141464,1,2,3:2:0:0:
258,187,141586,1,2,3:2:0:0:
265,175,141708,5,2,3:2:0:0:
319,162,141829,1,2,3:2:0:0:
372,179,141951,1,2,3:2:0:0:
410,220,142073,1,2,3:2:0:0:
414,277,142197,6,0,P|383:224|482:203,1,180,6|0,3:2|0:0,0:0:0:0:
256,192,151216,12,0,153045,0:0:0:0:
157,253,153187,5,10,0:2:0:0:
162,243,153319,2,0,P|151:211|131:186,2,45,2|2|2,0:2|0:2|0:2,0:0:0:0:
243,262,153654,5,2,0:2:0:0:
248,252,153775,1,2,0:2:0:0:
254,242,153897,1,2,0:2:0:0:
262,234,154019,1,2,0:2:0:0:
270,226,154141,2,0,P|292:205|331:190,2,45,2|2|2,0:2|0:2|0:2,0:0:0:0:
321,284,154530,6,0,P|370:309|327:273,1,161.999995056153,2|0,0:2|0:0,0:0:0:0:
309,280,155620,6,0,P|320:321|368:331,1,90,6|0,3:2|0:0,0:0:0:0:
471,224,156107,2,0,P|429:213|397:249,1,90,0|2,3:0|0:2,0:0:0:0:
299,294,156595,5,0,3:0:0:0:
290,306,156717,2,0,P|248:312|219:272,1,90,2|0,0:2|0:0,0:0:0:0:
212,203,157083,2,0,P|233:155|269:114,1,90,2|2,3:2|0:2,0:0:0:0:
101,266,157571,6,0,P|65:196|60:121,1,135,2|2,3:2|0:2,0:0:0:0:
73,67,158059,1,0,3:0:0:0:
240,124,158302,2,0,P|220:136|191:145,2,45,2|2|0,0:2|0:2|3:0,0:0:0:0:
301,51,158668,6,0,P|323:57|346:70,1,45,0|6,0:0|0:2,0:0:0:0:
462,197,159034,1,0,3:0:0:0:
462,197,159156,2,0,P|479:182|498:171,2,45,6|0|2,0:2|0:0|0:2,0:0:0:0:
403,252,159522,6,0,P|342:266|289:224,1,135,2|2,3:2|0:2,0:0:0:0:
321,154,160010,1,0,3:0:0:0:
231,284,160254,6,0,P|181:220|74:218,1,180,2|0,0:2|0:0,0:0:0:0:
7,367,160985,2,0,L|18:277,1,90,2|2,3:2|0:2,0:0:0:0:
40,74,161473,1,2,3:2:0:0:
138,189,162693,6,0,P|115:199|76:199,1,62.9999980773926,14|0,0:2|0:0,0:0:0:0:
241,35,163424,6,0,P|287:35|338:71,1,90,6|0,3:2|0:0,0:0:0:0:
378,242,163912,1,10,0:2:0:0:
378,242,164034,2,0,P|355:202|360:139,1,90,2|0,0:2|3:0,0:0:0:0:
397,97,164400,2,0,L|499:79,1,90,2|0,0:2|3:0,0:0:0:0:
192,41,164888,1,10,0:2:0:0:
255,246,165132,2,0,L|264:198,1,45,0|2,0:0|0:2,0:0:0:0:
292,12,165376,5,0,3:0:0:0:
254,210,165620,1,2,0:2:0:0:
73,136,165863,2,0,P|56:107|50:75,1,45,10|2,0:2|0:2,0:0:0:0:
115,0,166107,2,0,P|108:21|110:48,2,45,0|2|0,0:0|3:2|0:0,0:0:0:0:
242,113,166595,6,0,P|287:128|338:118,1,90,2|8,3:2|0:2,0:0:0:0:
396,63,166961,2,0,P|360:39|326:36,1,67.5000025749208,2|0,3:2|0:0,0:0:0:0:
494,218,167327,6,0,P|449:212|407:227,1,90,6|0,3:2|0:0,0:0:0:0:
257,345,167815,1,10,0:2:0:0:
257,345,167937,2,0,P|302:351|344:336,1,90,2|0,0:2|0:0,0:0:0:0:
407,226,168303,2,0,L|418:132,1,90,2|2,0:2|3:2,0:0:0:0:
183,346,168790,1,8,0:2:0:0:
187,362,168912,1,0,0:0:0:0:
18,146,169278,6,0,L|120:131,1,90,0|2,3:0|0:2,0:0:0:0:
351,26,169766,1,10,0:2:0:0:
298,46,169887,1,2,0:2:0:0:
265,91,170009,1,2,0:2:0:0:
261,146,170131,1,2,0:2:0:0:
434,261,170498,6,0,P|408:234|359:229,1,67.5000025749208,2|0,3:2|0:0,0:0:0:0:
281,309,170863,6,0,P|256:331|223:338,1,67.5000025749208,2|0,3:2|0:0,0:0:0:0:
26,192,171229,6,0,B|61:183|90:197|90:197|122:214|158:201,1,135,6|0,3:2|0:0,0:0:0:0:
208,142,171717,2,0,L|219:47,1,90,10|2,0:2|0:2,0:0:0:0:
293,7,172083,2,0,P|358:10|397:63,1,135,0|0,3:0|3:0,0:0:0:0:
388,188,172693,1,8,0:2:0:0:
212,50,172937,1,0,0:0:0:0:
465,225,173180,6,0,P|398:218|349:270,1,135,2|0,3:2|0:0,0:0:0:0:
278,321,173668,2,0,P|252:269|262:232,1,90,10|2,0:2|0:2,0:0:0:0:
351,261,174034,1,2,3:2:0:0:
117,350,174400,5,2,3:2:0:0:
117,350,174644,2,0,P|103:324|102:270,3,45,10|0|2|2,0:2|0:0|0:2|0:2,0:0:0:0:
17,260,175132,6,0,P|69:245|102:200,1,90,2|2,3:2|0:2,0:0:0:0:
167,0,175619,2,0,P|129:38|123:94,1,90,10|2,0:0|0:2,0:0:0:0:
202,134,175985,1,2,0:2:0:0:
202,134,176107,2,0,P|239:95|245:39,1,90,0|0,3:0|3:0,0:0:0:0:
319,244,176595,1,8,0:2:0:0:
394,67,176839,6,0,B|397:116|445:146|445:146|504:185|500:235|446:268|403:227|410:195,1,270.000010299683,2|0,3:2|0:0,0:0:0:0:
488,69,178059,1,0,3:0:0:0:
400,233,178302,5,6,3:2:0:0:
310,3,178668,5,4,3:2:0:0:
175,153,179034,6,0,P|156:209|152:262,1,90,6|0,3:2|0:0,0:0:0:0:
335,296,179522,1,10,0:2:0:0:
335,296,179644,2,0,P|330:263|314:231,1,45,2|2,0:2|0:2,0:0:0:0:
115,315,180010,6,0,L|203:331,1,90,2|0,0:2|3:0,0:0:0:0:
399,369,180498,1,8,0:2:0:0:
294,380,180741,1,2,3:2:0:0:
444,259,180985,6,0,P|482:277|512:329,1,90,0|2,3:0|0:2,0:0:0:0:
243,211,181473,1,10,0:2:0:0:
257,163,181595,1,2,0:2:0:0:
296,131,181717,1,2,0:2:0:0:
345,112,181839,1,2,3:2:0:0:
345,112,182205,6,0,P|306:135|227:105,1,116.999994644165,2|8,3:2|0:2,0:0:0:0:
186,58,182571,2,0,P|187:24|205:-4,1,58.4999973220826,2|0,3:2|0:0,0:0:0:0:
291,239,182937,6,0,P|244:217|186:230,1,90,2|0,3:2|0:0,0:0:0:0:
21,339,183424,2,0,P|75:357|133:344,1,90,8|0,0:2|0:0,0:0:0:0:
192,235,183912,1,2,0:2:0:0:
192,235,184034,2,0,P|193:210|187:182,2,45,0|0|0,0:0|3:0|0:0,0:0:0:0:
247,281,184400,2,0,P|287:284|333:265,1,90,8|0,0:2|0:0,0:0:0:0:
510,255,184888,5,10,3:2:0:0:
428,296,185375,5,10,3:2:0:0:
399,384,185863,5,10,3:2:0:0:
444,133,186351,5,8,3:2:0:0:
444,133,186473,2,0,P|419:112|382:111,1,67.5000025749208,2|0,3:2|0:0,0:0:0:0:
372,126,186839,6,0,P|323:159|273:149,1,107.999996704102,6|0,3:2|0:0,0:0:0:0:
223,88,187205,1,8,0:2:0:0:
222,78,187327,1,4,0:2:0:0:
71,222,187571,2,0,L|37:9,1,215.999993408203,0|0,3:0|0:0,0:0:0:0:
140,141,188303,1,12,0:2:0:0:
140,141,188546,2,0,L|131:87,1,53.9999983520508
261,0,188791,6,0,P|314:-2|361:23,1,107.999996704102,2|0,3:2|0:0,0:0:0:0:
425,105,189156,1,10,0:2:0:0:
425,105,189278,2,0,P|478:107|519:83,1,90,4|2,0:2|3:2,0:0:0:0:
305,169,189766,2,0,P|333:199|401:219,1,101.250003862381,4|0,0:2|0:0,0:0:0:0:
413,209,190254,1,14,0:2:0:0:
288,262,190498,2,0,P|288:278|292:294,1,33.7500012874604,2|0,0:2|0:0,0:0:0:0:
512,365,190741,6,0,P|472:344|392:339,1,107.999996704102,2|0,3:2|0:0,0:0:0:0:
335,373,191107,1,8,0:2:0:0:
135,225,191474,6,0,P|121:121|86:-15,1,215.999993408203,0|0,3:0|0:0,0:0:0:0:
40,281,192206,1,12,0:2:0:0:
40,281,192449,1,0,0:0:0:0:
206,219,192693,6,0,P|262:203|334:200,1,107.999996704102,6|0,3:2|0:0,0:0:0:0:
390,250,193059,1,10,0:2:0:0:
390,250,193180,2,0,P|386:205|404:164,1,90,6|2,0:2|3:2,0:0:0:0:
493,17,193668,6,0,P|490:31|481:49,5,22.5000008583069,4|8|8|8|8|8,0:2|0:2|0:2|0:2|0:2|0:2,0:0:0:0:
418,64,194156,5,0,3:0:0:0:
406,65,194237,1,0,3:0:0:0:
395,67,194319,1,0,3:0:0:0:
384,69,194400,1,2,3:2:0:0:
373,71,194481,1,0,3:0:0:0:
362,73,194563,1,0,3:0:0:0:
351,75,194645,6,0,P|297:87|239:96,1,101.250003862381,6|8,3:2|0:2,0:0:0:0:
86,178,195376,2,0,P|160:186|230:200,1,135.000005149842,2|0,3:2|0:0,0:0:0:0:
365,369,196107,6,0,P|349:338|351:308,1,33.7500012874604,10|0,0:2|0:0,0:0:0:0:
396,198,196351,1,2,0:2:0:0:
122,334,196596,6,0,P|55:328|5:285,1,135,6|10,3:2|0:2,0:0:0:0:
102,96,197327,2,0,P|137:190|147:232,1,135.000005149842,2|0,3:2|0:0,0:0:0:0:
436,343,198059,1,10,0:2:0:0:
465,225,198302,1,0,0:0:0:0:
237,349,198546,6,0,P|186:338|151:312,1,67.5000025749208,4|2,0:2|3:2,0:0:0:0:
74,326,199034,2,0,P|45:282|39:239,1,67.5000025749208,2|2,3:2|3:2,0:0:0:0:
79,139,199522,5,2,3:2:0:0:
173,244,199766,1,2,3:2:0:0:
173,244,199888,1,2,0:2:0:0:
173,244,200010,1,2,3:2:0:0:
30,286,200254,1,2,3:2:0:0:
62,127,200498,5,2,3:2:0:0:
178,41,200742,1,2,3:2:0:0:
166,255,200985,1,2,3:2:0:0:
301,29,201229,1,2,3:2:0:0:
492,379,201473,5,14,0:2:0:0:
492,379,202449,6,0,P|394:315|390:215,1,202.500007724762,6|0,3:2|3:0,0:0:0:0:
508,150,202937,2,0,P|489:171|434:178,1,67.5000025749208,10|2,0:2|0:2,0:0:0:0:
229,123,203180,6,0,P|167:42|1:27,1,270.000010299683,2|0,3:2|3:0,0:0:0:0:
24,295,203912,1,10,0:2:0:0:
94,283,204034,1,8,0:2:0:0:
149,237,204156,2,0,P|162:205|164:157,1,67.5000025749208,2|0,3:2|0:0,0:0:0:0:
252,11,204400,6,0,P|347:8|430:80,1,202.500007724762,2|0,3:2|3:0,0:0:0:0:
456,167,204888,1,10,0:2:0:0:
179,75,205132,2,0,P|258:146|244:328,1,270.000010299683,2|2,3:2|3:2,0:0:0:0:
59,384,205864,6,0,P|26:377|0:357,1,67.5000025749208,10|0,0:2|0:0,0:0:0:0:
54,187,206107,2,0,P|86:193|113:213,1,67.5000025749208
268,311,206351,6,0,L|274:354,3,45,2|0|0|0,3:2|3:0|3:0|3:0,0:0:0:0:
173,370,206839,1,2,0:2:0:0:
176,333,206960,1,8,0:2:0:0:
180,295,207083,2,0,L|184:248,1,45,0|0,3:0|3:0,0:0:0:0:
208,58,207327,1,10,0:2:0:0:
281,304,207571,5,2,3:2:0:0:
338,322,207693,1,2,3:2:0:0:
402,315,207815,1,2,0:2:0:0:
455,284,207937,1,10,0:2:0:0:
491,233,208059,1,2,3:2:0:0:
503,172,208180,1,2,3:2:0:0:
309,136,208465,6,0,P|315:165|332:189,1,60,2|2,3:2|3:2,0:0:0:0:
298,289,208790,6,0,P|270:276|250:255,1,60,2|2,3:2|3:2,0:0:0:0:
102,143,209156,6,0,P|101:120|107:98,2,45,2|10|2,3:2|0:2|3:2,0:0:0:0:
127,235,209522,2,0,P|139:253|156:267,1,45,2|0,3:2|3:0,0:0:0:0:
310,278,209766,5,10,0:2:0:0:
236,12,210010,1,10,0:2:0:0:
332,349,210254,6,0,P|373:234|461:174,1,202.500007724762,6|0,3:2|3:0,0:0:0:0:
512,258,210742,2,0,P|496:287|448:306,1,67.5000025749208,10|2,0:2|0:2,0:0:0:0:
301,173,210985,6,0,B|235:152|179:203|179:203|117:258|47:231,1,270.000010299683,2|0,3:2|3:0,0:0:0:0:
67,1,211716,1,10,0:0:0:0:
134,0,211838,1,2,0:0:0:0:
183,60,211961,2,0,P|184:85|168:128,1,67.5000025749208,2|0,3:2|0:0,0:0:0:0:
0,246,212205,6,0,P|101:263|211:219,1,202.500007724762,2|0,3:2|3:0,0:0:0:0:
169,138,212692,1,10,0:2:0:0:
272,343,212937,2,0,P|380:265|512:269,1,270.000010299683,2|0,3:2|3:0,0:0:0:0:
211,381,213668,6,0,P|171:382|135:359,1,67.5000025749208,10|0,0:2|0:0,0:0:0:0:
52,225,213912,2,0,P|48:257|60:288,1,67.5000025749208
315,292,214156,5,2,3:2:0:0:
318,268,214277,1,2,3:2:0:0:
320,246,214399,1,2,3:2:0:0:
322,224,214521,1,2,3:2:0:0:
324,202,214644,2,0,L|331:126,1,45,10|0,0:2|0:0,0:0:0:0:
272,72,214888,5,2,3:2:0:0:
272,72,215010,2,0,L|208:56,2,45,0|2|2,3:0|3:2|3:2,0:0:0:0:
393,78,215620,2,0,L|436:68,1,45,10|2,0:2|3:2,0:0:0:0:
244,156,216107,5,2,0:2:0:0:
407,194,216351,1,2,3:2:0:0:
407,194,216473,1,2,3:2:0:0:
407,194,216595,2,0,L|450:204,2,45,10|2|0,0:2|3:2|0:0,0:0:0:0:
271,246,217083,5,2,3:2:0:0:
231,246,217205,1,0,3:0:0:0:
193,231,217327,1,0,3:0:0:0:
165,205,217449,1,0,3:0:0:0:
147,170,217571,2,0,P|97:176|63:206,1,90,10|0,0:2|3:0,0:0:0:0:
33,283,217937,1,0,3:0:0:0:
81,305,218059,6,0,P|59:218|-6:116,2,202.500007724762,6|2|2,0:2|3:2|3:2,0:0:0:0:
262,384,219034,2,0,P|274:340|295:311,1,67.5000025749208,10|0,0:2|0:0,0:0:0:0:
355,258,219278,6,0,P|429:285|507:264,1,135
512,21,220010,2,0,P|466:88|422:214,2,202.500007724762,6|2|2,3:2|3:2|3:2,0:0:0:0:
500,290,220985,1,10,0:2:0:0:
424,201,221229,2,0,P|415:143|387:91,1,108
169,275,221961,5,2,3:2:0:0:
215,266,222082,1,0,3:0:0:0:
258,248,222204,1,0,3:0:0:0:
296,217,222326,1,0,3:0:0:0:
325,180,222448,1,10,0:2:0:0:
31,79,222693,5,2,3:2:0:0:
69,114,222814,1,0,3:0:0:0:
118,127,222936,1,2,3:2:0:0:
83,168,223059,1,0,3:2:0:0:
296,116,223424,5,10,0:2:0:0:
259,154,223546,1,0,3:2:0:0:
485,83,223912,6,0,L|447:122,1,45,2|0,0:2|0:0,0:0:0:0:
381,213,224156,1,0,3:0:0:0:
409,261,224278,1,0,3:0:0:0:
464,269,224400,2,0,P|488:258|505:237,2,45,10|0|0,0:2|0:0|0:0,0:0:0:0:
319,297,224888,5,2,3:2:0:0:
294,285,225009,1,2,3:2:0:0:
270,287,225131,1,0,3:0:0:0:
249,303,225253,1,2,3:2:0:0:
241,328,225376,5,10,3:2:0:0:
270,270,225497,1,2,3:2:0:0:
264,206,225619,1,2,3:2:0:0:
224,155,225741,1,0,3:0:0:0:
165,127,225863,6,0,P|77:149|-8:243,2,202.500007724762,6|2|2,3:2|3:2|3:2,0:0:0:0:
386,217,226839,2,0,P|417:199|436:158,1,67.5000025749208,10|0,0:2|0:0,0:0:0:0:
380,61,227083,6,0,P|389:118|453:163,1,135
512,299,227815,2,0,P|426:313|314:368,2,202.500007724762,2|2|2,3:2|3:2|3:2,0:0:0:0:
275,284,228790,2,0,P|311:260|343:252,1,67.5000025749208,10|0,0:2|0:0,0:0:0:0:
439,191,229034,6,0,P|407:185|370:167,1,67.5
254,59,229766,6,0,P|152:56|64:119,2,202.500007724762,2|2|2,3:2|3:2|3:2,0:0:0:0:
470,283,230741,1,10,0:2:0:0:
473,13,231229,2,0,P|442:34|422:74,1,72,2|0,0:2|0:0,0:0:0:0:
416,156,231717,6,0,P|471:234|489:315,2,161.999995056153,2|2|2,3:2|3:2|3:2,0:0:0:0:
235,235,232693,2,0,P|196:271|105:286,1,144,10|2,0:2|0:2,0:0:0:0:
5,144,233424,2,0,P|30:151|47:166,1,36
51,232,233668,6,0,P|76:100|127:39,2,202.500007724762,2|2|2,3:2|3:2|3:2,0:0:0:0:
184,347,234644,1,10,0:2:0:0:
277,297,234888,1,0,3:0:0:0:
349,352,235132,1,2,3:2:0:0:
414,321,235376,1,0,3:0:0:0:
171,335,235619,5,10,0:2:0:0:
486,370,235985,1,10,0:2:0:0:
197,207,236351,1,10,0:2:0:0:
425,167,236595,1,10,0:2:0:0:
101,267,237083,6,0,P|59:250|14:250,1,90,10|0,0:2|0:0,0:0:0:0:
211,348,237565,5,10,0:2:0:0:
209,333,237682,1,8,0:2:0:0:
207,318,237799,1,8,0:2:0:0:
205,303,237916,1,8,0:2:0:0:
306,362,238268,5,10,0:2:0:0:
301,327,238385,1,8,0:2:0:0:
297,294,238502,1,8,3:2:0:0:
292,259,238619,1,8,0:2:0:0:
382,339,238971,5,10,3:2:0:0:
376,293,239088,1,8,0:2:0:0:
455,307,239440,5,0,3:0:0:0:
292,384,239674,5,10,0:2:0:0:
285,332,239791,1,8,0:2:0:0:
279,282,239908,1,8,3:2:0:0:
271,229,240025,1,8,0:2:0:0:
113,135,240377,6,0,P|104:152|100:182,3,45,10|8|8|8,3:2|0:2|0:2|0:2,0:0:0:0:
194,211,240846,5,8,0:2:0:0:
201,197,240963,1,8,0:2:0:0:
205,183,241080,1,8,0:2:0:0:
207,168,241197,1,8,0:2:0:0:
206,150,241315,5,10,0:2:0:0:
239,197,241432,1,8,0:2:0:0:
291,222,241549,1,8,0:2:0:0:
349,219,241666,1,8,3:2:0:0:
440,0,242018,5,10,0:2:0:0:
382,5,242135,1,8,0:2:0:0:
334,37,242252,1,8,3:2:0:0:
308,89,242369,1,8,0:2:0:0:
452,271,242721,5,10,3:2:0:0:
460,200,242838,1,8,0:2:0:0:
230,349,243190,6,0,L|220:290,3,45,2|2|2|2,3:2|3:2|3:2|3:2,0:0:0:0:
150,246,243658,1,8,0:2:0:0:
148,234,243775,1,2,3:2:0:0:
146,223,243892,1,2,3:2:0:0:
144,212,244009,1,10,0:2:0:0:
142,201,244126,5,2,3:2:0:0:
102,193,244244,1,10,0:2:0:0:
65,204,244361,1,10,0:2:0:0:
40,231,244478,1,10,0:2:0:0:
30,267,244595,5,2,3:2:0:0:
95,249,244713,1,10,0:2:0:0:
142,201,244830,1,2,3:2:0:0:
157,134,244947,1,2,0:2:0:0:
128,68,245065,6,0,P|93:48|37:53,1,90,14|0,0:2|0:0,0:0:0:0:
0,108,245416,1,0,3:0:0:0:
44,124,245533,1,8,0:2:0:0:
198,306,245768,1,2,3:2:0:0:
289,53,246002,1,2,3:2:0:0:
253,82,246119,1,2,3:2:0:0:
270,384,246471,5,10,0:2:0:0:
296,348,246588,2,0,P|304:303|284:247,1,90,2|0,3:2|0:0,0:0:0:0:
237,210,246940,5,2,0:2:0:0:
416,271,247174,2,0,P|407:237|391:217,1,45,2|0,3:2|0:0,0:0:0:0:
346,167,247408,1,10,0:2:0:0:
302,149,247525,1,0,3:0:0:0:
204,328,247877,5,2,3:2:0:0:
154,356,247994,1,0,3:2:0:0:
97,357,248111,1,0,3:2:0:0:
48,330,248228,1,0,3:2:0:0:
19,282,248346,2,0,P|12:252|13:226,1,45,10|0,0:2|0:2,0:0:0:0:
218,202,248580,2,0,P|224:228|223:251,1,45,2|0,0:0|0:0,0:0:0:0:
26,89,248815,6,0,P|71:49|116:41,1,90,6|0,3:2|0:0,0:0:0:0:
279,59,249283,1,8,0:2:0:0:
94,189,249518,6,0,P|103:159|117:139,1,45,2|0,3:2|0:0,0:0:0:0:
217,102,249752,1,2,0:2:0:0:
191,140,249869,1,2,0:2:0:0:
74,318,250221,1,10,0:2:0:0:
100,280,250338,1,2,0:2:0:0:
217,102,250690,5,2,0:2:0:0:
401,266,250924,2,0,L|391:207,1,45,2|0,3:2|0:0,0:0:0:0:
312,127,251158,1,10,0:2:0:0:
322,169,251275,1,0,3:0:0:0:
494,365,251627,5,2,3:2:0:0:
465,310,251744,1,0,3:2:0:0:
414,276,251861,1,0,3:2:0:0:
354,271,251978,1,0,3:2:0:0:
299,296,252095,1,10,0:2:0:0:
151,384,252330,1,2,0:0:0:0:
123,167,252565,6,0,P|185:185|220:253,1,135,6|0,3:2|3:0,0:0:0:0:
214,316,253033,1,8,0:2:0:0:
9,209,253268,6,0,P|18:173|32:154,1,45,2|0,3:2|0:0,0:0:0:0:
131,50,253502,1,2,3:2:0:0:
108,92,253619,1,0,3:0:0:0:
45,364,253971,1,10,0:2:0:0:
68,322,254088,2,0,P|90:305|117:294,1,45,2|0,3:2|0:0,0:0:0:0:
273,366,254440,5,2,0:2:0:0:
478,322,254674,2,0,P|456:305|429:294,1,45,2|0,3:2|0:0,0:0:0:0:
271,377,254908,1,10,0:2:0:0:
318,365,255025,1,2,3:2:0:0:
455,87,255377,5,2,3:2:0:0:
410,91,255494,1,0,3:2:0:0:
365,99,255611,1,0,3:0:0:0:
322,110,255728,1,0,3:0:0:0:
278,126,255846,1,10,0:2:0:0:
62,276,256080,5,0,3:0:0:0:
133,257,256198,1,0,3:0:0:0:
170,189,256315,6,0,P|9:101|-31:109,2,202.500007724762,6|2|2,3:2|3:2|3:2,0:0:0:0:
313,377,257252,2,0,P|328:345|329:299,2,67.5000025749208,10|2|2,0:2|0:2|0:2,0:0:0:0:
200,371,257955,1,2,0:2:0:0:
296,134,258190,6,0,P|408:158|459:244,1,202.500007724762,2|2,3:2|0:2,0:0:0:0:
433,308,258658,1,2,0:2:0:0:
512,156,258893,1,2,3:2:0:0:
337,327,259127,6,0,L|248:336,1,67.5000025749208,2|0,3:2|0:0,0:0:0:0:
131,344,259361,1,2,3:2:0:0:
154,308,259479,2,0,L|372:333,1,202.500007724762,8|10,0:2|0:2,0:0:0:0:
507,83,260065,6,0,P|458:78|399:121,1,107.999996704102,14|0,0:2|0:0,0:0:0:0:
432,225,260416,1,0,3:0:0:0:
443,172,260533,1,8,0:2:0:0:
275,48,260768,6,0,P|262:79|259:118,1,53.9999983520508,2|0,3:2|0:0,0:0:0:0:
225,254,261002,1,2,3:2:0:0:
215,196,261119,1,2,3:2:0:0:
46,42,261471,1,10,0:2:0:0:
56,100,261588,1,2,3:2:0:0:
234,264,261940,5,0,0:0:0:0:
296,0,262174,1,2,3:2:0:0:
511,185,262408,6,0,P|482:181|445:165,1,53.9999983520508,10|0,0:0|3:0,0:0:0:0:
300,19,262643,1,0,0:0:0:0:
512,204,262877,6,0,P|461:225|388:220,1,107.999996704102,2|0,3:2|3:0,0:0:0:0:
301,174,263229,1,0,3:2:0:0:
357,162,263346,1,10,0:2:0:0:
390,370,263580,1,0,3:0:0:0:
331,384,263697,1,8,0:2:0:0:
271,365,263815,6,0,P|223:332|101:343,1,161.999995056153,6|0,3:2|3:0,0:0:0:0:
47,384,264283,1,8,0:2:0:0:
134,146,264518,5,2,3:2:0:0:
116,83,264635,1,0,0:0:0:0:
70,31,264752,2,0,P|45:20|10:16,1,53.9999983520508,2|2,0:2|0:2,0:0:0:0:
205,233,265221,5,10,0:2:0:0:
252,177,265338,2,0,P|252:145|238:110,1,53.9999983520508,2|0,0:2|0:0,0:0:0:0:
44,263,265690,1,2,0:2:0:0:
264,371,265924,1,2,3:2:0:0:
423,202,266158,6,0,P|389:207|351:231,1,53.9999983520508,10|0,0:2|3:0,0:0:0:0:
274,380,266393,1,0,0:0:0:0:
512,224,266627,6,0,P|499:159|466:113,1,107.999996704102,2|0,3:2|3:0,0:0:0:0:
390,72,266979,1,0,3:0:0:0:
343,123,267096,2,0,P|316:135|280:140,1,53.9999983520508,10|2,0:2|3:2,0:0:0:0:
23,211,267447,1,0,0:0:0:0:
45,169,267565,6,0,P|120:166|166:249,1,161.999995056153,6|0,3:2|3:0,0:0:0:0:
105,308,268033,1,8,0:2:0:0:
254,63,268268,2,0,P|288:46|323:39,1,53.9999983520508,2|0,3:2|0:0,0:0:0:0:
440,42,268502,1,2,3:2:0:0:
395,37,268619,1,2,3:2:0:0:
507,206,268971,5,10,0:2:0:0:
457,198,269088,2,0,P|429:197|396:208,1,53.9999983520508,2|0,3:2|0:0,0:0:0:0:
251,295,269440,1,2,0:2:0:0:
469,356,269674,1,2,3:2:0:0:
228,202,269908,2,0,P|187:218|143:265,1,107.999996704102,10|2,0:2|0:2,0:0:0:0:
340,116,270377,6,0,P|340:90|334:66,5,35.9999989013672,14|8|8|8|8|8,0:2|0:2|0:2|0:2|0:2|0:2,0:0:0:0:
266,28,270846,1,0,3:0:0:0:
248,24,270924,1,0,3:0:0:0:
230,23,271002,1,0,3:0:0:0:
212,25,271080,1,0,3:0:0:0:
195,31,271158,1,0,3:0:0:0:
180,40,271236,1,0,3:0:0:0:
166,52,271315,6,0,P|115:120|85:265,2,202.500007724762,6|2|2,3:2|3:2|3:2,0:0:0:0:
394,172,272252,2,0,P|370:189|344:192,1,45,10|0,0:2|0:0,0:0:0:0:
350,262,272486,2,0,P|321:257|300:240,1,45,2|0,0:2|0:0,0:0:0:0:
255,294,272721,2,0,P|238:270|234:244,1,45,2|0,0:2|0:0,0:0:0:0:
165,249,272955,2,0,P|169:220|186:199,1,45,2|0,0:2|0:0,0:0:0:0:
155,99,273190,6,0,P|104:95|62:135,1,108,6|0,3:2|0:0,0:0:0:0:
96,217,274127,2,0,P|147:221|189:181,1,108,6|0,3:2|0:0,0:0:0:0:
277,68,275065,6,0,L|285:165,1,90,2|0,3:2|0:0,0:0:0:0:
314,236,275416,1,2,0:2:0:0:
314,236,275533,2,0,P|403:268|463:205,1,180,2|0,3:2|3:0,0:0:0:0:
381,127,276236,5,2,0:2:0:0:
381,127,276353,1,2,0:2:0:0:
381,127,276471,2,0,P|376:150|389:197,2,45,2|2|2,3:2|0:2|0:2,0:0:0:0:
287,29,276939,2,0,P|228:61|196:152,1,135,2|2,3:2|0:2,0:0:0:0:
207,236,277525,1,2,0:2:0:0:
307,317,277760,5,2,0:2:0:0:
307,317,277877,2,0,P|277:303|233:301,1,45,2|0,3:2|0:0,0:0:0:0:
189,337,278111,1,2,0:2:0:0:
189,337,278229,1,2,0:2:0:0:
189,337,278346,2,0,P|145:343|99:375,1,90,2|2,3:2|0:2,0:0:0:0:
12,259,278815,6,0,P|56:253|102:221,1,90,2|0,3:2|0:0,0:0:0:0:
132,121,279283,2,0,P|130:85|110:44,2,67.5,2|2|2,3:2|0:2|0:2,0:0:0:0:
93,211,279752,5,2,3:2:0:0:
232,149,279986,1,2,0:2:0:0:
232,149,280104,1,2,0:2:0:0:
232,149,280221,2,0,P|260:149|287:157,1,45,2|0,3:2|0:0,0:0:0:0:
349,167,280455,2,0,P|366:183|378:202,1,45,2|0,0:2|0:0,0:0:0:0:
324,342,280706,6,0,P|362:253|468:267,1,202.500007724762,6|0,3:2|0:0,0:0:0:0:
453,370,281409,6,0,P|370:280|318:71,1,323.999990112305,6|0,3:2|0:0,0:0:0:0:
390,17,282112,5,14,0:2:0:0:
380,150,282815,6,0,P|357:158|310:157,1,45,2|2,0:2|0:2,0:0:0:0:
278,80,283058,1,2,0:2:0:0:
278,80,283180,2,0,P|293:81|307:85,1,22.5,2|2,0:2|0:2,0:0:0:0:
171,144,283384,5,2,0:2:0:0:
151,139,283514,6,0,P|124:127|102:104,2,51.0000009727478,2|2|2,0:2|0:2|0:2,0:0:0:0:
229,180,283757,6,0,P|247:176|265:168,2,38.2500007295609,2|2|2,0:2|0:2|0:2,0:0:0:0:
152,226,283992,5,2,0:2:0:0:
139,236,284068,5,2,0:2:0:0:
127,255,284145,5,2,0:2:0:0:
118,280,284222,5,2,0:2:0:0:
120,319,284299,6,0,L|128:357,1,30,2|2,0:2|0:2,0:0:0:0:
205,381,284447,6,0,P|278:384|343:324,1,153.000002918243,6|0,3:2|0:0,0:0:0:0:
237,123,284915,2,0,P|234:160|272:206,1,76.5000014591217,10|0,0:2|0:0,0:0:0:0:
421,161,285150,2,0,P|424:124|386:78,1,76.5000014591217,6|0,0:2|0:0,0:0:0:0:
303,25,285384,5,2,3:2:0:0:
308,33,285501,1,2,0:2:0:0:
224,117,285736,5,2,0:2:0:0:
230,123,285853,1,10,0:2:0:0:
167,230,286087,6,0,P|130:124|81:67,1,175.499991966248,6|0,0:2|0:0,0:0:0:0:
15,131,286556,1,6,3:2:0:0:
169,40,286790,5,10,0:2:0:0:
180,35,286868,5,2,0:2:0:0:
192,29,286946,5,2,0:2:0:0:
203,23,287025,6,0,P|234:21|274:41,1,58.4999973220826,6|2,0:2|0:2,0:0:0:0:
351,173,287259,2,0,P|338:116|348:58,1,116.999994644165,6|2,0:2|0:2,0:0:0:0:
437,34,287611,1,2,0:2:0:0:
437,34,287728,2,0,P|439:62|430:108,3,45,10|2|6|2,0:2|0:2|0:2|0:2,0:0:0:0:
416,146,288197,5,2,3:2:0:0:
213,105,288431,1,6,0:0:0:0:
471,260,288665,1,8,0:2:0:0:
172,320,288900,1,4,0:2:0:0:
509,66,289134,6,0,P|471:73|432:97,1,58.4999973220826,4|0,0:2|0:0,0:0:0:0:
364,202,289368,2,0,P|326:195|287:171,1,58.4999973220826,6|0,0:2|0:0,0:0:0:0:
229,15,289603,1,10,0:2:0:0:
175,5,289720,1,2,0:2:0:0:
128,33,289837,1,6,0:2:0:0:
111,85,289954,1,2,0:2:0:0:
134,132,290072,5,6,3:2:0:0:
320,179,290306,1,6,0:2:0:0:
320,179,290423,1,2,0:2:0:0:
320,179,290540,2,0,P|347:161|403:153,1,58.4999973220826,10|0,0:2|0:0,0:0:0:0:
473,306,290775,2,0,P|446:324|390:332,1,58.4999973220826,6|0,3:2|0:0,0:0:0:0:
247,230,291009,5,6,0:2:0:0:
186,203,291126,1,2,0:2:0:0:
122,210,291243,1,2,0:2:0:0:
71,249,291360,1,2,0:2:0:0:
46,309,291477,1,10,0:2:0:0:
196,372,291712,6,0,L|187:322,2,38.9999982147218,2|0|0,3:2|3:0|3:0,0:0:0:0:
267,384,291947,6,0,P|299:382|338:349,1,58.4999973220826,4|2,3:2|0:2,0:0:0:0:
412,209,292181,1,2,3:2:0:0:
341,202,292298,1,2,0:2:0:0:
288,251,292415,1,10,0:2:0:0:
203,51,292650,5,6,0:2:0:0:
161,108,292767,1,2,0:2:0:0:
177,179,292884,2,0,P|198:207|238:226,1,58.4999973220826,2|2,0:2|0:2,0:0:0:0:
398,93,293118,2,0,P|363:97|326:122,1,58.4999973220826,6|2,0:2|0:2,0:0:0:0:
403,345,293353,2,0,P|416:312|413:268,3,58.4999973220826,10|2|6|2,0:2|0:2|0:2|0:2,0:0:0:0:
334,128,293978,5,2,0:2:0:0:
328,143,294056,6,0,P|282:158|249:156,1,58.4999973220826,6|2,0:2|0:2,0:0:0:0:
121,101,294290,1,10,0:2:0:0:
75,83,294407,1,2,0:2:0:0:
28,97,294524,1,6,0:2:0:0:
0,137,294641,1,2,0:2:0:0:
3,185,294759,6,0,P|19:240|58:317,1,116.999994644165,6|0,0:2|3:2,0:0:0:0:
252,258,295228,2,0,P|227:205|210:148,1,116.999994644165,10|4,0:0|0:0,0:0:0:0:
496,170,295697,6,0,P|490:226|463:282,2,116.999994644165,0|4|8,3:0|0:2|0:2,0:0:0:0:
433,18,296282,1,2,0:2:0:0:
482,35,296400,2,0,P|504:59|512:106,1,58.4999973220826,6|0,3:2|0:0,0:0:0:0:
323,89,296634,2,0,P|333:61|353:40,1,58.4999973220826,2|0,0:2|0:0,0:0:0:0:
512,172,296868,1,6,0:2:0:0:
271,269,297103,5,10,0:2:0:0:
248,231,297220,1,2,0:2:0:0:
214,203,297337,1,6,0:2:0:0:
173,189,297454,1,2,0:2:0:0:
122,202,297572,5,6,3:2:0:0:
139,269,297689,1,2,0:2:0:0:
344,46,298040,5,8,0:2:0:0:
127,15,298275,2,0,P|182:73|243:95,1,116.999994644165,4|0,3:2|0:0,0:0:0:0:
328,41,298626,1,2,0:2:0:0:
282,53,298743,1,2,0:2:0:0:
168,224,298978,5,10,0:2:0:0:
169,233,299056,5,2,0:2:0:0:
171,243,299134,5,2,0:2:0:0:
172,253,299212,6,0,L|178:301,3,29.2499986610413,2|2|2|2,3:2|3:2|3:2|3:2,0:0:0:0:
238,317,299447,6,0,P|329:304|399:248,2,153.000002918243,14|8|4,0:2|0:2|3:2,0:0:0:0:
10,110,300150,2,0,P|57:112|105:140,1,76.5000014591217,10|0,0:2|0:0,0:0:0:0:
186,255,300384,5,6,0:2:0:0:
183,247,300501,1,2,0:0:0:0:
277,148,300736,5,2,3:2:0:0:
269,144,300853,1,10,0:2:0:0:
295,0,301087,6,0,P|394:45|416:129,1,175.499991966248,6|0,0:2|0:0,0:0:0:0:
357,171,301556,1,6,3:2:0:0:
501,250,301790,5,10,0:2:0:0:
512,255,301868,6,0,P|513:292|492:329,1,77.9999964294435,2|6,0:0|0:2,0:0:0:0:
483,336,302103,6,0,L|393:321,1,77.9999964294435,2|0,0:0|0:0,0:0:0:0:
281,119,302493,1,6,0:2:0:0:
227,126,302610,1,2,0:0:0:0:
174,135,302727,1,10,0:2:0:0:
121,144,302845,2,0,L|61:153,1,45,2|4,0:2|0:0,0:0:0:0:
70,327,303197,5,2,3:2:0:0:
140,353,303353,6,0,P|159:352|187:344,3,38.9999982147218,2|6|2|2,0:2|3:2|0:2|0:2,0:0:0:0:
259,338,303665,6,0,P|271:323|285:298,3,38.9999982147218,10|2|2|6,0:2|0:2|0:2|3:2,0:0:0:0:
397,144,304134,2,0,P|456:140|518:185,1,116.999994644165,2|6,3:2|0:2,0:0:0:0:
266,297,304603,5,10,0:2:0:0:
236,256,304720,1,2,0:2:0:0:
228,205,304837,1,6,0:2:0:0:
253,160,304954,1,2,0:2:0:0:
295,133,305072,6,0,P|246:132|188:73,1,116.999994644165,6|6,3:2|0:2,0:0:0:0:
213,4,305423,1,2,0:2:0:0:
232,8,305540,2,0,P|263:26|280:58,1,58.4999973220826,8|2,0:2|0:2,0:0:0:0:
351,182,305775,2,0,P|382:164|399:132,1,58.4999973220826,6|2,3:2|0:2,0:0:0:0:
487,4,306009,5,2,0:2:0:0:
491,42,306126,1,2,0:2:0:0:
499,85,306243,1,2,0:2:0:0:
504,126,306360,1,2,0:2:0:0:
511,167,306477,1,10,0:2:0:0:
432,303,306712,6,0,L|437:266,3,29.2499986610413,2|0|2|0,0:2|3:0|3:2|3:0,0:0:0:0:
438,255,306947,6,0,L|314:280,1,116.999994644165,2|0,3:2|3:0,0:0:0:0:
187,333,307415,5,2,3:2:0:0:
305,365,307650,1,0,3:0:0:0:
220,155,307884,6,0,P|161:159|102:185,1,116.999994644165,6|0,0:2|0:0,0:0:0:0:
46,253,308236,1,4,3:2:0:0:
91,246,308353,2,0,P|106:208|98:164,1,58.4999973220826,10|2,0:2|0:2,0:0:0:0:
40,74,308587,5,6,0:2:0:0:
1,128,308704,1,2,0:2:0:0:
2,195,308822,1,2,3:2:0:0:
226,369,309056,1,2,0:2:0:0:
282,104,309290,1,10,0:2:0:0:
314,115,309407,2,0,L|498:90,1,175.499991966248,2|0,0:0|0:0,0:0:0:0:
512,189,309935,6,0,L|411:173,2,87.749995983124,2|2|2,0:2|0:2|0:0,0:0:0:0:
311,309,310462,2,0,L|401:296,1,58.4999973220826,6|0,0:2|0:0,0:0:0:0:
504,110,310697,5,0,3:0:0:0:
485,54,310814,1,2,0:0:0:0:
438,20,310931,1,6,3:2:0:0:
380,17,311048,1,2,0:2:0:0:
331,47,311165,2,0,P|307:75|300:119,1,58.4999973220826,8|0,0:2|0:0,0:0:0:0:
229,240,311400,2,0,P|208:219|196:193,1,58.4999973220826,6|2,0:2|0:0,0:0:0:0:
62,30,311634,5,2,0:2:0:0:
47,56,311751,1,8,0:2:0:0:
32,89,311868,1,8,0:2:0:0:
20,121,311985,1,8,0:2:0:0:
10,152,312103,2,0,L|28:233,1,58.4999973220826,10|2,0:2|3:2,0:0:0:0:
119,384,312337,2,0,L|137:303,1,58.4999973220826,2|2,3:2|3:2,0:0:0:0:
167,117,312572,5,6,3:2:0:0:
310,300,313040,5,6,3:2:0:0:
375,235,313275,2,0,P|384:215|387:165,1,58.4999973220826,2|2,0:2|0:2,0:0:0:0:
448,10,313509,6,0,L|456:69,5,38.9999982147218,6|2|2|2|2|2,0:2|0:2|0:2|0:2|0:2|0:0,0:0:0:0:
490,109,313978,1,6,3:2:0:0:
489,115,314056,1,2,0:2:0:0:
488,121,314134,1,2,0:2:0:0:
487,128,314212,1,2,0:2:0:0:
486,134,314290,1,2,0:2:0:0:
485,141,314368,1,2,0:2:0:0:
484,148,314447,6,0,L|472:219,3,58.4999973220826,6|0|0|0,3:2|3:2|3:2|3:0,0:0:0:0:
402,260,314915,2,0,L|383:144,1,116.999994644165,10|0,0:2|3:0,0:0:0:0:
321,66,315267,1,0,3:0:0:0:
315,107,315384,1,2,0:2:0:0:
192,262,315618,1,2,0:2:0:0:
40,63,315853,6,0,P|88:56|116:64,1,58.4999973220826,10|0,0:2|3:0,0:0:0:0:
237,154,316087,1,2,0:2:0:0:
67,261,316322,1,2,0:2:0:0:
176,49,316556,6,0,P|203:62|231:102,1,58.4999973220826,2|0,3:2|3:0,0:0:0:0:
283,211,316790,1,10,0:2:0:0:
328,157,316907,2,0,P|406:143|462:185,1,116.999994644165,0|0,3:0|0:0,0:0:0:0:
460,238,317259,6,0,L|471:308,3,45,2|0|0|0,3:2|3:2|3:2|3:0,0:0:0:0:
396,330,317728,6,0,L|386:272,1,45,10|0,0:2|3:0,0:0:0:0:
260,97,317962,2,0,L|269:154,1,45,2|0,3:2|3:0,0:0:0:0:
191,315,318197,6,0,P|131:270|90:275,1,90,2|0,3:2|3:0,0:0:0:0:
40,322,318548,1,2,3:2:0:0:
43,374,318665,2,0,P|90:371|122:338,1,90,10|0,0:2|0:0,0:0:0:0:
136,258,319017,1,2,0:2:0:0:
143,195,319134,1,2,3:2:0:0:
118,141,319251,1,2,3:2:0:0:
126,80,319368,1,2,0:2:0:0:
265,237,319603,5,10,3:2:0:0:
267,203,319720,1,0,3:0:0:0:
271,170,319837,1,2,0:2:0:0:
274,137,319954,1,2,0:2:0:0:
279,104,320066,1,6,3:2:0:0:
381,277,320455,5,2,0:2:0:0:
381,277,320585,1,2,0:2:0:0:
400,197,320924,5,2,0:2:0:0:
400,197,321053,1,2,0:2:0:0:
419,117,321397,5,2,0:2:0:0:
419,117,321521,1,2,0:2:0:0:
512,260,321963,6,0,P|480:258|453:251,1,45,2|2,0:2|0:2,0:0:0:0:
366,312,331448,6,0,P|350:304|334:300,3,26.9999991760254,8|8|8|8,0:2|0:2|0:2|0:2,0:0:0:0:
327,231,331911,2,0,P|308:236|291:245,3,36,8|8|8|8,0:2|0:2|0:2|0:2,0:0:0:0:
234,313,332374,5,8,0:2:0:0:
222,281,332490,1,8,0:2:0:0:
198,258,332606,1,8,0:2:0:0:
166,248,332722,1,8,0:2:0:0:
135,261,332837,5,8,0:2:0:0:
188,264,332953,1,8,0:2:0:0:
239,247,333069,1,8,0:2:0:0:
280,212,333185,1,8,0:2:0:0:
305,164,333301,5,8,0:2:0:0:
243,126,333417,1,8,0:2:0:0:
172,118,333532,1,8,0:2:0:0:
69,215,334378,5,10,0:2:0:0:
102,147,334493,1,10,0:2:0:0:
172,118,334611,1,10,0:2:0:0:
243,126,334728,1,10,0:2:0:0:
439,366,334961,1,10,0:2:0:0:
512,80,335195,1,10,0:2:0:0:
512,80,335778,6,0,L|504:142,3,45,2|2|2|2,3:2|3:2|3:2|3:2,0:0:0:0:
420,356,336362,1,2,3:2:0:0:
352,75,336595,1,2,3:2:0:0:
116,331,336913,6,0,P|149:326|179:315,1,45,6|2,3:2|0:2,0:0:0:0:
207,145,337165,1,2,0:2:0:0:
174,203,337291,1,2,0:2:0:0:
212,256,337419,2,0,P|232:271|289:267,1,67.5000025749208,10|0,0:2|0:0,0:0:0:0:
399,200,337887,6,0,P|376:203|354:215,1,33.7500012874604,2|0,3:2|0:0,0:0:0:0:
352,299,338122,1,0,0:0:0:0:
407,280,338239,1,2,0:2:0:0:
464,299,338356,1,10,0:2:0:0:
492,348,338473,2,0,L|497:279,1,56.25,2|0,0:2|0:0,0:0:0:0:
509,193,338708,5,2,0:2:0:0:
410,362,338942,1,2,0:2:0:0:
380,112,339176,5,2,0:2:0:0:
421,140,339293,1,10,0:2:0:0:
376,162,339410,1,2,0:2:0:0:
316,260,339645,5,2,0:2:0:0:
329,325,339762,1,2,3:2:0:0:
263,303,339879,1,2,0:2:0:0:
89,316,340114,5,2,0:2:0:0:
163,341,340231,2,0,P|173:362|173:393,2,45,10|2|0,0:2|0:2|0:0,0:0:0:0:
53,205,340700,5,6,3:2:0:0:
111,234,340817,1,2,0:2:0:0:
172,209,340934,1,2,0:2:0:0:
194,147,341051,1,2,0:2:0:0:
147,85,341168,2,0,L|48:75,1,90,10|0,0:2|0:0,0:0:0:0:
280,160,341637,6,0,P|308:159|352:148,1,45,2|0,3:2|0:0,0:0:0:0:
400,50,341871,1,0,0:0:0:0:
463,43,341988,1,2,0:2:0:0:
510,87,342105,1,10,0:2:0:0:
512,150,342223,1,2,0:2:0:0:
376,316,342457,5,2,0:2:0:0:
200,119,342692,1,2,0:2:0:0:
270,150,342809,2,0,P|301:188|316:240,1,90,2|10,0:2|0:2,0:0:0:0:
130,266,343512,5,2,3:2:0:0:
97,216,343630,1,2,3:2:0:0:
75,163,343747,1,2,0:2:0:0:
63,105,343864,1,2,0:2:0:0:
5,149,343981,1,10,0:2:0:0:
255,384,344450,5,6,3:2:0:0:
304,341,344567,1,2,0:2:0:0:
315,277,344684,1,2,0:2:0:0:
376,297,344801,1,2,0:2:0:0:
437,275,344918,6,0,P|453:260|470:222,3,45,10|2|2|2,0:2|0:2|0:2|3:2,0:0:0:0:
349,158,345387,2,0,P|355:179|372:206,1,45,2|2,3:2|0:2,0:0:0:0:
507,129,345621,2,0,P|501:108|484:81,1,45,2|2,0:2|0:2,0:0:0:0:
331,290,345856,6,0,L|316:347,2,45,10|2|2,0:2|0:2|0:2,0:0:0:0:
298,211,346207,2,0,P|254:164|179:150,1,135.000005149842,2|2,0:2|0:2,0:0:0:0:
84,287,346676,5,2,0:2:0:0:
82,337,346793,1,10,0:2:0:0:
128,314,346910,1,2,0:2:0:0:
54,149,347145,5,2,0:2:0:0:
4,193,347262,1,2,3:2:0:0:
69,215,347379,1,2,0:2:0:0:
124,9,347614,5,2,0:2:0:0:
46,5,347731,1,10,0:2:0:0:
81,76,347848,1,2,0:2:0:0:
440,38,348200,6,0,P|380:41|324:121,1,135,6|0,3:2|0:0,0:0:0:0:
308,166,348668,1,10,0:2:0:0:
511,69,349020,1,2,0:2:0:0:
304,175,349371,6,0,P|275:175|236:162,1,45,2|0,0:2|0:0,0:0:0:0:
157,76,349606,1,10,0:2:0:0:
98,62,349723,1,2,0:2:0:0:
43,82,349840,1,2,0:2:0:0:
6,128,349957,1,2,0:2:0:0:
3,185,350075,6,0,L|12:246,3,45,2|2|2|2,3:2|0:2|0:0|0:2,0:0:0:0:
83,281,350543,2,0,L|92:220,3,45,10|2|2|2,0:2|0:2|0:2|0:2,0:0:0:0:
172,176,351012,5,2,3:2:0:0:
202,157,351129,1,2,3:2:0:0:
236,151,351246,1,2,3:2:0:0:
270,161,351363,1,2,0:2:0:0:
316,215,351481,2,0,L|332:314,1,90,10|0,0:2|0:0,0:0:0:0:
476,111,351950,6,0,P|445:104|408:114,3,45,2|2|2|2,3:2|3:2|3:2|3:2,0:0:0:0:
354,182,352535,5,10,0:2:0:0:
347,126,352652,1,2,3:2:0:0:
324,76,352769,1,2,3:2:0:0:
285,36,352886,1,6,0:2:0:0:
217,25,353004,6,0,P|195:40|156:44,3,45,2|2|2|2,3:2|0:2|0:2|3:2,0:0:0:0:
132,116,353473,5,10,0:2:0:0:
188,123,353590,1,2,3:2:0:0:
238,146,353707,1,2,3:2:0:0:
278,185,353824,1,6,0:2:0:0:
289,253,353942,6,0,P|274:275|270:314,3,45,2|2|2|6,3:2|0:2|3:2|0:2,0:0:0:0:
371,342,354410,2,0,P|386:320|390:281,2,45,10|2|2,0:2|0:2|3:2,0:0:0:0:
272,380,354762,5,10,0:2:0:0:
216,341,354879,1,10,0:2:0:0:
277,308,354996,1,10,0:2:0:0:
91,336,355231,5,2,3:2:0:0:
94,286,355348,1,10,0:2:0:0:
137,312,355465,1,2,3:2:0:0:
5,231,355700,6,0,L|49:221,2,45,2|2|2,0:2|0:2|0:2,0:0:0:0:
17,130,356168,2,0,L|58:147,2,45,2|2|2,0:2|0:2|0:2,0:0:0:0:
155,205,356637,6,0,P|228:205|313:96,2,202.500007724762,6|6|6,3:2|0:2|3:2,0:0:0:0:
139,91,357612,1,0,3:0:0:0:
5,208,357856,1,0,3:0:0:0:
5,249,357978,1,0,3:0:0:0:
25,288,358100,1,8,0:2:0:0:
67,308,358222,1,0,3:0:0:0:
111,313,358344,2,0,P|146:308|166:293,1,45,0|0,3:0|0:0,0:0:0:0:
233,188,358588,6,0,P|295:242|345:370,2,202.500007724762,6|6|6,3:2|0:2|3:2,0:0:0:0:
116,137,359563,5,10,0:2:0:0:
127,133,359644,5,8,0:2:0:0:
138,131,359725,5,8,0:2:0:0:
149,128,359806,5,8,0:2:0:0:
160,125,359888,5,8,0:2:0:0:
172,123,359969,5,8,0:2:0:0:
183,119,360051,6,0,L|229:110,5,30,0|0|0|0|0|0,3:0|3:0|3:0|3:0|3:0|3:0,0:0:0:0:
269,61,360539,6,0,P|314:133|434:155,2,202.500007724762,6|6|6,3:2|0:2|3:2,0:0:0:0:
206,21,361346,5,0,3:0:0:0:
200,35,361421,5,0,3:0:0:0:
197,49,361496,5,8,0:2:0:0:
232,153,361751,1,0,3:0:0:0:
317,224,362006,1,0,3:0:0:0:
425,243,362261,1,0,3:0:0:0:
496,119,362491,6,0,P|439:133|357:211,1,135.000005149842,6|0,3:2|0:0,0:0:0:0:
317,232,362855,2,0,P|351:258|433:233,1,135,6|2,0:2|3:2,0:0:0:0:
322,83,363465,6,0,P|293:75|265:83,2,60,10|0|0,0:2|3:0|3:0,0:0:0:0:
294,157,363953,2,0,P|268:171|254:197,2,60,8|0|0,0:2|3:0|3:0,0:0:0:0:
341,230,364442,6,0,L|363:372,1,135,6|8,3:2|0:2,0:0:0:0:
153,311,365172,2,0,L|163:240,1,45,2|0,3:2|0:0,0:0:0:0:
227,374,365416,6,0,B|442:332|442:332|330:375,1,306.000005836487,2|10,0:2|0:2,0:0:0:0:
153,311,366148,2,0,L|205:302,1,45
356,221,366392,6,0,L|208:207,2,135,6|10|2,3:2|0:2|3:2,0:0:0:0:
237,71,367368,6,0,B|165:54|124:95|124:95|75:136|-4:105,1,229.500004377365,10|0,0:2|0:0,0:0:0:0:
0,36,367855,1,10,0:2:0:0:
109,312,368343,6,0,P|117:275|135:240,3,67.5000025749208,6|2|2|2,0:2|0:2|0:2|0:2,0:0:0:0:
242,182,369319,6,0,L|368:164,1,103.500001974106,2|2,0:2|3:2,0:0:0:0:
275,260,369807,1,2,3:2:0:0:
172,123,370050,1,2,3:2:0:0:
277,271,370295,5,2,3:2:0:0:
106,99,370539,1,2,0:2:0:0:
285,282,370782,1,2,0:2:0:0:
95,30,371026,1,2,3:2:0:0:
15,361,371270,5,14,0:2:0:0:
238,368,372246,6,0,P|175:297|146:180,1,202.500007724762,6|0,3:2|0:0,0:0:0:0:
88,144,372734,2,0,P|70:186|73:225,1,67.5000025749208,10|2,0:2|0:2,0:0:0:0:
329,223,372977,2,0,P|309:125|174:100,1,233.999989288331,2|0,3:2|3:0,0:0:0:0:
68,322,373709,1,10,0:2:0:0:
137,307,373831,1,8,0:2:0:0:
193,264,373953,2,0,P|206:232|208:184,1,67.5000025749208,2|0,3:2|0:0,0:0:0:0:
436,55,374197,6,0,L|457:268,1,202.500007724762,2|0,3:2|0:0,0:0:0:0:
460,352,374685,1,10,0:2:0:0:
283,158,374929,2,0,P|158:124|125:241,1,270.000010299683,2|2,3:2|3:2,0:0:0:0:
393,285,375660,6,0,P|425:265|465:263,1,67.5000025749208,10|0,0:2|0:0,0:0:0:0:
290,379,375904,2,0,P|256:373|228:355,1,67.5000025749208
206,187,376148,6,0,P|211:205|209:243,3,45,2|0|0|0,3:2|3:0|0:0|0:0,0:0:0:0:
103,304,376636,1,2,0:2:0:0:
113,249,376757,1,0,0:0:0:0:
106,192,376880,2,0,P|98:169|81:145,1,45,0|0,3:0|3:0,0:0:0:0:
4,362,377124,1,10,0:2:0:0:
214,177,377368,5,2,3:2:0:0:
270,158,377490,1,2,3:2:0:0:
330,164,377611,1,2,0:2:0:0:
381,194,377733,1,10,0:2:0:0:
416,243,377855,1,2,3:2:0:0:
427,301,377977,1,2,3:2:0:0:
233,362,378262,6,0,P|250:337|256:308,1,60,2|2,3:2|0:2,0:0:0:0:
156,296,378587,6,0,P|149:266|132:242,1,60,2|2,0:2|3:2,0:0:0:0:
45,121,378953,6,0,L|-5:132,2,45,2|10|2,3:2|0:2|3:2,0:0:0:0:
149,47,379319,1,2,3:2:0:0:
137,110,379441,1,0,3:0:0:0:
176,164,379563,1,10,0:2:0:0:
389,60,379807,1,10,0:2:0:0:
138,44,380051,6,0,P|126:137|231:196,1,202.500007724762,6|0,3:2|0:0,0:0:0:0:
330,105,380539,2,0,P|297:111|273:134,1,67.5000025749208,10|2,0:2|0:2,0:0:0:0:
492,341,380782,6,0,P|439:258|426:74,1,270.000010299683,2|0,3:2|3:0,0:0:0:0:
205,8,381513,1,10,0:2:0:0:
174,69,381635,1,8,0:2:0:0:
177,139,381758,2,0,P|189:160|226:187,1,67.5000025749208,2|0,3:2|0:0,0:0:0:0:
446,72,382002,6,0,P|349:71|238:106,1,202.500007724762,2|0,3:2|0:0,0:0:0:0:
231,189,382489,1,10,0:2:0:0:
0,123,382733,6,0,P|97:122|266:203,1,270.000010299683,2|0,3:2|3:0,0:0:0:0:
114,384,383465,6,0,P|114:352|146:318,1,67.5000025749208,10|0,0:2|0:0,0:0:0:0:
289,320,383709,2,0,P|261:336|212:320,1,67.5000025749208
91,256,383953,1,2,3:2:0:0:
83,214,384074,1,2,3:2:0:0:
78,174,384196,1,2,3:2:0:0:
73,134,384318,1,2,3:2:0:0:
66,94,384441,2,0,L|56:25,1,45,10|0,0:2|0:0,0:0:0:0:
162,1,384685,5,2,3:2:0:0:
162,1,384807,2,0,L|167:45,2,45,0|2|2,3:0|3:2|3:2,0:0:0:0:
274,188,385416,2,0,L|280:144,1,45,10|2,0:2|3:2,0:0:0:0:
484,19,385904,5,2,0:2:0:0:
476,145,386148,1,2,0:2:0:0:
476,145,386270,1,2,0:2:0:0:
476,145,386392,2,0,L|470:189,2,45,10|2|0,0:2|0:2|0:0,0:0:0:0:
359,9,386880,5,2,3:2:0:0:
305,9,387001,1,0,3:0:0:0:
253,27,387123,1,0,3:0:0:0:
215,64,387245,1,0,3:0:0:0:
199,114,387368,2,0,P|194:165|205:209,1,90,10|0,3:2|3:2,0:0:0:0:
282,270,387734,1,0,3:0:0:0:
307,206,387856,6,0,P|188:218|109:278,2,202.500007724762,6|2|2,3:2|0:2|3:2,0:0:0:0:
496,362,388831,2,0,P|452:349|428:318,1,67.5000025749208,10|0,0:2|0:0,0:0:0:0:
307,206,389075,6,0,P|365:175|485:182,1,180
290,325,389807,2,0,P|244:258|194:116,2,202.500007724762,6|2|2,3:2|0:2|3:2,0:0:0:0:
474,383,390782,1,10,0:2:0:0:
472,288,391026,2,0,P|419:296|374:346,1,108
390,340,391758,6,0,P|357:275|234:292,1,161.999995056153,2|0,3:2|0:0,0:0:0:0:
212,306,392246,1,10,0:2:0:0:
142,59,392489,1,2,3:2:0:0:
71,291,392733,5,2,3:2:0:0:
113,280,392855,1,0,3:0:0:0:
227,105,393221,5,10,0:2:0:0:
269,94,393343,2,0,P|313:94|374:132,1,107.999996704102,0|0,3:0|3:2,0:0:0:0:
407,199,393709,5,2,0:2:0:0:
391,0,393953,1,2,0:2:0:0:
284,206,394197,1,10,0:2:0:0:
269,234,394319,1,0,0:0:0:0:
473,116,394685,5,2,3:2:0:0:
281,28,394929,1,0,3:0:0:0:
105,146,395173,5,10,0:0:0:0:
172,160,395294,2,0,P|169:119|112:76,1,107.999996704102,2|0,3:2|3:0,0:0:0:0:
8,125,395660,6,0,L|57:347,2,202.500007724762,6|2|2,3:2|0:2|3:2,0:0:0:0:
247,255,396636,2,0,L|267:151,1,67.5000025749208,10|0,0:2|0:0,0:0:0:0:
341,68,396880,2,0,P|418:66|502:121,1,148.50000453186
408,322,397612,6,0,P|365:284|390:249,1,90,10|0,0:2|0:0,0:0:0:0:
409,201,397960,6,0,P|397:257|354:253,1,90,10|0,0:2|0:0,0:0:0:0:
215,184,398309,6,0,P|170:185|135:211,1,90,10|0,0:2|0:0,0:0:0:0:
176,324,398554,2,0,P|220:322|255:296,1,90,10|0,0:2|0:0,0:0:0:0:
195,254,399056,5,10,0:2:0:0:
195,254,399545,6,0,P|250:337|315:354,1,135.000005149842,6|2,3:2|0:2,0:0:0:0:
371,342,399910,1,10,0:2:0:0:
364,93,400154,5,0,3:2:0:0:
327,139,400276,2,0,L|314:208,2,45,10|2|0,0:2|0:2|0:0,0:0:0:0:
261,74,400642,2,0,L|252:118,1,45,10|2,0:2|0:2,0:0:0:0:
162,285,401008,6,0,P|127:226|37:190,1,135.000005149842,6|2,3:2|0:2,0:0:0:0:
0,234,401374,1,2,3:2:0:0:
124,52,401618,5,0,3:0:0:0:
72,29,401740,2,0,P|37:38|10:63,1,67.5000025749208,10|0,0:2|0:0,0:0:0:0:
194,94,401984,2,0,P|229:85|256:60,1,67.5000025749208,2|2,0:2|0:2,0:0:0:0:
377,13,402227,1,10,0:2:0:0:
444,25,402349,1,10,0:2:0:0:
474,92,402471,6,0,P|403:105|344:185,1,135.000005149842,6|2,3:2|0:2,0:0:0:0:
364,236,402837,1,10,0:2:0:0:
152,97,403081,5,0,3:0:0:0:
216,117,403203,2,0,P|233:132|255:168,2,45,10|0|2,0:2|0:0|0:2,0:0:0:0:
121,185,403569,2,0,P|143:187|164:195,1,45,10|2,0:2|0:2,0:0:0:0:
385,339,403935,6,0,P|329:376|263:385,1,135.000005149842,6|0,0:2|0:0,0:0:0:0:
180,354,404301,1,2,3:2:0:0:
355,202,404545,5,2,3:2:0:0:
393,179,404667,2,0,P|413:206|410:259,1,67.5000025749208,10|0,0:2|0:0,0:0:0:0:
230,298,404910,2,0,P|210:271|213:218,1,67.5000025749208,2|0,3:2|0:0,0:0:0:0:
325,80,405154,1,10,0:2:0:0:
271,120,405276,1,10,0:2:0:0:
207,96,405398,6,0,P|159:61|40:76,1,135.000005149842,6|2,3:2|0:2,0:0:0:0:
8,108,405764,1,10,0:2:0:0:
84,328,406008,5,0,0:0:0:0:
124,274,406130,2,0,L|117:214,2,45,10|2|2,0:2|0:2|0:2,0:0:0:0:
191,319,406496,2,0,L|196:274,1,45,10|2,0:2|0:2,0:0:0:0:
321,173,406862,5,6,3:2:0:0:
375,162,406984,2,0,P|408:163|441:181,1,67.5000025749208,2|0,0:2|0:0,0:0:0:0:
294,323,407227,2,0,P|278:293|277:256,1,67.5000025749208,2|2,3:2|0:2,0:0:0:0:
255,105,407471,5,2,3:2:0:0:
204,112,407593,2,0,P|175:136|159:176,1,67.5000025749208,10|0,0:2|0:0,0:0:0:0:
204,338,407837,2,0,P|175:314|159:274,1,67.5000025749208,2|2,0:2|0:2,0:0:0:0:
91,68,408081,1,10,0:2:0:0:
54,124,408203,1,10,0:2:0:0:
55,193,408325,6,0,L|76:339,1,135.000005149842,6|0,3:2|0:0,0:0:0:0:
26,383,408691,1,10,0:2:0:0:
163,248,408935,5,0,3:0:0:0:
229,231,409057,2,0,P|251:232|294:247,2,45,10|2|0,0:2|0:2|0:0,0:0:0:0:
181,161,409423,2,0,P|202:154|224:152,1,45,10|2,0:2|0:2,0:0:0:0:
365,191,409788,6,0,L|372:231,3,22.5,10|8|10|8,0:2|0:2|0:2|0:2,0:0:0:0:
389,233,410032,6,0,L|379:293,3,45,8|10|0|2,0:2|0:2|3:0|3:2,0:0:0:0:
316,338,410520,6,0,P|291:335|270:318,1,45,2|0,3:2|3:0,0:0:0:0:
227,213,410764,2,0,P|235:243|222:284,1,62.9999980773926,2|2,3:2|3:2,0:0:0:0:
108,360,411008,2,0,P|163:308|196:312,1,80.9999975280763,2|2,3:2|3:2,0:0:0:0:
323,341,411252,6,0,P|353:329|371:300,1,53.9999983520508,6|2,3:2|0:2,0:0:0:0:
340,203,411495,1,2,0:2:0:0:
308,172,411617,2,0,P|306:198|318:222,1,53.9999983520508,10|2,0:2|0:2,0:0:0:0:
448,288,411861,5,2,0:2:0:0:
427,244,411983,1,10,0:2:0:0:
424,195,412105,1,2,0:2:0:0:
441,149,412227,2,0,P|464:132|496:125,1,53.9999983520508,2|8,0:2|0:2,0:0:0:0:
325,237,412471,5,2,3:2:0:0:
268,217,412593,1,2,0:0:0:0:
265,158,412715,1,2,3:2:0:0:
438,278,412967,6,0,P|429:304|425:354,1,53.9999983520508,2|0,3:2|3:0,0:0:0:0:
266,378,413210,2,0,P|260:351|255:324,1,53.9999983520508,2|0,0:2|3:0,0:0:0:0:
504,324,413454,1,10,0:2:0:0:
417,202,413698,5,2,0:2:0:0:
405,205,413779,5,2,0:0:0:0:
395,210,413860,5,2,0:0:0:0:
385,217,413942,6,0,P|328:243|262:226,1,107.999996704102,2|2,0:2|3:2,0:0:0:0:
206,165,414429,5,2,0:2:0:0:
195,188,414551,1,2,0:2:0:0:
161,195,414673,1,2,0:2:0:0:
133,163,414795,1,2,3:2:0:0:
157,109,414917,1,10,0:2:0:0:
211,96,415040,2,0,P|232:100|260:119,1,53.9999983520508,2|0,0:2|0:0,0:0:0:0:
357,178,415284,5,10,0:2:0:0:
357,178,415406,2,0,P|351:146|330:111,1,53.9999983520508,2|0,0:2|0:0,0:0:0:0:
182,185,415649,2,0,P|188:217|209:252,1,53.9999983520508,2|2,0:2|0:2,0:0:0:0:
361,272,415893,6,0,P|311:275|255:320,1,107.999996704102,2|2,3:2|0:2,0:0:0:0:
202,335,416258,1,2,3:2:0:0:
172,341,416380,1,10,0:2:0:0:
135,297,416502,1,2,0:2:0:0:
81,288,416624,1,2,3:2:0:0:
27,318,416746,1,10,0:2:0:0:
13,370,416869,6,0,P|12:338|24:299,1,53.9999983520508,2|2,0:2|0:2,0:0:0:0:
19,182,417113,2,0,P|18:214|30:253,1,53.9999983520508,2|0,3:2|0:0,0:0:0:0:
176,326,417357,5,2,0:2:0:0:
214,337,417478,1,2,0:2:0:0:
254,332,417600,1,2,0:2:0:0:
288,311,417722,1,2,0:2:0:0:
310,277,417845,1,10,0:2:0:0:
347,222,417966,1,2,0:2:0:0:
411,209,418088,1,2,0:2:0:0:
466,245,418210,1,10,0:2:0:0:
480,309,418332,1,2,0:2:0:0:
310,277,418576,5,2,3:2:0:0:
347,222,418697,1,2,0:2:0:0:
411,209,418819,1,2,0:2:0:0:
456,195,418942,1,2,0:2:0:0:
483,153,419063,1,2,0:2:0:0:
486,106,419186,1,2,3:2:0:0:
473,60,419308,6,0,P|455:41|426:31,1,53.9999983520508,10|2,0:2|0:2,0:0:0:0:
301,120,419552,2,0,P|319:139|348:149,1,53.9999983520508,2|10,0:2|0:2,0:0:0:0:
512,214,419796,5,2,0:2:0:0:
458,220,419917,1,0,0:0:0:0:
416,252,420039,1,2,3:2:0:0:
394,300,420161,1,2,0:2:0:0:
392,352,420284,2,0,P|375:318|376:288,1,53.9999983520508,2|2,0:2|3:2,0:0:0:0:
249,198,420527,2,0,P|232:232|233:262,1,53.9999983520508,2|2,0:2|3:2,0:0:0:0:
373,183,420770,5,10,0:2:0:0:
404,140,420892,1,2,0:2:0:0:
351,135,421015,1,2,0:2:0:0:
473,303,421259,5,2,0:2:0:0:
492,235,421381,1,2,0:2:0:0:
426,250,421504,1,2,0:2:0:0:
285,353,421747,5,2,0:2:0:0:
133,244,421991,1,2,0:2:0:0:
380,335,422234,1,10,0:2:0:0:
199,250,422478,5,2,0:2:0:0:
133,244,422601,1,10,0:2:0:0:
88,291,422723,2,0,P|81:340|26:370,1,107.999996704102,2|0,0:2|3:0,0:0:0:0:
33,125,423210,5,2,0:2:0:0:
63,110,423331,1,2,0:2:0:0:
96,110,423453,1,2,0:2:0:0:
126,124,423575,1,2,0:2:0:0:
147,150,423698,5,10,0:2:0:0:
143,90,423819,1,2,0:2:0:0:
174,39,423941,1,2,0:2:0:0:
229,17,424063,1,10,0:2:0:0:
287,31,424186,2,0,L|301:100,1,53.9999983520508,2|2,0:2|0:2,0:0:0:0:
418,230,424430,2,0,L|431:161,1,53.9999983520508,2|2,3:2|0:2,0:0:0:0:
217,268,424674,6,0,P|268:297|338:292,1,107.999996704102,2|2,0:2|0:2,0:0:0:0:
400,309,425039,1,2,3:2:0:0:
418,321,425161,1,10,0:2:0:0:
385,358,425283,1,2,0:2:0:0:
334,381,425405,1,2,0:2:0:0:
276,384,425526,1,10,0:2:0:0:
222,358,425649,6,0,P|195:331|163:320,1,53.9999983520508,2|0,0:2|0:0,0:0:0:0:
0,340,425893,2,0,P|36:349|70:343,1,53.9999983520508,2|0,3:2|0:0,0:0:0:0:
142,265,426137,6,0,L|153:201,1,53.9999983520508,2|8,0:2|0:2,0:0:0:0:
17,130,426381,2,0,L|28:194,1,53.9999983520508,2|2,0:2|3:2,0:0:0:0:
170,210,426624,5,10,0:2:0:0:
207,176,426746,1,2,0:2:0:0:
224,128,426868,1,2,0:2:0:0:
212,74,426990,1,10,0:2:0:0:
157,35,427112,1,2,0:2:0:0:
172,225,427356,5,10,0:2:0:0:
207,259,427478,1,10,0:2:0:0:
256,268,427600,1,2,3:2:0:0:
217,295,427722,1,2,3:2:0:0:
178,298,427844,1,2,3:2:0:0:
205,328,427966,1,2,3:2:0:0:
236,338,428088,1,2,3:2:0:0:
217,357,428210,1,2,3:2:0:0:
191,363,428332,1,6,3:2:0:0:
317,219,433125,5,4,3:2:0:0:
256,192,433337,12,0,436103,0:0:0:0:
256,192,436529,12,0,437221,0:0:0:0:
256,192,437452,12,0,441232,0:0:0:0:
256,192,441772,12,0,450412,0:0:0:0:
