osu file format v14

[General]
AudioFilename: audio.mp3
AudioLeadIn: 0
PreviewTime: 201717
Countdown: 0
SampleSet: Soft
StackLeniency: 0.5
Mode: 0
LetterboxInBreaks: 0
EpilepsyWarning: 1
WidescreenStoryboard: 1

[Editor]
Bookmarks: 90012,92329,292660,407603
DistanceSpacing: 1
BeatDivisor: 4
GridSize: 4
TimelineZoom: 0.5

[Metadata]
Title:Mr. Invisible
TitleUnicode:Mr. Invisible
Artist:Thank You Scientist
ArtistUnicode:Thank You Scientist
Creator:DTM9 Nowa
Version:Easy
Source:
Tags:alternative alt progressive prog rock Stranger Heads Prevail English fa featured artist mappers' guild
BeatmapID:2396095
BeatmapSetID:1130581

[Difficulty]
HPDrainRate:2
CircleSize:2
OverallDifficulty:2
ApproachRate:3
SliderMultiplier:1
SliderTickRate:1

[Events]
//Background and Video events
0,0,"stranger_heads_prevail.jpg",0,0
//Break Periods
2,143172,149776
2,323146,329536
2,429982,431685
//Storyboard Layer 0 (Background)
//Storyboard Layer 1 (Fail)
//Storyboard Layer 2 (Pass)
//Storyboard Layer 3 (Foreground)
Sprite,Foreground,Centre,"sb\ring.png",312,293 F,6,141231,141581,0.75,0 S,13,141231,141581,0.25,1
Sprite,Foreground,Centre,"sb\ring.png",283,94 F,6,142207,142557,0.75,0 S,13,142207,142557,0.25,1
Sprite,Foreground,Centre,"sb\ring.png",388,286 F,6,114890,115240,0.75,0 S,13,114890,115240,0.25,1
Sprite,Foreground,Centre,"sb\ring.png",497,118 F,6,115866,116216,0.75,0 S,13,115866,116216,0.25,1
Sprite,Foreground,Centre,"sb\ring.png",478,258 F,6,198556,198906,0.75,0 S,13,198556,198906,0.25,1
Sprite,Foreground,Centre,"sb\ring.png",539,178 F,6,199044,199394,0.75,0 S,13,199044,199394,0.25,1
Sprite,Foreground,Centre,"sb\ring.png",448,135 F,6,200508,200858,0.75,0 S,13,200508,200858,0.25,1
Sprite,Foreground,Centre,"sb\ring.png",229,169 F,6,368353,368703,0.75,0 S,13,368353,368703,0.25,1
Sprite,Foreground,Centre,"sb\ring.png",140,348 F,6,369329,369679,0.75,0 S,13,369329,369679,0.25,1
Sprite,Foreground,Centre,"sb\ring.png",457,241 F,6,427367,427717,0.75,0 S,13,427367,427717,0.25,1
Sprite,Foreground,Centre,"sb\ring.png",104,237 F,6,331458,331808,0.75,0 S,13,331458,331808,0.25,1
Sprite,Foreground,Centre,"sb\ring.png",531,150 F,6,334388,334738,0.75,0 S,13,334388,334738,0.25,1
Sprite,Foreground,Centre,"sb\ring.png",221,418 F,6,336923,337273,0.75,0 S,13,336923,337273,0.25,1
Sprite,Foreground,Centre,"sb\ring.png",297,284 F,6,46598,46948,0.75,0 S,13,46598,46948,0.25,1
Sprite,Foreground,Centre,"sb\ring.png",118,346 F,6,48549,48899,0.75,0 S,13,48549,48899,0.25,1
Sprite,Foreground,Centre,"sb\ring.png",461,362 F,6,397622,397972,0.75,0 S,13,397622,397972,0.25,1
Sprite,Foreground,Centre,"sb\ring.png",422,393 F,6,398564,398914,0.75,0 S,13,398564,398914,0.25,1
Sprite,Foreground,Centre,"sb\ring.png",319,398 F,6,399066,399416,0.75,0 S,13,399066,399416,0.25,1
Sprite,Foreground,Centre,"sb\ring.png",225,360 F,6,399555,399905,0.75,0 S,13,399555,399905,0.25,1
Sprite,Foreground,Centre,"sb\hl.png",0,0 C,0,411262,,192,192,192 M,0,411262,411322,82,81,94.37298,82.40118 F,2,411262,412249,1,0 S,2,411262,412249,0.7,0.14 M,0,411322,411383,94.37298,82.40118,106.5415,85.14178 M,0,411383,411444,106.5415,85.14178,117.8328,90.39006 M,0,411444,411505,117.8328,90.39006,128.4974,96.85396 M,0,411505,411566,128.4974,96.85396,137.5441,105.4083 M,0,411566,411627,137.5441,105.4083,145.6002,114.924 M,0,411627,411688,145.6002,114.924,151.4708,125.9031 M,0,411688,411749,151.4708,125.9031,156,137
Sprite,Foreground,Centre,"sb\hl.png",0,0 C,0,411993,,192,192,192 M,0,411993,412053,183,179,179.8248,191.09 F,2,411993,413468,1,0 S,2,411993,413468,0.7,0.14 M,0,412053,412114,179.8248,191.09,176.6497,203.18 M,0,412114,412175,176.6497,203.18,173.4745,215.27 M,0,412175,412236,173.4745,215.27,170.2994,227.36 M,0,412236,412297,170.2994,227.36,167.1242,239.4501 M,0,412297,412358,167.1242,239.4501,163.9491,251.5401 M,0,412358,412419,163.9491,251.5401,160.7739,263.6301 M,0,412419,412480,160.7739,263.6301,157.5988,275.7201 M,0,412480,412541,157.5988,275.7201,160.7739,263.6301 M,0,412541,412602,160.7739,263.6301,163.9491,251.5401 M,0,412602,412663,163.9491,251.5401,167.1242,239.4501 M,0,412663,412724,167.1242,239.4501,170.2994,227.36 M,0,412724,412785,170.2994,227.36,173.4745,215.27 M,0,412785,412846,173.4745,215.27,176.6497,203.18 M,0,412846,412907,176.6497,203.18,179.8248,191.09 M,0,412907,412968,179.8248,191.09,183,179
Sprite,Foreground,Centre,"sb\hl.png",0,0 C,0,413464,,192,192,192 M,0,413464,413524,245,98,257.09,94.82484 F,2,413464,414451,1,0 S,2,413464,414451,0.7,0.14 M,0,413524,413585,257.09,94.82484,269.18,91.64969 M,0,413585,413646,269.18,91.64969,281.27,88.47453 M,0,413646,413707,281.27,88.47453,293.36,85.29938 M,0,413707,413768,293.36,85.29938,305.4501,82.12422 M,0,413768,413829,305.4501,82.12422,317.5401,78.94907 M,0,413829,413890,317.5401,78.94907,329.6301,75.77392 M,0,413890,413951,329.6301,75.77392,341.7201,72.59876
Sprite,Foreground,Centre,"sb\hl.png",0,0 C,0,414440,,80,165,148 M,0,414440,414500,437,102,448.6967,106.3127 F,2,414440,415915,1,0 S,2,414440,415915,0.7,0.14 M,0,414500,414561,448.6967,106.3127,459.9193,111.7505 M,0,414561,414622,459.9193,111.7505,470.0288,119.0398 M,0,414622,414683,470.0288,119.0398,479.3215,127.3397 M,0,414683,414744,479.3215,127.3397,487.1046,137.0709 M,0,414744,414805,487.1046,137.0709,493.7594,147.5938 M,0,414805,414866,493.7594,147.5938,498.6474,159.0538 M,0,414866,414927,498.6474,159.0538,502.1585,170.9919 M,0,414927,414988,502.1585,170.9919,504.1428,183.316 M,0,414988,415049,504.1428,183.316,503.896,195.7797 M,0,415049,415110,503.896,195.7797,502.4258,208.1626 M,0,415110,415171,502.4258,208.1626,498.8469,220.1009 M,0,415171,415232,498.8469,220.1009,494.041,231.5957 M,0,415232,415293,494.041,231.5957,487.3932,242.135 M,0,415293,415354,487.3932,242.135,479.6243,251.8638 M,0,415354,415415,479.6243,251.8638,470.5943,260.4838
Sprite,Foreground,Centre,"sb\hl.png",385,313 C,0,415903,,80,165,148 F,2,415903,416403,1,0 S,2,415903,416403,0.7,0.14
Sprite,Foreground,Centre,"sb\hl.png",0,0 C,0,416391,,80,165,148 M,0,416391,416451,303,254,291.1276,250.211 F,2,416391,417866,1,0 S,2,416391,417866,0.7,0.14 M,0,416451,416512,291.1276,250.211,278.9304,247.5645 M,0,416512,416573,278.9304,247.5645,266.4716,247.2692 M,0,416573,416634,266.4716,247.2692,254.0229,248.1629 M,0,416634,416695,254.0229,248.1629,241.9844,251.3851 M,0,416695,416756,241.9844,251.3851,230.2909,255.7467 M,0,416756,416817,230.2909,255.7467,219.6455,262.226 M,0,416817,416878,219.6455,262.226,209.6526,269.7025 M,0,416878,416939,209.6526,269.7025,201.2605,278.9153 M,0,416939,417000,201.2605,278.9153,193.7762,288.9021 M,0,417000,417061,193.7762,288.9021,188.3154,300.1041 M,0,417061,417122,188.3154,300.1041,183.9449,311.7934 M,0,417122,417183,183.9449,311.7934,181.8567,324.0793 M,0,417183,417244,181.8567,324.0793,180.9531,336.526 M,0,417244,417305,180.9531,336.526,182.4063,348.903 M,0,417305,417366,182.4063,348.903,185,361
Sprite,Foreground,Centre,"sb\hl.png",0,0 C,0,417855,,80,165,148 M,0,417855,417915,100,414,93.95861,403.0734 F,2,417855,418842,1,0 S,2,417855,418842,0.7,0.14 M,0,417915,417976,93.95861,403.0734,88.79626,391.7105 M,0,417976,418037,88.79626,391.7105,84.52764,379.9897 M,0,418037,418098,84.52764,379.9897,81.44266,367.8963 M,0,418098,418159,81.44266,367.8963,79.28855,355.6093 M,0,418159,418220,79.28855,355.6093,78.37701,343.1617 M,0,418220,418281,78.37701,343.1617,78.40395,330.6867 M,0,418281,418342,78.40395,330.6867,79.69429,318.2726
Sprite,Foreground,Centre,"sb\hl.png",0,0 C,0,418586,,225,213,138 M,0,418586,418646,103,274,104.3475,261.5728 F,2,418586,419817,1,0 S,2,418586,419817,0.7,0.14 M,0,418646,418707,104.3475,261.5728,105.695,249.1457 M,0,418707,418768,105.695,249.1457,107.0426,236.7185 M,0,418768,418829,107.0426,236.7185,108.3901,224.2914 M,0,418829,418890,108.3901,224.2914,109.7376,211.8642 M,0,418890,418951,109.7376,211.8642,111.0851,199.4371 M,0,418951,419012,111.0851,199.4371,112.4327,187.0099 M,0,419012,419073,112.4327,187.0099,113.7802,174.5828 M,0,419073,419134,113.7802,174.5828,115.1277,162.1556 M,0,419134,419195,115.1277,162.1556,116.4752,149.7285 M,0,419195,419256,116.4752,149.7285,117.8228,137.3013 M,0,419256,419317,117.8228,137.3013,119.1703,124.8741
Sprite,Foreground,Centre,"sb\hl.png",0,0 C,0,419806,,225,213,138 M,0,419806,419866,219,132,217.583,144.4194 F,2,419806,421037,1,0 S,2,419806,421037,0.7,0.14 M,0,419866,419927,217.583,144.4194,216.166,156.8389 M,0,419927,419988,216.166,156.8389,214.7491,169.2583 M,0,419988,420049,214.7491,169.2583,213.3321,181.6777 M,0,420049,420110,213.3321,181.6777,211.9151,194.0971 M,0,420110,420171,211.9151,194.0971,210.4981,206.5166 M,0,420171,420232,210.4981,206.5166,209.0811,218.936 M,0,420232,420293,209.0811,218.936,207.6642,231.3554 M,0,420293,420354,207.6642,231.3554,206.2472,243.7748 M,0,420354,420415,206.2472,243.7748,204.8302,256.1943 M,0,420415,420476,204.8302,256.1943,203.4132,268.6137 M,0,420476,420537,203.4132,268.6137,202,281
Sprite,Foreground,Centre,"sb\hl.png",0,0 C,0,420781,,225,213,138 M,0,420781,420841,187,326,186.2715,338.4495 F,2,420781,422256,1,0 S,2,420781,422256,0.7,0.14 M,0,420841,420902,186.2715,338.4495,186.6802,350.9174 M,0,420902,420963,186.6802,350.9174,189.0908,363.1504 M,0,420963,421024,189.0908,363.1504,192.6749,375.0892 M,0,421024,421085,192.6749,375.0892,198.07,386.3272 M,0,421085,421146,198.07,386.3272,204.587,396.9439 M,0,421146,421207,204.587,396.9439,212.6224,406.4724 M,0,421207,421268,212.6224,406.4724,221.5476,415.1803 M,0,421268,421329,221.5476,415.1803,212.6224,406.4724 M,0,421329,421390,212.6224,406.4724,204.587,396.9439 M,0,421390,421451,204.587,396.9439,198.07,386.3272 M,0,421451,421512,198.07,386.3272,192.6749,375.0892 M,0,421512,421573,192.6749,375.0892,189.0908,363.1504 M,0,421573,421634,189.0908,363.1504,186.6802,350.9174 M,0,421634,421695,186.6802,350.9174,186.2715,338.4495 M,0,421695,421756,186.2715,338.4495,187,326
Sprite,Foreground,Centre,"sb\hl.png",0,0 C,0,422245,,225,213,138 M,0,422245,422305,251,247,260.1505,238.5309 F,2,422245,423232,1,0 S,2,422245,423232,0.7,0.14 M,0,422305,422366,260.1505,238.5309,270.2153,231.1916 M,0,422366,422427,270.2153,231.1916,281.0046,224.9857 M,0,422427,422488,281.0046,224.9857,292.6243,220.4923 M,0,422488,422549,292.6243,220.4923,304.6382,217.2113 M,0,422549,422610,304.6382,217.2113,317.0259,215.869 M,0,422610,422671,317.0259,215.869,329.4878,215.7294 M,0,422671,422732,329.4878,215.7294,341.8603,217.3968
Sprite,Foreground,Centre,"sb\hl.png",0,0 C,0,423220,,192,192,192 M,0,423220,423280,396,301,408.4766,301.405 F,2,423220,424695,1,0 S,2,423220,424695,0.7,0.14 M,0,423280,423341,408.4766,301.405,420.9598,300.9979 M,0,423341,423402,420.9598,300.9979,433.286,299.0272 M,0,423402,423463,433.286,299.0272,445.46,296.244 M,0,423463,423524,445.46,296.244,457.1876,291.9695 M,0,423524,423585,457.1876,291.9695,468.6044,286.9133 M,0,423585,423646,468.6044,286.9133,479.307,280.4905 M,0,423646,423707,479.307,280.4905,489.5468,273.3478 M,0,423707,423768,489.5468,273.3478,498.8352,265.0105 M,0,423768,423829,498.8352,265.0105,507.5214,256.0449 M,0,423829,423890,507.5214,256.0449,515.0581,246.0962 M,0,423890,423951,515.0581,246.0962,521.8712,235.638 M,0,423951,424012,521.8712,235.638,527.3823,224.4399 M,0,424012,424073,527.3823,224.4399,532.0722,212.8743 M,0,424073,424134,532.0722,212.8743,535.3573,200.8339 M,0,424134,424195,535.3573,200.8339,537.7518,188.5868
Sprite,Foreground,Centre,"sb\hl.png",498,96 C,0,424683,,192,192,192 F,2,424683,425183,1,0 S,2,424683,425183,0.7,0.14
Sprite,Foreground,Centre,"sb\hl.png",0,0 C,0,425172,,192,192,192 M,0,425172,425232,401,68,388.5234,67.59499 F,2,425172,426647,1,0 S,2,425172,426647,0.7,0.14 M,0,425232,425293,388.5234,67.59499,376.0402,68.00208 M,0,425293,425354,376.0402,68.00208,363.714,69.97275 M,0,425354,425415,363.714,69.97275,351.54,72.75597 M,0,425415,425476,351.54,72.75597,339.8124,77.03047 M,0,425476,425537,339.8124,77.03047,328.3956,82.08673 M,0,425537,425598,328.3956,82.08673,317.693,88.50951 M,0,425598,425659,317.693,88.50951,307.4532,95.65214 M,0,425659,425720,307.4532,95.65214,298.1648,103.9895 M,0,425720,425781,298.1648,103.9895,289.4786,112.9551 M,0,425781,425842,289.4786,112.9551,281.9419,122.9038 M,0,425842,425903,281.9419,122.9038,275.1287,133.362 M,0,425903,425964,275.1287,133.362,269.6177,144.5601 M,0,425964,426025,269.6177,144.5601,264.9278,156.1257 M,0,426025,426086,264.9278,156.1257,261.6427,168.166 M,0,426086,426147,261.6427,168.166,259.2482,180.4131
Sprite,Foreground,Centre,"sb\hl.png",0,0 C,0,426635,,192,192,192 M,0,426635,426695,333,247,340.6299,237.1482 F,2,426635,427622,1,0 S,2,426635,427622,0.7,0.14 M,0,426695,426756,340.6299,237.1482,349.2112,228.0922 M,0,426756,426817,349.2112,228.0922,359.3498,220.8498 M,0,426817,426878,359.3498,220.8498,370.1801,214.6656 M,0,426878,426939,370.1801,214.6656,381.9715,210.6432 M,0,426939,427000,381.9715,210.6432,394.1236,207.8574 M,0,427000,427061,394.1236,207.8574,406.5726,207.3939 M,0,427061,427122,406.5726,207.3939,419.0069,208.2425
Sprite,Foreground,Centre,"sb\hl.png",0,0 C,0,427367,,80,165,148 M,0,427367,427427,457,241,451.7558,252.3448 F,2,427367,428842,1,0 S,2,427367,428842,0.7,0.14 M,0,427427,427488,451.7558,252.3448,445.8065,263.3354 M,0,427488,427549,445.8065,263.3354,439.0448,273.8445 M,0,427549,427610,439.0448,273.8445,431.3583,283.6954 M,0,427610,427671,431.3583,283.6954,422.6479,292.6505 M,0,427671,427732,422.6479,292.6505,412.8647,300.4151 M,0,427732,427793,412.8647,300.4151,416.3086,311.6137 M,0,427793,427854,416.3086,311.6137,421.6169,322.9287 M,0,427854,427915,421.6169,322.9287,427.5999,333.9014 M,0,427915,427976,427.5999,333.9014,434.2929,344.4556 M,0,427976,428037,434.2929,344.4556,441.7209,354.5057 M,0,428037,428098,441.7209,354.5057,448.7488,364.2869 M,0,428098,428159,448.7488,364.2869,445.283,376.2841 M,0,428159,428220,445.283,376.2841,440.2501,387.7185 M,0,428220,428281,440.2501,387.7185,434.0833,398.5867 M,0,428281,428342,434.0833,398.5867,427.0836,408.94
Sprite,Foreground,Centre,"sb\hl.png",0,0 C,0,40744,,225,213,138 M,0,40744,40804,183,260,195.4222,261.3922 F,2,40744,41731,1,0 S,2,40744,41731,0.75,0.15 M,0,40804,40865,195.4222,261.3922,207.8445,262.7843 M,0,40865,40926,207.8445,262.7843,220.2667,264.1765 M,0,40926,40987,220.2667,264.1765,232.6889,265.5686 M,0,40987,41048,232.6889,265.5686,245.1112,266.9608 M,0,41048,41109,245.1112,266.9608,257.5334,268.3529 M,0,41109,41170,257.5334,268.3529,269.9556,269.745 M,0,41170,41231,269.9556,269.745,282.3779,271.1372
Sprite,Foreground,Centre,"sb\hl.png",0,0 C,0,41720,,225,213,138 M,0,41720,41780,366,326,378.4222,327.3922 F,2,41720,43195,1,0 S,2,41720,43195,0.75,0.15 M,0,41780,41841,378.4222,327.3922,390.8445,328.7843 M,0,41841,41902,390.8445,328.7843,403.2667,330.1765 M,0,41902,41963,403.2667,330.1765,415.6889,331.5686 M,0,41963,42024,415.6889,331.5686,428.1112,332.9607 M,0,42024,42085,428.1112,332.9607,440.5334,334.3529 M,0,42085,42146,440.5334,334.3529,452.9556,335.745 M,0,42146,42207,452.9556,335.745,465.3779,337.1372 M,0,42207,42268,465.3779,337.1372,452.9556,335.745 M,0,42268,42329,452.9556,335.745,440.5334,334.3529 M,0,42329,42390,440.5334,334.3529,428.1112,332.9607 M,0,42390,42451,428.1112,332.9607,415.6889,331.5686 M,0,42451,42512,415.6889,331.5686,403.2667,330.1765 M,0,42512,42573,403.2667,330.1765,390.8445,328.7843 M,0,42573,42634,390.8445,328.7843,378.4222,327.3922 M,0,42634,42695,378.4222,327.3922,366,326
Sprite,Foreground,Centre,"sb\hl.png",0,0 C,0,43183,,225,213,138 M,0,43183,43243,280,273,274.1674,261.9667 F,2,43183,44658,1,0 S,2,43183,44658,0.75,0.15 M,0,43243,43304,274.1674,261.9667,269.3775,250.4496 M,0,43304,43365,269.3775,250.4496,265.6677,238.5509 M,0,43365,43426,265.6677,238.5509,263.3507,226.2945 M,0,43426,43487,263.3507,226.2945,262.1673,213.887 M,0,43487,43548,262.1673,213.887,262.4224,201.4162 M,0,43548,43609,262.4224,201.4162,263.8161,189.0305 M,0,43609,43670,263.8161,189.0305,266.6324,176.8791 M,0,43670,43731,266.6324,176.8791,263.8161,189.0305 M,0,43731,43792,263.8161,189.0305,262.4224,201.4162 M,0,43792,43853,262.4224,201.4162,262.1673,213.887 M,0,43853,43914,262.1673,213.887,263.3507,226.2945 M,0,43914,43975,263.3507,226.2945,265.6677,238.5509 M,0,43975,44036,265.6677,238.5509,269.3775,250.4496 M,0,44036,44097,269.3775,250.4496,274.1674,261.9667 M,0,44097,44158,274.1674,261.9667,280,273
Sprite,Foreground,Centre,"sb\hl.png",0,0 C,0,44647,,192,192,192 M,0,44647,44707,366,326,378.4222,327.3922 F,2,44647,45634,1,0 S,2,44647,45634,0.75,0.15 M,0,44707,44768,378.4222,327.3922,390.8445,328.7843 M,0,44768,44829,390.8445,328.7843,403.2667,330.1765 M,0,44829,44890,403.2667,330.1765,415.6889,331.5686 M,0,44890,44951,415.6889,331.5686,428.1112,332.9607 M,0,44951,45012,428.1112,332.9607,440.5334,334.3529 M,0,45012,45073,440.5334,334.3529,452.9556,335.745 M,0,45073,45134,452.9556,335.745,465.3779,337.1372
Sprite,Foreground,Centre,"sb\hl.png",0,0 C,0,45622,,192,192,192 M,0,45622,45682,479,238,466.5891,236.5107 F,2,45622,46609,1,0 S,2,45622,46609,0.75,0.15 M,0,45682,45743,466.5891,236.5107,454.1781,235.0214 M,0,45743,45804,454.1781,235.0214,441.7671,233.5321 M,0,45804,45865,441.7671,233.5321,429.3562,232.0427 M,0,45865,45926,429.3562,232.0427,416.9452,230.5534 M,0,45926,45987,416.9452,230.5534,404.5342,229.0641 M,0,45987,46048,404.5342,229.0641,392.1233,227.5748 M,0,46048,46109,392.1233,227.5748,379.7123,226.0855
//Storyboard Layer 4 (Overlay)
//Storyboard Sound Samples

[TimingPoints]
-241,487.80487804878,4,2,0,60,1,0
5612,-100,4,2,2,60,0,0
8051,-100,4,2,1,60,0,0
13417,-100,4,2,2,60,0,0
15856,-100,4,2,1,60,0,0
21222,-100,4,2,4,60,0,0
23173,-100,4,2,2,60,0,0
23660,-100,4,2,4,60,0,0
24148,-100,4,2,2,60,0,0
27441,-100,4,2,6,60,0,0
27807,-100,4,2,2,60,0,0
31465,-100,4,2,5,60,0,0
31954,-100,4,2,6,60,0,0
32929,-100,4,2,2,60,0,0
33416,-100,4,2,3,60,0,0
33904,-100,4,2,5,60,0,0
34622,497.100248550124,4,2,5,60,1,0
34880,487.80487804878,4,2,5,60,1,0
36831,-100,4,2,1,60,0,0
37562,-100,4,2,2,60,0,0
38293,-100,4,2,5,60,0,0
38782,-100,4,2,2,60,0,0
39269,-100,4,2,5,60,0,0
39757,-100,4,2,2,60,0,0
40733,-100,4,2,2,50,0,0
41220,-100,4,2,1,50,0,0
46587,-100,4,2,2,70,0,0
48538,-100,4,2,1,60,0,0
49636,-100,4,2,3,60,0,0
50001,-100,4,2,1,60,0,0
50489,-100,4,2,2,60,0,0
50977,-100,4,2,8,60,0,0
51464,-100,4,2,1,60,0,0
51952,-100,4,2,2,60,0,0
52440,-100,4,2,1,60,0,0
53903,-100,4,2,7,60,0,0
54391,-100,4,2,2,60,0,0
54879,-100,4,2,1,60,0,0
57074,-100,4,2,2,60,0,0
59757,-100,4,2,1,60,0,0
60976,-100,4,2,2,60,0,0
62197,-100,4,2,10,60,0,0
64148,-100,4,2,1,70,0,0
64635,-100,4,2,3,70,0,0
64879,-100,4,2,1,70,0,0
65123,-100,4,2,3,70,0,0
66099,-100,4,2,1,70,0,0
66586,-100,4,2,3,70,0,0
68050,-100,4,2,1,70,0,0
68538,-100,4,2,3,70,0,0
68781,-100,4,2,1,70,0,0
69026,-100,4,2,8,70,0,0
70001,-100,4,2,11,70,0,0
70366,-100,4,2,8,70,0,0
70732,-100,4,2,1,70,0,0
71221,-100,4,2,3,70,0,0
71953,-100,4,2,1,70,0,0
73416,-100,4,2,12,70,0,0
73904,-100,4,2,1,70,0,0
75367,-100,4,2,12,70,0,0
75855,-100,4,2,1,70,0,0
77318,-100,4,2,12,70,0,0
78537,-100,4,2,8,70,0,0
79758,-100,4,2,1,60,0,0
80245,-100,4,2,4,60,0,0
80732,-100,4,2,2,60,0,0
81221,-100,4,2,4,60,0,0
81708,-100,4,2,2,60,0,0
81831,-100,4,2,3,60,0,0
82196,-100,4,2,2,60,0,0
82684,-100,4,2,13,60,0,0
83172,-100,4,2,2,60,0,0
83903,-100,4,2,9,60,0,0
84392,-100,4,2,2,60,0,0
85123,-100,4,2,4,60,0,0
85367,-100,4,2,2,60,0,0
87562,-100,4,2,1,60,0,0
88293,-100,4,2,4,60,0,0
88538,-100,4,2,2,60,0,0
90001,-100,4,2,4,60,0,0
90488,-100,4,2,15,60,0,0
90977,-100,4,2,2,60,0,0
91465,-100,4,2,7,60,0,0
91587,-100,4,2,1,60,0,0
92196,-100,4,2,2,60,0,0
92440,-100,4,2,13,60,0,0
92927,-100,4,2,2,60,0,0
93416,-100,4,2,13,60,0,0
93904,-100,4,2,2,60,0,0
94636,-100,4,2,10,60,0,0
95001,-100,4,2,2,60,0,0
95367,-100,4,2,16,60,0,0
95855,-100,4,2,2,60,0,0
96343,-100,4,2,7,60,0,0
96830,-100,4,2,1,60,0,0
97318,-100,4,2,7,60,0,0
98294,-100,4,2,1,60,0,0
99392,-100,4,2,2,60,0,0
100001,-100,4,2,4,60,0,0
100245,-100,4,2,13,60,0,0
100489,-100,4,2,3,60,0,0
101221,-100,4,2,10,60,0,0
103172,-100,4,2,1,70,0,0
103659,-100,4,2,3,70,0,0
103904,-100,4,2,1,70,0,0
104148,-100,4,2,3,70,0,0
105123,-100,4,2,11,70,0,0
105610,-100,4,2,3,70,0,0
107074,-100,4,2,1,70,0,0
107562,-100,4,2,3,70,0,0
107805,-100,4,2,1,70,0,0
108050,-100,4,2,8,70,0,0
109026,-100,4,2,11,70,0,0
109391,-100,4,2,8,70,0,0
109757,-100,4,2,1,70,0,0
110732,-100,4,2,3,70,0,0
110977,-100,4,2,1,70,0,0
112440,-100,4,2,12,70,0,0
112928,-100,4,2,1,70,0,0
114391,-100,4,2,12,70,0,0
114879,-100,4,2,1,40,0,0
115855,-100,4,2,1,50,0,0
116830,-100,4,2,1,60,0,0
117806,-100,4,2,1,80,0,0
118782,-100,4,2,1,70,0,1
119269,-100,4,2,12,70,0,1
119514,-100,4,2,1,70,0,1
120245,-100,4,2,12,70,0,1
121465,-100,4,2,1,70,0,1
121709,-100,4,2,9,70,0,1
122196,-100,4,2,12,70,0,1
125489,-100,4,2,2,70,0,1
126587,-100,4,2,1,70,0,1
127074,-100,4,2,12,70,0,1
127318,-100,4,2,1,70,0,1
128049,-100,4,2,12,70,0,1
129269,-100,4,2,1,70,0,1
129514,-100,4,2,9,70,0,1
130000,-100,4,2,12,70,0,1
130489,-100,4,2,9,70,0,1
130976,-100,4,2,12,70,0,1
132684,-100,4,2,1,70,0,1
133416,-100,4,2,12,70,0,1
134392,-100,4,2,1,70,0,1
134757,-100,4,2,12,70,0,1
135123,-100,4,2,1,70,0,1
135367,-100,4,2,9,70,0,1
136343,-100,4,2,1,70,0,1
137318,-100,4,2,9,70,0,1
138310,497.92531120332,4,2,2,40,1,0
139325,506.329113924051,4,2,2,40,1,0
140337,510.638297872341,4,2,2,40,1,0
141221,487.80487804878,4,2,2,50,1,0
142197,487.80487804878,4,2,1,60,1,0
151216,487.80487804878,4,2,1,60,1,0
153187,487.80487804878,5,2,2,60,1,0
153319,446.096654275093,5,2,2,60,1,0
153654,487.80487804878,5,2,2,60,1,0
154141,480,5,2,2,60,1,0
154530,470.588235294118,5,2,2,60,1,0
155620,487.80487804878,4,2,18,60,1,0
156107,-100,4,2,7,60,0,0
156595,-100,4,2,1,60,0,0
157084,-100,4,2,7,60,0,0
158546,-100,4,2,1,60,0,0
159522,-100,4,2,7,60,0,0
160253,-100,4,2,3,60,0,0
160498,-100,4,2,7,60,0,0
161473,-100,4,2,12,60,0,0
162693,-100,4,2,1,60,0,0
163912,-100,4,2,2,60,0,0
164399,-100,4,2,4,60,0,0
164887,-100,4,2,2,60,0,0
165376,-100,4,2,1,60,0,0
165863,-100,4,2,2,60,0,0
166595,-100,4,2,19,60,0,0
167326,-100,4,2,1,60,0,0
167815,-100,4,2,2,60,0,0
169278,-100,4,2,1,60,0,0
169766,-100,4,2,2,60,0,0
170498,-100,4,2,13,60,0,0
171229,-100,4,2,1,60,0,0
171717,-100,4,2,2,60,0,0
173180,-100,4,2,13,60,0,0
173668,-100,4,2,2,60,0,0
174399,-100,4,2,15,60,0,0
175132,-100,4,2,1,60,0,0
175619,-100,4,2,2,60,0,0
176107,-100,4,2,1,60,0,0
176962,-100,4,2,3,60,0,0
177084,-100,4,2,1,60,0,0
178302,-100,4,2,2,60,0,0
179033,-100,4,2,20,60,0,0
179522,-100,4,2,2,60,0,0
180133,-100,4,2,15,60,0,0
180497,-100,4,2,2,60,0,0
180985,-100,4,2,1,60,0,0
181473,-100,4,2,2,60,0,0
182205,-100,4,2,13,60,0,0
182936,-100,4,2,20,60,0,0
183424,-100,4,2,1,60,0,0
183911,-100,4,2,3,60,0,0
184400,-100,4,2,1,60,0,0
186839,-100,4,2,2,70,0,0
187326,-100,4,2,3,70,0,0
187570,-100,4,2,1,70,0,0
187816,-100,4,2,3,70,0,0
188790,-100,4,2,2,70,0,0
189277,-100,4,2,3,70,0,0
189765,-100,4,2,5,70,0,0
190741,-100,4,2,2,70,0,0
191230,-100,4,2,3,70,0,0
191472,-100,4,2,1,70,0,0
191718,-100,4,2,3,70,0,0
192693,-100,4,2,21,70,0,0
193058,-100,4,2,5,70,0,0
193424,-100,4,2,2,70,0,0
193668,-100,4,2,3,70,0,0
194644,-100,4,2,2,70,0,0
196107,-100,4,2,10,70,0,0
196960,-100,4,2,2,70,0,0
198058,-100,4,2,10,70,0,0
198546,-100,4,2,10,40,0,0
199034,-100,4,2,2,40,0,0
199521,-100,4,2,2,50,0,0
200009,-100,4,2,18,50,0,0
200498,-100,4,2,18,60,0,0
201473,-100,4,2,18,80,0,0
202449,-100,4,2,1,70,0,1
202936,-100,4,2,12,70,0,1
203181,-100,4,2,1,70,0,1
203912,-100,4,2,12,70,0,1
205132,-100,4,2,1,70,0,1
205377,-100,4,2,9,70,0,1
205863,-100,4,2,12,70,0,1
206351,-100,4,2,9,70,0,1
207326,-100,4,2,12,70,0,1
208485,-100,4,2,12,60,0,1
209156,-100,4,2,2,70,0,1
210254,-100,4,2,1,70,0,1
210741,-100,4,2,12,70,0,1
210985,-100,4,2,1,70,0,1
211716,-100,4,2,12,70,0,1
212937,-100,4,2,1,70,0,1
213180,-100,4,2,9,70,0,1
213668,-100,4,2,12,70,0,1
214156,-100,4,2,9,70,0,1
214643,-100,4,2,12,70,0,1
216351,-100,4,2,1,70,0,1
217083,-100,4,2,12,70,0,1
217570,-100,4,2,9,70,0,1
218059,-100,4,2,1,70,0,1
218424,-100,4,2,12,70,0,1
218790,-100,4,2,1,70,0,1
219034,-100,4,2,9,70,0,1
220010,-100,4,2,1,70,0,1
220498,-100,4,2,9,70,0,1
220741,-100,4,2,1,70,0,1
220985,-100,4,2,9,70,0,1
221961,-100,4,2,10,60,0,0
222448,-100,4,2,9,60,0,0
222937,-100,4,2,10,60,0,0
223424,-100,4,2,9,60,0,0
224156,-100,4,2,10,60,0,0
224399,-100,4,2,9,60,0,0
224888,-100,4,2,12,60,0,0
225863,-100,4,2,1,70,0,1
226228,-100,4,2,12,70,0,1
226594,-100,4,2,1,70,0,1
226839,-100,4,2,9,70,0,1
227815,-100,4,2,12,70,0,1
228180,-100,4,2,1,70,0,1
228302,-100,4,2,9,70,0,1
228546,-100,4,2,1,70,0,1
228791,-100,4,2,9,70,0,1
229766,-100,4,2,12,70,0,1
230497,-100,4,2,1,70,0,1
230742,-100,4,2,12,70,0,1
234033,-100,4,2,1,70,0,1
234155,-100,4,2,9,70,0,1
234399,-100,4,2,1,70,0,1
234644,-100,4,2,12,70,0,1
235131,-100,4,2,8,70,0,1
235619,-100,4,2,1,70,0,1
237565,468.75,4,2,1,70,1,0
244127,-100,4,2,22,70,0,0
245065,-100,4,2,1,70,0,0
247877,-100,4,2,7,70,0,0
248815,-100,4,2,1,70,0,0
249751,-100,4,2,7,70,0,0
250221,-100,4,2,1,70,0,0
256783,-100,4,2,9,70,0,0
257018,-100,4,2,1,70,0,0
257252,-100,4,2,12,70,0,0
258658,-100,4,2,9,70,0,0
259127,-100,4,2,12,70,0,0
259478,-100,4,2,8,70,0,0
259830,-100,4,2,1,70,0,0
262877,-100,4,2,7,70,0,0
263814,-100,4,2,1,70,0,0
264751,-100,4,2,7,70,0,0
265221,-100,4,2,1,70,0,0
270142,-100,4,2,3,70,0,0
270377,-100,4,2,1,70,0,0
271783,-100,4,2,9,70,0,0
272018,-100,4,2,1,70,0,0
272252,-100,4,2,12,70,0,0
273190,-100,4,2,1,40,0,0
275065,-100,4,2,12,50,0,0
275533,-100,4,2,1,50,0,0
280221,-100,4,2,12,50,0,0
280706,703.125000274658,4,2,1,70,1,0
280706,-66.6666666666667,4,2,1,70,0,0
281409,-66.6666666666667,4,2,1,80,0,0
282112,-66.6666666666667,4,2,1,90,0,0
282815,487.80487804878,4,2,2,60,1,0
283514,487.80487804878,4,2,2,60,1,0
283992,460.652591170825,4,2,2,60,1,0
284447,468.75,4,2,2,70,1,1
284681,-100,4,2,5,70,0,1
285384,-100,4,2,2,70,0,1
285735,-100,4,2,5,70,0,1
286556,-100,4,2,21,70,0,1
287024,-100,4,2,5,70,0,1
287259,-100,4,2,2,70,0,1
288665,-100,4,2,1,70,0,1
289603,-100,4,2,5,70,0,1
290072,-100,4,2,2,70,0,1
291478,-100,4,2,5,70,0,1
291947,-100,4,2,2,70,0,1
292884,-100,4,2,5,70,0,1
294759,-100,4,2,2,70,0,1
295696,-100,4,2,1,70,0,1
296165,-100,4,2,2,70,0,1
296400,-100,4,2,21,70,0,1
297103,-100,4,2,2,70,0,1
301087,-100,4,2,5,70,0,1
301556,-100,4,2,21,70,0,1
301790,-100,4,2,5,70,0,1
303431,-100,4,2,2,70,0,1
304134,-100,4,2,21,70,0,1
304603,-100,4,2,2,70,0,1
305072,-100,4,2,1,70,0,1
305775,-100,4,2,2,70,0,1
306947,-100,4,2,10,70,0,1
307415,-100,4,2,6,70,0,1
307884,-100,4,2,2,70,0,1
309524,-100,4,2,5,70,0,1
309993,-100,4,2,2,70,0,1
311634,-100,4,2,5,70,0,1
312571,-100,4,2,2,70,0,1
315150,-100,4,2,10,70,0,1
315853,-100,4,2,10,70,0,1
316087,-100,4,2,2,70,0,1
316322,-100,4,2,10,70,0,1
317259,-100,4,2,9,70,0,1
317728,-100,4,2,10,70,0,1
319134,-100,4,2,2,70,0,1
319602,-100,4,2,9,70,0,1
320066,519.480519480519,4,2,2,70,1,0
320924,519.480519480519,4,2,2,60,1,0
321397,497.92531120332,4,2,2,50,1,0
321963,473.372781065089,4,2,2,40,1,0
331448,463.320463320463,4,2,2,30,1,0
333532,-100,4,2,2,70,0,0
334378,466.926070038911,4,2,2,70,1,0
335195,-100,4,2,1,60,0,0
336913,504.201680672269,4,2,2,60,1,0
337419,468.75,4,2,10,60,1,0
338825,468.75,4,2,9,60,1,0
339293,-100,4,2,12,60,0,0
340231,-100,4,2,9,60,0,0
340465,-100,4,2,18,60,0,0
340700,-100,4,2,2,60,0,0
341168,-100,4,2,10,60,0,0
342574,-100,4,2,9,60,0,0
343512,-100,4,2,2,60,0,0
343980,-100,4,2,10,60,0,0
344450,-100,4,2,2,60,0,0
344918,-100,4,2,10,60,0,0
348200,-100,4,2,2,60,0,0
348668,-100,4,2,10,60,0,0
349019,-100,4,2,2,60,0,0
349371,-100,4,2,1,60,0,0
349606,-100,4,2,10,60,0,0
351012,-100,4,2,6,60,0,0
351480,-100,4,2,2,60,0,0
351950,-100,4,2,6,60,0,0
352535,-100,4,2,1,60,0,0
353004,-100,4,2,8,60,0,0
354762,-100,4,2,1,60,0,0
355230,-100,4,2,8,60,0,0
355699,-100,4,2,2,60,0,0
356637,487.80487804878,4,2,1,70,1,1
357124,-100,4,2,1,70,0,0
358100,-100,4,2,3,70,0,0
358588,-100,4,2,1,70,0,0
360050,-100,4,2,3,70,0,0
360539,-100,4,2,1,70,0,0
361271,451.127819548872,4,2,1,70,1,0
361496,510.638297872341,4,2,1,70,1,0
362006,-100,4,2,3,70,0,0
362490,487.80487804878,4,2,1,70,1,0
365416,-100,4,2,12,70,0,0
365903,-100,4,2,9,70,0,0
366392,-100,4,2,1,70,0,0
366880,-100,4,2,9,70,0,0
367123,-100,4,2,1,70,0,0
367368,-100,4,2,12,70,0,0
367854,-100,4,2,9,60,0,0
368344,-100,4,2,1,40,0,0
369319,-100,4,2,1,50,0,0
370294,-100,4,2,1,60,0,0
371270,-100,4,2,1,80,0,0
372246,-100,4,2,1,70,0,1
372733,-100,4,2,12,70,0,1
372978,-100,4,2,1,70,0,1
373709,-100,4,2,12,70,0,1
374929,-100,4,2,1,70,0,1
375173,-100,4,2,9,70,0,1
375660,-100,4,2,12,70,0,1
376148,-100,4,2,15,70,0,1
377123,-100,4,2,7,70,0,1
378953,-100,4,2,2,70,0,1
380051,-100,4,2,1,70,0,1
380538,-100,4,2,12,70,0,1
380782,-100,4,2,1,70,0,1
381513,-100,4,2,12,70,0,1
382734,-100,4,2,1,70,0,1
382978,-100,4,2,9,70,0,1
383465,-100,4,2,12,70,0,1
383953,-100,4,2,9,70,0,1
384440,-100,4,2,12,70,0,1
386148,-100,4,2,1,70,0,1
386880,-100,4,2,12,70,0,1
387367,-100,4,2,9,70,0,1
387856,-100,4,2,1,70,0,1
388343,-100,4,2,9,70,0,1
388587,-100,4,2,1,70,0,1
388831,-100,4,2,9,70,0,1
389807,-100,4,2,1,70,0,1
390294,-100,4,2,9,70,0,1
390538,-100,4,2,1,70,0,1
390782,-100,4,2,9,70,0,1
391758,-100,4,2,13,60,0,0
392245,-100,4,2,3,60,0,0
392734,-100,4,2,13,60,0,0
393221,-100,4,2,3,60,0,0
393709,-100,4,2,7,60,0,0
394685,-100,4,2,15,60,0,0
395172,-100,4,2,7,60,0,0
395660,-100,4,2,1,70,0,1
396147,-100,4,2,9,70,0,1
396391,-100,4,2,1,70,0,1
396636,-100,4,2,9,70,0,1
397612,465.116279069767,4,2,1,70,1,1
398309,491.803278688525,4,2,1,70,1,1
398554,-100,4,2,1,70,0,0
398812,488.20179007323,4,2,1,70,1,0
399545,487.80487804878,3,2,1,70,1,1
399545,-100,4,2,1,70,0,1
400276,-100,4,2,17,70,0,1
400641,-100,4,2,1,70,0,1
401740,-100,4,2,17,70,0,1
401983,-100,4,2,7,70,0,1
402227,-100,4,2,1,70,0,1
403203,-100,4,2,17,70,0,1
403568,-100,4,2,1,70,0,1
404666,-100,4,2,17,70,0,1
404909,-100,4,2,7,70,0,1
405153,-100,4,2,1,70,0,1
406130,-100,4,2,17,70,0,1
406495,-100,4,2,1,70,0,1
407593,-100,4,2,17,70,0,1
407836,-100,4,2,7,70,0,1
408080,-100,4,2,1,70,0,1
409057,-100,4,2,17,70,0,1
409422,-100,4,2,1,70,0,1
409788,-100,4,2,8,70,0,1
411252,487.80487804878,4,2,23,60,1,0
411252,-100,4,2,23,60,0,0
411739,-100,4,2,1,60,0,0
411983,-100,4,2,12,60,0,0
412967,487.80487804878,3,2,24,60,1,0
413454,-100,3,2,12,60,0,0
413941,-100,3,2,24,60,0,0
416381,-100,3,2,12,60,0,0
417845,-100,3,2,24,60,0,0
418332,-100,3,2,12,60,0,0
418576,-100,3,2,1,60,0,0
419307,-100,3,2,12,60,0,0
419796,-100,3,2,24,60,0,0
420527,-100,3,2,1,60,0,0
420771,-100,3,2,12,60,0,0
421746,-100,3,2,24,60,0,0
422235,-100,3,2,12,60,0,0
423210,-100,3,2,24,60,0,0
426137,-100,3,2,12,60,0,0
426625,-100,3,2,24,60,0,0
427112,-100,3,2,8,60,0,0
428332,600,4,2,14,60,1,0
433125,851.063829787234,4,2,1,40,1,0
433551,-100,4,2,1,35,0,0
433976,-100,4,2,1,25,0,0
434402,-100,4,2,1,15,0,0
434827,-100,4,2,1,10,0,0
435252,-100,4,2,1,5,0,0
436529,923.076923076923,4,2,1,45,1,0
437452,1080.010800108,4,2,1,35,1,0
437992,-100,4,2,1,25,0,0
438532,-100,4,2,1,15,0,0
439342,-100,4,2,1,5,0,0
441772,-100,4,2,1,45,0,0
443932,-100,4,2,1,35,0,0
446092,-100,4,2,1,25,0,0
448252,-100,4,2,1,15,0,0
450412,-100,4,2,1,5,0,0

[Colours]
Combo1 : 80,165,148
Combo2 : 225,213,138
Combo3 : 192,192,192

[HitObjects]
136,250,5612,5,6,3:2:0:0:
189,334,6100,2,0,B|289:354|289:354|399:309,1,200,8|2,0:2|0:2,0:0:0:0:
422,226,7563,5,4,3:2:0:0:
444,128,8051,2,0,P|389:133|321:210,1,150,10|2,0:2|0:2,0:0:0:0:
246,260,9271,1,2,0:0:0:0:
198,245,9515,2,0,L|180:138,2,100,2|8|2,3:2|0:2|3:2,0:0:0:0:
213,343,10978,1,10,0:2:0:0:
355,203,11954,6,0,P|311:145|176:143,1,200,10|10,0:2|0:2,0:0:0:0:
125,209,13417,2,0,P|102:184|92:114,1,100,6|10,3:2|0:2,0:0:0:0:
130,28,14393,1,2,3:2:0:0:
227,8,14880,1,10,0:2:0:0:
303,73,15368,5,0,3:0:0:0:
282,170,15856,2,0,P|280:233|330:312,1,150,10|2,0:2|0:2,0:0:0:0:
423,311,17076,1,2,0:0:0:0:
462,280,17320,2,0,P|468:228|444:173,2,100,2|8|2,3:2|0:2|3:2,0:0:0:0:
376,331,18783,2,0,P|331:298|270:288,1,100,10|0,0:2|3:0,0:0:0:0:
189,274,19758,6,0,P|145:332|16:315,1,200,10|10,0:2|0:2,0:0:0:0:
92,249,21222,1,6,0:2:0:0:
92,249,23173,6,0,L|64:137,2,100,6|2|6,3:2|0:2|3:2,0:0:0:0:
259,358,25124,2,0,L|290:167,1,175,6|6,3:2|3:2,0:0:0:0:
500,255,27076,2,0,L|513:336,2,75,6|2|6,3:2|3:2|3:2,0:0:0:0:
459,8,29027,1,6,3:2:0:0:
500,255,30978,6,0,P|472:222|397:218,1,100,2|2,0:2|3:2,0:0:0:0:
321,184,31954,2,0,P|293:217|218:221,1,100,2|2,3:2|3:2,0:0:0:0:
153,176,32929,6,0,L|133:61,2,100,6|4|4,3:2|0:2|0:2,0:0:0:0:
199,318,34622,2,0,P|260:347|344:341,1,150,2|4,2:2|0:2,0:0:0:0:
404,265,35855,2,0,P|358:244|309:248,1,100,4|12,0:2|0:2,0:0:0:0:
225,302,36831,5,2,3:2:0:0:
112,202,37563,2,0,P|87:136|121:59,1,150,2|12,3:2|0:2,0:0:0:0:
207,25,38783,2,0,L|323:38,2,100,2|6|2,3:2|0:2|0:2,0:0:0:0:
119,204,40734,6,0,L|235:217,1,100,2|2,3:2|3:2,0:0:0:0:
302,270,41710,2,0,L|418:283,2,100,2|0|2,3:2|3:0|3:2,0:0:0:0:
216,217,43173,2,0,P|198:159|208:105,2,100,2|0|0,3:2|3:0|3:0,0:0:0:0:
302,270,44637,6,0,L|418:283,1,100,0|2,3:0|3:2,0:0:0:0:
415,182,45612,2,0,L|315:170,1,100,2|0,3:2|3:0,0:0:0:0:
233,228,46588,6,0,B|151:248|93:197|90:131|90:131|20:152|11:207|34:258,1,350,2|10,3:2|0:2,0:0:0:0:
54,290,48539,6,0,P|94:319|156:331,1,100,6|10,3:2|0:2,0:0:0:0:
242,333,49515,2,0,P|282:304|344:292,1,100,2|8,3:2|0:2,0:0:0:0:
422,330,50490,1,2,3:2:0:0:
425,230,50978,2,0,P|445:185|488:151,2,100,10|0|8,0:2|3:0|0:2,0:0:0:0:
339,281,52441,6,0,P|300:249|280:204,1,100,2|10,3:2|0:2,0:0:0:0:
316,110,53417,2,0,P|367:108|417:77,2,100,2|8|2,3:2|0:2|3:2,0:0:0:0:
224,70,54880,2,0,P|180:46|130:44,1,100,10|0,0:2|3:0,0:0:0:0:
50,104,55856,1,8,0:2:0:0:
61,203,56344,6,0,P|136:187|209:225,1,150,0|0,3:0|0:2,0:0:0:0:
234,252,57319,2,0,L|214:350,1,100,2|8,3:2|0:2,0:0:0:0:
117,375,58295,1,0,3:0:0:0:
48,302,58783,2,0,L|63:181,1,100,10|0,0:2|3:0,0:0:0:0:
142,145,59758,1,8,0:2:0:0:
213,214,60246,6,0,P|280:219|346:151,1,150,0|0,3:0|0:2,0:0:0:0:
345,118,61222,2,0,P|374:83|446:70,1,100,2|8,3:2|0:2,0:0:0:0:
494,139,62198,5,2,3:2:0:0:
460,232,62685,1,2,3:2:0:0:
387,301,63173,1,2,3:2:0:0:
288,318,63661,1,10,0:2:0:0:
189,302,64149,6,0,P|174:256|132:220,1,100,6|4,3:2|0:2,0:0:0:0:
89,204,64880,2,0,P|170:205|227:157,1,150,2|12,3:2|0:2,0:0:0:0:
218,64,66100,2,0,P|167:80|123:129,2,100,2|4|4,3:2|0:2|0:2,0:0:0:0:
305,112,67563,1,12,0:2:0:0:
354,198,68051,6,0,L|382:41,2,150,2|2|14,3:2|3:2|0:2,0:0:0:0:
286,271,70002,2,0,L|299:349,2,75,6|10|2,3:2|0:2|3:2,0:0:0:0:
207,208,71222,2,0,L|148:199,1,50,8|8,0:2|0:2,0:0:0:0:
62,232,71954,6,0,P|45:266|39:309,2,75,6|8|2,3:2|0:2|3:2,0:0:0:0:
209,202,73417,1,10,0:2:0:0:
157,287,73905,6,0,P|163:323|180:357,2,75,6|10|2,3:2|0:2|3:2,0:0:0:0:
254,173,75368,1,10,0:2:0:0:
272,271,75856,6,0,P|302:292|337:304,2,75,6|10|2,3:2|0:2|3:2,0:0:0:0:
258,121,77319,1,10,0:2:0:0:
325,47,77807,6,0,P|424:57|462:90,1,150,2|2,3:2|3:2,0:0:0:0:
475,135,78783,2,0,L|458:243,1,100,8|10,0:2|3:2,0:0:0:0:
371,281,79759,5,6,3:2:0:0:
291,220,80246,2,0,P|229:201|184:220,1,100,10|2,0:2|3:2,0:0:0:0:
121,275,81222,2,0,L|6:252,2,100,10|2|10,0:2|3:2|0:2,0:0:0:0:
194,342,82685,1,2,3:2:0:0:
286,303,83173,1,10,0:2:0:0:
324,210,83661,6,0,P|325:177|320:143,1,50,2|2,3:2|0:2,0:0:0:0:
255,86,84393,2,0,P|287:63|336:60,2,75,2|2|8,0:2|0:2|0:2,0:0:0:0:
222,123,85368,2,0,P|160:130|89:70,1,150,2|8,0:2|0:2,0:0:0:0:
181,30,86588,1,2,3:2:0:0:
372,86,87563,6,0,L|388:244,1,150,0|2,3:0|0:2,0:0:0:0:
411,279,88539,2,0,P|359:296|330:352,1,100,2|8,3:2|0:2,0:0:0:0:
244,376,89515,2,0,P|224:347|218:320,1,50,0|2,3:0|0:2,0:0:0:0:
201,286,90002,2,0,P|134:276|94:298,1,100,10|2,0:2|3:2,0:0:0:0:
26,348,90978,5,8,0:2:0:0:
15,248,91466,2,0,L|-2:90,1,150,2|2,3:2|0:2,0:0:0:0:
25,56,92441,2,0,P|73:38|125:62,1,100,2|8,3:2|0:2,0:0:0:0:
194,117,93417,1,2,3:2:0:0:
267,49,93905,1,10,0:2:0:0:
433,118,94637,6,0,P|455:154|459:196,2,75,10|10|2,0:2|0:2|0:2,0:0:0:0:
348,64,95856,5,14,0:2:0:0:
253,97,96344,2,0,L|134:81,1,100,2|8,3:2|0:2,0:0:0:0:
113,175,97319,1,2,3:2:0:0:
212,188,97806,1,10,0:2:0:0:
311,201,98295,2,0,P|371:213|421:246,1,100,0|8,3:0|0:2,0:0:0:0:
454,318,99271,6,0,L|485:151,1,150,0|2,3:0|0:2,0:0:0:0:
487,120,100246,2,0,P|462:60|417:37,1,100,2|10,3:2|0:2,0:0:0:0:
341,79,101222,5,2,3:2:0:0:
245,109,101710,1,2,3:2:0:0:
149,139,102198,1,2,3:2:0:0:
53,169,102685,1,10,0:2:0:0:
33,267,103173,6,0,P|83:269|141:302,1,100,6|4,3:2|0:2,0:0:0:0:
161,326,103905,2,0,P|240:322|282:267,1,150,2|12,3:2|0:2,0:0:0:0:
360,209,105124,2,0,L|380:323,2,100,6|4|4,3:2|0:2|0:2,0:0:0:0:
342,110,106587,1,12,0:2:0:0:
434,146,107075,6,0,L|462:-11,2,150,2|2|14,3:2|3:2|0:2,0:0:0:0:
360,209,109027,2,0,L|373:287,2,75,6|10|2,3:2|0:2|3:2,0:0:0:0:
242,115,110490,2,0,L|183:106,1,50,8|0,0:2|3:0,0:0:0:0:
144,122,110978,6,0,L|123:34,2,75,6|8|2,3:2|0:2|3:2,0:0:0:0:
181,267,112441,1,10,0:2:0:0:
95,214,112929,6,0,L|7:235,2,75,6|10|2,3:2|0:2|3:2,0:0:0:0:
240,177,114392,1,10,0:2:0:0:
324,230,114880,1,4,0:2:0:0:
433,62,115856,6,0,P|463:149|477:258,2,200,2|2|10,3:2|3:2|0:2,0:0:0:0:
239,10,118782,6,0,L|132:30,1,100,6|10,3:2|0:2,0:0:0:0:
92,42,119514,1,2,3:2:0:0:
35,180,120245,1,10,0:2:0:0:
117,236,120734,2,0,P|188:229|222:203,1,100,2|10,3:2|0:2,0:0:0:0:
237,171,121466,2,0,P|298:140|377:156,1,150,2|10,3:2|0:2,0:0:0:0:
453,217,122685,6,0,P|399:194|329:291,1,200,2|10,3:2|0:2,0:0:0:0:
393,368,124149,2,0,B|354:299|275:318|275:318|218:304|218:304|157:332|157:332|118:321,1,300,2|10,0:0|0:0,0:0:0:0:
28,354,126100,1,10,0:0:0:0:
0,257,126588,6,0,P|5:202|44:150,1,100,6|10,3:2|0:2,0:0:0:0:
71,140,127319,1,2,3:2:0:0:
209,81,128050,1,10,0:2:0:0:
289,141,128539,2,0,P|360:134|394:108,1,100,2|10,3:2|0:2,0:0:0:0:
409,76,129270,2,0,P|445:130|449:222,1,150,2|10,3:2|0:2,0:0:0:0:
384,288,130490,6,0,P|336:292|291:268,1,100,2|10,3:2|0:2,0:0:0:0:
254,174,131466,1,2,3:2:0:0:
156,151,131954,1,10,0:2:0:0:
38,244,132685,2,0,P|55:195|54:139,1,100,2|0,3:2|0:0,0:0:0:0:
56,97,133417,2,0,P|88:64|152:51,1,100,2|10,3:2|0:2,0:0:0:0:
230,90,134393,6,0,L|242:181,2,75,6|2|2,0:2|3:2|3:2,0:0:0:0:
261,51,135368,1,10,0:2:0:0:
434,151,136344,6,0,L|422:242,2,75,6|2|2,0:2|3:2|3:2,0:0:0:0:
403,112,137319,1,10,0:2:0:0:
248,237,138310,5,2,3:2:0:0:
248,237,141221,6,0,L|235:137,1,100,2|2,3:2|3:2,0:0:0:0:
219,38,142197,1,6,3:2:0:0:
256,192,151216,12,10,153187,0:2:0:0:
290,215,155620,6,0,L|399:199,2,100,6|0|0,3:2|3:0|3:0,0:0:0:0:
211,277,157084,1,2,3:2:0:0:
127,221,157571,2,0,P|113:148|218:100,1,200,2|0,3:2|3:0,0:0:0:0:
309,271,159522,6,0,L|465:284,1,150,2|2,3:2|0:2,0:0:0:0:
499,253,160498,2,0,P|518:200|512:155,1,100,0|2,3:2|3:2,0:0:0:0:
417,188,161473,1,2,3:2:0:0:
197,381,162693,5,14,0:2:0:0:
283,257,163424,5,6,3:2:0:0:
207,191,163912,2,0,L|192:81,2,100,10|2|10,0:2|0:2|0:2,0:0:0:0:
283,257,165376,1,2,3:2:0:0:
377,223,165863,1,10,0:2:0:0:
437,85,166595,2,0,P|471:102|499:149,2,75,2|2|6,3:2|3:2|3:2,0:0:0:0:
338,106,167815,6,0,P|331:54|318:0,2,100,10|2|8,0:2|0:2|0:2,0:0:0:0:
300,198,169278,1,2,3:2:0:0:
217,144,169766,2,0,L|97:130,1,100,10|0,0:2|0:0,0:0:0:0:
72,153,170498,2,0,L|53:57,2,75,2|2|6,3:2|3:2|3:2,0:0:0:0:
47,249,171717,6,0,L|57:301,1,50,10|2,0:2|0:2,0:0:0:0:
92,333,172205,2,0,B|149:350|187:316|187:316|225:281|283:295,1,200,0|2,0:0|3:2,0:0:0:0:
379,294,173668,2,0,P|405:324|419:365,2,75,10|2|2,0:2|3:2|3:2,0:0:0:0:
272,188,175132,6,0,P|256:134|271:86,2,100,2|10|0,3:2|0:0|3:0,0:0:0:0:
338,263,176595,1,8,0:2:0:0:
296,291,176839,2,0,P|213:323|93:318,1,200,2|0,3:2|0:0,0:0:0:0:
21,263,178302,2,0,L|10:337,2,75,6|6|6,3:2|0:0|3:2,0:0:0:0:
83,184,179522,6,0,P|74:139|43:91,2,100,10|2|8,0:2|0:2|0:2,0:0:0:0:
162,244,180985,1,2,3:2:0:0:
236,176,181473,2,0,L|350:156,1,100,10|0,0:2|0:0,0:0:0:0:
373,190,182205,2,0,L|454:201,2,75,2|2|2,3:2|3:2|3:2,0:0:0:0:
302,261,183424,6,0,P|251:285|192:273,1,100,8|2,0:2|0:2,0:0:0:0:
136,210,184400,1,8,0:2:0:0:
128,110,184888,5,10,3:2:0:0:
38,152,185375,1,10,3:2:0:0:
9,247,185863,1,10,3:2:0:0:
46,339,186351,1,8,3:2:0:0:
144,353,186839,6,0,L|251:323,1,100,6|4,3:2|0:2,0:0:0:0:
289,319,187570,2,0,P|352:358|432:342,1,150,0|12,3:0|0:2,0:0:0:0:
489,270,188790,2,0,P|517:311|521:373,2,100,2|4|4,3:2|0:2|0:2,0:0:0:0:
394,236,190253,1,14,0:2:0:0:
475,177,190741,6,0,P|513:108|503:20,2,150,2|0|12,3:2|3:0|0:2,0:0:0:0:
394,236,192693,2,0,P|371:275|371:311,2,75,6|10|2,3:2|0:2|3:2,0:0:0:0:
379,187,193668,2,0,P|324:155|271:158,1,100,4|0,0:2|3:0,0:0:0:0:
192,181,194644,6,0,L|179:94,2,75,6|8|2,3:2|0:2|3:2,0:0:0:0:
210,330,196107,1,10,0:2:0:0:
307,307,196595,6,0,L|294:394,2,75,6|10|2,3:2|0:2|3:2,0:0:0:0:
325,158,198058,1,10,0:2:0:0:
414,202,198546,5,4,0:2:0:0:
475,122,199034,2,0,P|505:180|515:227,2,100,2|2|2,3:2|3:2|3:2,0:0:0:0:
384,79,200498,2,0,P|281:132|193:103,1,200,2|14,3:2|0:2,0:0:0:0:
38,222,202449,6,0,P|76:193|142:189,1,100,6|10,3:2|0:2,0:0:0:0:
169,211,203181,1,2,3:2:0:0:
275,316,203912,1,10,0:2:0:0:
371,340,204400,2,0,P|425:312|443:263,1,100,2|10,3:2|0:2,0:0:0:0:
444,228,205132,2,0,L|418:62,1,150,2|10,3:2|0:2,0:0:0:0:
330,36,206351,6,0,P|297:122|206:110,1,200,2|10,3:2|0:2,0:0:0:0:
131,40,207815,2,0,B|90:62|85:117|109:163|109:163|87:221|87:221|119:268|119:268|99:318,1,300,2|10,0:0|0:0,0:0:0:0:
176,375,209766,1,10,0:0:0:0:
260,320,210254,6,0,L|293:219,1,100,6|10,3:2|0:2,0:0:0:0:
307,177,210985,1,2,3:2:0:0:
441,111,211716,1,10,0:0:0:0:
466,210,212205,2,0,P|458:259|433:301,1,100,2|10,3:2|0:2,0:0:0:0:
384,312,212937,2,0,L|223:292,1,150,2|10,3:2|0:2,0:0:0:0:
142,330,214156,6,0,P|132:276|156:229,1,100,2|10,3:2|0:2,0:0:0:0:
229,175,215132,1,2,3:2:0:0:
327,194,215620,1,10,0:2:0:0:
449,280,216351,2,0,P|466:231|465:175,1,100,2|0,3:2|0:0,0:0:0:0:
430,147,217083,2,0,P|401:103|351:75,1,100,2|10,3:2|0:2,0:0:0:0:
282,139,218059,6,0,P|299:175|294:230,2,75,6|2|2,0:2|3:2|3:2,0:0:0:0:
245,104,219034,1,10,0:2:0:0:
94,236,220010,6,0,P|77:200|82:145,2,75,6|2|2,0:2|3:2|3:2,0:0:0:0:
131,271,220985,1,10,0:2:0:0:
282,139,221961,6,0,L|382:121,1,100,2|10,3:2|0:2,0:0:0:0:
466,172,222937,1,2,3:2:0:0:
422,261,223424,1,10,0:2:0:0:
375,118,224156,2,0,P|373:89|381:62,1,50,0|10,3:0|0:2,0:0:0:0:
477,56,224888,2,0,P|483:94|461:163,1,100,2|2,3:2|3:2,0:0:0:0:
399,226,225863,6,0,P|411:259|415:321,2,75,6|2|2,3:2|3:2|3:2,0:0:0:0:
359,195,226839,1,10,0:2:0:0:
163,237,227815,6,0,P|128:230|72:203,2,75,2|2|2,3:2|3:2|3:2,0:0:0:0:
210,218,228791,1,10,0:2:0:0:
338,64,229766,6,0,P|360:37|412:2,2,75,2|2|2,3:2|3:2|3:2,0:0:0:0:
331,114,230742,1,10,0:2:0:0:
399,226,231717,6,0,P|411:259|415:321,2,75,2|2|2,3:2|3:2|3:2,0:0:0:0:
352,206,232693,2,0,L|242:227,1,100,10|2,0:2|0:2,0:0:0:0:
173,284,233668,6,0,L|87:267,2,75,2|2|2,3:2|3:2|3:2,0:0:0:0:
210,317,234644,2,0,L|310:336,1,100,10|2,0:2|3:2,0:0:0:0:
399,294,235619,6,0,P|426:325|440:370,2,75,10|10|10,0:2|0:2|0:2,0:0:0:0:
360,261,236595,1,10,0:2:0:0:
440,201,237083,1,10,0:2:0:0:
346,157,237565,6,0,L|322:0,2,150,10|10|2,0:2|0:2|3:2,0:0:0:0:
309,250,239440,1,0,3:0:0:0:
259,240,239674,2,0,L|187:227,1,50,10|0,0:2|3:0,0:0:0:0:
139,160,240377,6,0,P|80:142|47:319,1,300,2|0,3:2|0:0,0:0:0:0:
84,331,242018,2,0,L|144:323,1,50,10|0,0:2|3:0,0:0:0:0:
232,307,242721,1,2,3:2:0:0:
322,349,243190,6,0,B|364:318|350:258|350:258|398:281|452:253,2,200,2|2|14,3:2|3:2|0:2,0:0:0:0:
226,318,245533,6,0,L|217:267,2,50,8|2|2,0:2|3:2|3:2,0:0:0:0:
146,379,246471,1,10,0:2:0:0:
53,260,247174,2,0,B|37:210|37:210|52:149,1,100,2|0,3:2|0:0,0:0:0:0:
78,123,247877,2,0,L|181:98,1,100,2|10,3:2|0:2,0:0:0:0:
269,133,248815,5,6,3:2:0:0:
344,67,249283,2,0,L|339:17,2,50,8|2|2,0:2|3:2|0:2,0:0:0:0:
423,127,250221,1,10,0:2:0:0:
269,133,250924,2,0,P|215:148|175:185,1,100,2|0,3:2|0:0,0:0:0:0:
171,224,251627,2,0,L|194:336,1,100,2|10,3:2|0:2,0:0:0:0:
284,357,252565,5,6,3:2:0:0:
370,307,253033,2,0,P|397:312|435:337,2,50,8|2|2,0:2|3:2|3:2,0:0:0:0:
278,265,253971,1,10,0:2:0:0:
134,308,254674,2,0,B|79:319|79:319|33:295,1,100,2|0,3:2|0:0,0:0:0:0:
9,258,255377,2,0,B|-2:203|-2:203|22:157,1,100,2|10,3:2|0:2,0:0:0:0:
98,103,256315,6,0,L|82:15,2,75,6|2|2,3:2|3:2|3:2,0:0:0:0:
140,129,257252,2,0,L|242:111,1,100,10|2,0:2|0:2,0:0:0:0:
259,209,258190,2,0,L|157:227,1,100,2|2,3:2|0:2,0:0:0:0:
74,277,259127,2,0,P|31:264|0:232,2,75,2|8|10,3:2|0:2|0:2,0:0:0:0:
114,306,260065,5,14,0:2:0:0:
185,236,260533,2,0,L|176:185,2,50,8|2|2,0:2|3:2|3:2,0:0:0:0:
267,292,261471,1,10,0:2:0:0:
368,181,262174,2,0,P|429:172|476:201,1,100,2|0,3:2|0:0,0:0:0:0:
504,213,262877,2,0,L|489:316,2,100,2|10|6,3:2|0:2|3:2,0:0:0:0:
510,113,264283,6,0,L|517:59,2,50,8|2|2,0:2|3:2|0:0,0:0:0:0:
422,162,265221,1,10,0:2:0:0:
286,98,265924,2,0,P|232:110|192:150,1,100,2|0,3:2|0:0,0:0:0:0:
174,182,266627,2,0,L|192:295,1,100,2|10,3:2|0:2,0:0:0:0:
124,356,267565,5,6,3:2:0:0:
37,306,268033,2,0,L|27:245,2,50,8|2|0,0:2|3:2|3:2,0:0:0:0:
124,356,268971,1,10,0:2:0:0:
251,277,269674,2,0,P|298:274|349:308,1,100,2|2,3:2|0:2,0:0:0:0:
371,340,270377,2,0,L|358:219,1,100,14|0,0:2|3:0,0:0:0:0:
416,157,271315,6,0,L|496:140,2,75,6|2|2,3:2|3:2|3:2,0:0:0:0:
374,128,272252,2,0,L|267:111,1,100,10|2,0:2|0:2,0:0:0:0:
176,94,273190,5,6,3:2:0:0:
100,278,274127,1,6,3:2:0:0:
176,94,275065,6,0,L|70:116,2,100,2|2|0,3:2|3:2|3:0,0:0:0:0:
262,43,276471,1,2,3:2:0:0:
306,132,276940,2,0,L|292:210,2,75,2|2|0,3:2|0:2|0:0,0:0:0:0:
340,95,277877,2,0,P|378:80|446:102,1,100,2|2,3:2|3:2,0:0:0:0:
483,179,278815,5,2,3:2:0:0:
432,264,279283,2,0,P|384:277|337:261,1,100,2|2,3:2|3:2,0:0:0:0:
255,205,280221,1,2,3:2:0:0:
168,262,280706,6,0,P|110:211|27:225,2,150.000005722046,6|6|14,3:2|3:2|0:2,0:0:0:0:
168,262,284447,6,0,L|204:115,1,150,6|2,3:2|0:2,0:0:0:0:
212,67,285384,2,0,P|177:47|128:38,2,75,2|2|2,3:2|0:2|0:2,0:0:0:0:
297,119,286556,2,0,P|349:110|391:74,1,100,2|2,3:2|0:2,0:0:0:0:
404,35,287259,2,0,P|452:73|462:210,1,200,6|2,0:2|3:2,0:0:0:0:
385,263,288665,5,8,0:2:0:0:
303,205,289134,2,0,P|251:177|206:179,1,100,4|10,0:0|0:2,0:0:0:0:
123,225,290072,2,0,L|102:389,2,150,6|6|10,3:2|3:2|0:2,0:0:0:0:
70,139,291947,6,0,P|72:89|113:54,1,100,4|10,3:2|0:2,0:0:0:0:
205,68,292884,2,0,P|225:112|209:158,2,100,2|10|2,0:2|0:2|0:2,0:0:0:0:
105,73,294290,2,0,P|86:101|87:130,1,50,10|2,0:2|0:2,0:0:0:0:
96,165,294759,2,0,P|46:170|4:217,2,100,6|10|0,0:2|0:2|3:0,0:0:0:0:
183,213,296165,5,8,0:2:0:0:
223,242,296400,2,0,P|289:246|355:186,1,150,2|10,3:2|0:2,0:0:0:0:
353,94,297572,1,6,3:2:0:0:
453,205,298275,2,0,P|461:265|414:362,1,150,4|10,3:2|0:2,0:0:0:0:
330,367,299447,6,0,L|177:347,1,150,14|10,0:2|0:2,0:0:0:0:
142,316,300384,2,0,L|50:331,2,75,6|2|2,0:2|3:2|0:2,0:0:0:0:
215,247,301556,2,0,L|281:234,2,50,2|10|2,3:2|0:2|0:2,0:0:0:0:
121,210,302493,2,0,P|102:158|114:110,1,100,2|0,0:2|0:0,0:0:0:0:
180,43,303431,6,0,B|228:31|257:49|257:49|294:70|338:57,1,150,2|2,0:0|3:2,0:0:0:0:
418,23,304603,1,10,0:2:0:0:
428,122,305072,2,0,P|448:195|499:253,2,150,4|6|8,3:2|3:2|0:2,0:0:0:0:
430,21,306947,5,2,3:2:0:0:
330,9,307415,1,2,3:2:0:0:
279,96,307884,2,0,L|267:184,2,75,6|4|6,0:2|3:2|0:2,0:0:0:0:
201,32,309056,1,2,0:2:0:0:
154,13,309290,2,0,P|63:51|44:98,2,150,10|2|0,0:2|0:0|3:0,0:0:0:0:
249,41,311165,5,8,0:2:0:0:
197,126,311634,2,0,P|181:180|189:226,2,100,2|10|6,0:2|0:2|3:2,0:0:0:0:
276,64,313040,1,6,3:2:0:0:
364,109,313509,1,6,0:2:0:0:
428,185,313978,1,6,3:2:0:0:
456,280,314447,6,0,P|394:288|328:353,1,150,6|2,3:2|3:2,0:0:0:0:
182,362,315853,2,0,P|171:328|170:297,1,50,10|2,0:2|0:2,0:0:0:0:
187,267,316322,2,0,P|208:238|219:169,1,100,2|10,0:2|0:2,0:0:0:0:
181,83,317259,1,2,3:2:0:0:
279,97,317728,6,0,B|331:102|331:102|389:67,2,100,10|2|10,0:2|3:2|0:2,0:0:0:0:
180,79,319134,2,0,P|126:77|70:109,1,100,2|10,0:2|3:2,0:0:0:0:
256,192,320066,12,2,321963,0:2:0:0:
40,181,331448,6,0,B|158:131|240:227|240:227|329:330|449:270,1,450,8|8,0:2|0:2,0:0:0:0:
467,94,334378,6,0,P|407:89|361:186,1,175,10|10,0:2|0:2,0:0:0:0:
157,362,336913,6,0,L|144:253,1,100,6|10,3:2|0:2,0:0:0:0:
133,163,337887,1,2,3:2:0:0:
99,68,338356,2,0,P|48:46|-10:57,2,100,10|2|10,0:2|3:2|0:2,0:0:0:0:
193,100,339762,1,2,3:2:0:0:
273,41,340231,2,0,L|334:30,1,50,10|0,0:2|0:0,0:0:0:0:
371,25,340700,6,0,P|352:81|358:134,1,100,6|10,3:2|0:2,0:0:0:0:
404,207,341637,1,2,3:2:0:0:
467,284,342106,2,0,P|468:333|450:380,2,100,10|2|10,0:2|3:2|0:2,0:0:0:0:
404,207,343512,2,0,P|355:190|286:187,1,100,2|10,3:2|0:2,0:0:0:0:
222,133,344450,6,0,P|170:156|113:163,1,100,6|10,3:2|0:2,0:0:0:0:
35,202,345387,1,2,3:2:0:0:
114,263,345856,2,0,B|161:275|193:318|193:318|227:288|311:289,2,200,10|10|10,0:2|0:2|0:2,0:0:0:0:
35,202,348200,5,6,3:2:0:0:
75,110,348668,2,0,P|69:63|49:20,2,75,10|2|2,0:2|0:2|0:2,0:0:0:0:
112,143,349606,2,0,B|170:162|207:133|207:133|241:106|305:126,1,200,10|10,0:2|0:2,0:0:0:0:
378,191,351012,2,0,P|412:178|421:112,1,100,2|10,3:2|0:2,0:0:0:0:
373,34,351950,6,0,L|234:23,1,125,2|10,3:2|0:2,0:0:0:0:
155,61,353004,2,0,L|41:51,2,100,2|10|2,3:2|0:2|3:2,0:0:0:0:
281,182,354762,2,0,P|305:232|301:282,2,100,10|2|2,0:2|3:2|0:2,0:0:0:0:
93,224,356637,6,0,L|78:305,2,75,6|6|6,3:2|0:2|3:2,0:0:0:0:
120,78,358100,1,8,0:2:0:0:
202,134,358588,2,0,L|217:215,2,75,6|6|6,3:2|0:2|3:2,0:0:0:0:
223,89,359563,2,0,P|265:67|320:75,1,100,10|0,0:2|3:0,0:0:0:0:
395,133,360539,6,0,P|415:86|414:51,2,75,6|6|6,3:2|0:2|3:2,0:0:0:0:
359,159,361496,2,0,P|345:197|352:262,1,100,8|0,0:2|3:0,0:0:0:0:
416,328,362490,2,0,L|510:344,2,75,6|6|2,3:2|0:2|3:2,0:0:0:0:
371,350,363465,2,0,L|252:329,1,100,10|8,0:2|0:2,0:0:0:0:
210,254,364441,6,0,P|184:274|167:328,2,75,6|8|2,3:2|0:2|3:2,0:0:0:0:
257,239,365416,2,0,L|376:228,1,100,2|10,0:2|0:2,0:0:0:0:
412,146,366392,2,0,P|438:166|455:220,2,75,6|10|2,3:2|0:2|3:2,0:0:0:0:
365,131,367367,2,0,L|246:120,1,100,10|10,0:2|0:2,0:0:0:0:
165,113,368343,5,6,0:2:0:0:
76,292,369319,2,0,P|60:193|10:95,2,200,2|2|14,0:2|3:2|0:2,0:0:0:0:
264,360,372246,6,0,P|302:331|368:327,1,100,6|10,3:2|0:2,0:0:0:0:
401,335,372978,1,2,3:2:0:0:
480,208,373709,1,10,0:2:0:0:
380,199,374197,2,0,P|340:150|337:102,1,100,2|10,3:2|0:2,0:0:0:0:
314,69,374929,2,0,P|250:49|160:92,1,150,2|10,3:2|0:2,0:0:0:0:
103,147,376148,6,0,P|160:169|197:304,1,200,2|10,3:2|0:2,0:0:0:0:
138,370,377611,2,0,B|176:310|260:352|260:352|302:308|302:308|373:336|373:336|402:325,1,300,2|10,0:0|0:0,0:0:0:0:
489,289,379563,1,10,0:0:0:0:
401,240,380051,6,0,P|373:187|374:141,1,100,6|10,3:2|0:2,0:0:0:0:
385,99,380782,1,2,3:2:0:0:
236,76,381513,1,10,0:2:0:0:
146,121,382002,2,0,P|150:162|186:214,1,100,2|10,3:2|0:2,0:0:0:0:
230,218,382734,2,0,P|252:156|227:62,1,150,2|10,3:2|0:2,0:0:0:0:
144,33,383953,6,0,L|42:16,1,100,2|10,3:2|0:2,0:0:0:0:
0,106,384929,1,2,3:2:0:0:
98,122,385416,1,10,0:2:0:0:
232,56,386148,2,0,P|282:52|338:84,1,100,2|0,0:2|0:0,0:0:0:0:
357,112,386880,2,0,L|366:225,1,100,2|10,3:2|0:2,0:0:0:0:
439,278,387856,6,0,L|521:259,2,75,6|2|2,3:2|0:2|3:2,0:0:0:0:
391,293,388831,1,10,0:2:0:0:
207,213,389807,6,0,L|125:194,2,75,6|2|2,3:2|0:2|3:2,0:0:0:0:
255,228,390782,1,10,0:2:0:0:
437,144,391758,6,0,P|439:88|419:44,1,100,2|10,3:2|0:2,0:0:0:0:
331,4,392734,1,2,3:2:0:0:
241,48,393221,1,10,0:2:0:0:
141,52,393709,2,0,L|42:27,1,100,2|10,0:2|0:2,0:0:0:0:
13,123,394685,2,0,L|109:147,1,100,2|10,3:2|0:0,0:0:0:0:
176,222,395660,6,0,P|167:258|176:299,2,75,6|2|2,3:2|0:2|3:2,0:0:0:0:
215,191,396636,1,10,0:2:0:0:
397,306,397612,6,0,P|406:270|397:225,2,75,10|10|10,0:2|0:2|0:2,0:0:0:0:
358,337,398554,1,10,0:2:0:0:
255,342,399056,1,10,0:2:0:0:
161,304,399545,6,0,P|124:268|78:246,1,100,6|0,3:2|0:0,0:0:0:0:
31,238,400276,2,0,P|14:271|5:307,2,75,10|10|6,0:2|0:2|3:2,0:0:0:0:
133,128,401740,2,0,P|127:95|121:75,2,50,10|2|10,0:2|0:2|0:2,0:0:0:0:
139,177,402471,5,6,3:2:0:0:
250,276,403203,2,0,L|242:355,2,75,10|10|6,0:2|0:2|0:2,0:0:0:0:
344,159,404666,2,0,L|334:107,2,50,10|2|10,0:2|3:2|0:2,0:0:0:0:
354,207,405397,5,6,3:2:0:0:
230,292,406130,2,0,L|222:371,2,75,10|10|6,0:2|0:2|3:2,0:0:0:0:
125,184,407593,2,0,L|73:194,2,50,10|2|10,0:2|0:2|0:2,0:0:0:0:
173,174,408324,5,6,3:2:0:0:
307,107,409057,2,0,L|387:120,2,75,10|10|2,0:2|0:2|0:2,0:0:0:0:
18,25,411252,6,0,P|59:37|92:81,1,100,6|2,3:2|0:2,0:0:0:0:
119,123,411983,2,0,L|93:222,2,100,10|2|2,0:2|3:2|0:0,0:0:0:0:
181,42,413454,2,0,L|280:16,1,100,10|2,0:2|0:2,0:0:0:0:
373,46,414430,6,0,P|422:79|406:205,1,200,2|2,0:2|0:2,0:0:0:0:
321,257,415893,1,2,3:2:0:0:
239,198,416381,2,0,P|154:207|121:305,1,200,10|2,0:2|0:2,0:0:0:0:
36,358,417845,2,0,P|17:311|19:245,1,100,10|2,0:2|0:2,0:0:0:0:
39,218,418576,6,0,L|57:52,1,150,2|10,3:2|0:2,0:0:0:0:
155,76,419796,2,0,L|138:225,1,150,2|2,0:2|0:2,0:0:0:0:
123,270,420771,2,0,P|125:308|161:362,2,100,10|2|2,0:2|0:2|0:2,0:0:0:0:
187,191,422235,2,0,P|226:165|281:162,1,100,10|2,0:2|0:2,0:0:0:0:
332,245,423210,6,0,P|410:228|475:118,1,200,2|2,0:2|0:2,0:0:0:0:
434,40,424673,1,2,0:2:0:0:
337,12,425162,2,0,P|259:29|194:139,1,200,10|2,0:2|0:2,0:0:0:0:
269,191,426625,2,0,P|310:157|370:156,1,100,10|2,0:2|0:2,0:0:0:0:
393,185,427357,6,0,B|375:227|348:245|348:245|362:282|385:307|385:307|380:334|352:367,1,200,10|6,0:2|3:2,0:0:0:0:
256,192,433125,12,0,435252,0:0:0:0:
256,192,436529,12,0,439342,0:0:0:0:
256,192,441772,12,0,450412,0:0:0:0:
