osu file format v14

[General]
AudioFilename: audio.mp3
AudioLeadIn: 0
PreviewTime: 84148
Countdown: 0
SampleSet: Drum
StackLeniency: 1
Mode: 0
LetterboxInBreaks: 0
WidescreenStoryboard: 1

[Editor]
Bookmarks: 37501,56168,65647,74834,84168,104168,123629,128641,130471,132958,135284,137501,156168,165501,177654,178154,184237,207987,208321,208654,208821,209154,209321,209654,209987,210321,210654,212321
DistanceSpacing: 1.3
BeatDivisor: 4
GridSize: 8
TimelineZoom: 1.3

[Metadata]
Title:Birdwatching
TitleUnicode:Birdwatching
Artist:Thank You Scientist
ArtistUnicode:Thank You Scientist
Creator:migin
Version:Crow
Source:
Tags:bird watching terraformer pishifat blixys english breakcore prog progressive rock novelty featured artist
BeatmapID:2456100
BeatmapSetID:1092482

[Difficulty]
HPDrainRate:4
CircleSize:3.5
OverallDifficulty:6.5
ApproachRate:7.5
SliderMultiplier:1
SliderTickRate:1

[Events]
//Background and Video events
0,0,"birdbg.jpg",0,0
//Break Periods
2,34519,37494
2,75265,81210
//Storyboard Layer 0 (Background)
//Storyboard Layer 1 (Fail)
//Storyboard Layer 2 (Pass)
//Storyboard Layer 3 (Foreground)
//Storyboard Layer 4 (Overlay)
//Storyboard Sound Samples

[TimingPoints]
369,666.148551126901,7,2,1,60,1,0
18835,666.666666666667,7,2,1,44,1,0
19001,-101.010101010101,4,2,1,60,0,0
19003,659.340659340659,7,2,1,60,1,0
20961,677.966101694915,7,2,1,60,1,0
22316,659.340659340659,7,2,1,44,1,0
22316,-102.249488752556,7,2,1,44,0,0
22975,689.655172413793,7,2,1,60,1,0
23664,670.391061452514,7,2,1,60,1,0
25004,-95.5109837631328,4,2,1,60,0,0
25643,689.655172413793,7,2,1,60,1,0
26332,655.737704918033,7,2,1,60,1,0
26987,666.666666666667,7,2,1,60,1,0
27320,-100,7,2,1,44,0,0
27653,648.648648648649,7,2,1,60,1,0
28301,701.754385964912,7,2,1,60,1,0
29002,659.340659340659,7,2,1,60,1,0
30320,666.666666666667,7,2,1,60,1,0
34320,681.818181818182,7,2,1,60,1,0
35001,652.173913043478,7,2,1,60,1,0
35653,666.666666666667,7,2,1,60,1,0
36986,652.173913043478,7,2,1,60,1,0
37638,681.818181818182,7,2,1,60,1,0
38319,666.666666666667,7,2,1,60,1,0
39985,-98.9119683481701,4,2,1,44,0,0
40319,652.173913043478,7,2,1,60,1,0
41623,681.818181818182,7,2,1,60,1,0
42304,-98.4251968503937,4,2,1,44,0,0
42986,659.340659340659,7,2,1,60,1,0
43645,666.666666666667,7,2,1,60,1,0
44311,681.818181818182,7,2,1,60,1,0
44992,641.711229946524,7,2,1,60,1,0
45633,666.666666666667,7,2,1,60,1,0
46299,659.340659340659,7,2,1,60,1,0
46628,-101.522842639594,4,2,1,44,0,0
46958,674.157303370787,7,2,1,60,1,0
47632,666.666666666667,7,2,1,60,1,0
47965,-100,7,2,1,44,0,0
48965,689.655172413793,7,2,1,60,1,0
49654,666.666666666667,7,2,1,60,1,0
50320,652.173913043478,7,2,1,60,1,0
50972,666.666666666667,7,2,1,60,1,0
51638,697.674418604651,7,2,1,60,1,0
52335,645.161290322581,7,2,1,60,1,0
52980,666.666666666667,7,2,1,60,1,0
53646,652.173913043478,7,2,1,44,1,0
53646,-101.010101010101,4,2,1,44,0,0
54298,666.666666666667,7,2,1,60,1,0
54964,652.173913043478,7,2,1,60,1,0
55616,666.666666666667,7,2,1,60,1,0
56282,693.64161849711,7,2,0,60,1,0
56282,-66.6666666666667,4,2,0,60,0,0
56975,681.818181818182,7,2,0,60,1,0
56975,-66.6666666666667,7,2,0,60,0,0
57656,652.173913043478,7,2,0,60,1,0
57656,-66.6666666666667,7,2,0,60,0,0
58308,666.666666666667,7,2,0,60,1,0
58308,-66.6666666666667,7,2,0,60,0,0
60308,659.340659340659,7,2,0,60,1,0
60308,-100,7,2,0,60,0,0
60967,681.818181818182,7,2,0,60,1,0
61648,666.666666666667,7,2,0,60,1,0
61648,-66.6666666666667,7,2,0,60,0,0
62981,652.173913043478,7,2,0,60,1,0
63633,666.666666666667,7,2,0,60,1,0
63633,-66.6666666666667,7,2,0,60,0,0
64966,681.818181818182,7,2,0,60,1,0
64966,-66.6666666666667,7,2,0,60,0,0
65647,652.173913043478,7,2,0,60,1,0
65647,-66.6666666666667,7,2,0,60,0,0
66336,612.244897959184,7,2,0,44,1,0
66642,705.882352941176,7,2,0,60,1,0
66642,-66.6666666666667,7,2,0,60,0,0
66994,652.173913043478,7,2,0,44,1,0
66994,-66.6666666666667,7,2,0,44,0,0
67646,666.666666666667,7,2,0,44,1,0
67646,-66.6666666666667,7,2,0,44,0,0
69479,-65.5737704918033,7,2,0,44,0,0
69646,638.297872340426,7,2,0,60,1,0
70284,681.818181818182,7,2,0,44,1,0
70284,-66.6666666666667,7,2,0,44,0,0
71647,666.666666666667,7,2,0,44,1,0
71647,-66.6666666666667,7,2,0,44,0,0
73647,659.340659340659,7,2,0,60,1,0
73647,-66.6666666666667,7,2,0,60,0,0
74965,600,7,2,0,60,1,0
75265,681.818181818182,7,2,0,60,1,0
76185,618.556701030928,7,2,0,60,1,0
76494,666.666666666667,7,2,0,60,1,0
77363,631.578947368421,7,2,0,60,1,0
78500,652.173913043478,7,2,0,60,1,0
79679,631.578947368421,7,2,0,60,1,0
79994,705.882352941176,7,2,0,60,1,0
80345,666.666666666667,7,2,0,60,1,0
80869,666.666666666667,7,2,0,60,1,0
82035,631.578947368421,7,2,0,60,1,0
82035,-66.6666666666667,7,2,0,60,0,0
82666,655.737704918033,7,2,0,60,1,0
82829,-66.6666666666667,7,2,0,60,0,0
83321,666.666666666667,7,2,0,60,1,0
83321,-57.1428571428571,7,2,0,60,0,0
84315,666.666666666667,7,2,0,44,1,0
84315,-50,4,2,0,44,0,0
84981,659.340659340659,7,2,0,44,1,0
84981,-50,4,2,0,44,0,0
85640,674.157303370787,7,2,1,44,1,0
85640,-50,7,2,1,44,0,0
86314,652.173913043478,7,2,1,44,1,0
86966,666.666666666667,7,2,1,44,1,0
86966,-50,4,2,1,44,0,0
87632,662.983425414365,7,2,1,44,1,0
87963,-50,7,2,1,44,0,0
88294,666.666666666667,7,2,1,60,1,0
88627,-50,4,2,1,60,0,0
90294,674.157303370787,7,2,1,60,1,0
90294,-50,7,2,1,60,0,0
90968,666.666666666667,7,2,1,60,1,0
91301,-50,7,2,1,60,0,0
93634,674.157303370787,7,2,1,60,1,0
93634,-50,7,2,1,60,0,0
94308,666.666666666667,7,2,1,60,1,0
94308,-50,7,2,1,60,0,0
103641,645.161290322581,7,2,0,60,1,0
103641,-50,7,2,0,60,0,0
104286,681.818181818182,7,2,1,60,1,0
104286,-50,7,2,1,60,0,0
104967,666.666666666667,7,2,1,60,1,0
104967,-50,7,2,1,60,0,0
106300,674.157303370787,7,2,1,60,1,0
106974,666.666666666667,7,2,1,60,1,0
106974,-50,7,2,1,60,0,0
108307,659.340659340659,7,2,1,60,1,0
108307,-50,7,2,1,60,0,0
108966,666.666666666667,7,2,1,60,1,0
108966,-50,7,2,1,60,0,0
112966,659.340659340659,7,2,1,60,1,0
112966,-50,7,2,1,60,0,0
114284,670.391061452514,7,2,1,60,1,0
114284,-50,7,2,1,60,0,0
117635,666.666666666667,7,2,1,60,1,0
117635,-50,7,2,1,60,0,0
120301,662.983425414365,7,2,1,60,1,0
120301,-50,7,2,1,60,0,0
120963,666.666666666667,7,2,1,60,1,0
120963,-50,7,2,1,60,0,0
123629,666.666666666667,7,2,0,60,1,0
123962,-71.4285714285714,7,2,0,60,0,0
124295,659.340659340659,7,2,0,60,1,0
124295,-71.4285714285714,7,2,0,60,0,0
124789,-72.463768115942,7,2,0,60,0,0
124954,681.818181818182,7,2,0,60,1,0
125635,666.666666666667,7,2,0,60,1,0
125968,-62.5,4,2,0,60,0,0
126301,652.173913043478,7,2,0,60,1,0
126301,-62.5,7,2,0,60,0,0
126953,674.157303370787,7,2,0,60,1,0
126953,-62.5,7,2,0,60,0,0
127458,740.740740740741,7,2,0,60,1,0
127458,-62.5,7,2,0,60,0,0
127642,666.666666666667,7,2,0,60,1,0
127808,-62.5,7,2,0,60,0,0
128308,666.666666666667,7,2,0,60,1,0
128641,-58.8235294117647,7,2,0,60,0,0
128974,652.173913043478,7,2,0,60,1,0
128974,-58.8235294117647,7,2,0,60,0,0
129626,681.818181818182,7,2,0,60,1,0
129796,-58.8235294117647,7,2,0,60,0,0
130307,659.340659340659,7,2,0,60,1,0
130307,-58.8235294117647,7,2,0,60,0,0
130471,-55.5555555555556,7,2,0,60,0,0
130966,645.161290322581,7,2,0,60,1,0
130966,-55.5555555555556,7,2,0,60,0,0
131611,681.818181818182,7,2,0,60,1,0
131611,-55.5555555555556,7,2,0,60,0,0
132292,666.666666666667,7,2,0,60,1,0
132625,-55.5555555555556,7,2,0,60,0,0
133625,659.340659340659,7,2,0,60,1,0
133625,-52.6315789473684,7,2,0,60,0,0
134284,666.666666666667,7,2,0,60,1,0
134950,-52.6315789473684,7,2,0,60,0,0
135284,-50,7,2,0,60,0,0
135617,674.157303370787,7,2,0,60,1,0
135617,-50,7,2,0,60,0,0
137302,697.674418604651,7,2,0,60,1,0
137948,697.674418604651,7,2,0,60,1,0
137948,-71.4285714285714,7,2,0,60,0,0
138820,681.818181818182,7,2,0,60,1,0
138820,-71.4285714285714,7,2,0,60,0,0
138990,-71.4285714285714,7,2,1,60,0,0
139989,666.666666666667,7,2,1,60,1,0
139989,-71.4285714285714,7,2,1,60,0,0
142322,666.666666666667,7,2,1,60,1,0
142322,-71.4285714285714,7,2,1,60,0,0
158655,333.333333333333,7,2,1,60,1,0
160988,-100,7,2,0,60,0,0
162154,-100,7,2,1,60,0,0
162654,-100,7,2,0,60,0,0
165655,-66.6666666666667,4,2,0,60,0,0
166321,-66.6666666666667,4,3,5,60,0,0
211154,-57.1428571428571,4,3,5,60,0,0

[Colours]
Combo1 : 255,174,102
Combo2 : 191,191,191
Combo3 : 255,237,166
Combo4 : 255,89,89

[HitObjects]
271,255,19003,6,0,P|322:244|377:203,1,100,0|0,0:0|3:0,0:0:0:0:
361,218,20321,1,2,0:0:0:0:
418,334,20961,2,0,P|381:340|362:347,2,50,0|0|2,3:2|0:0|0:0,0:0:0:0:
272,255,22316,2,0,B|227:246|174:267|174:267|139:233|84:226,1,200,0|0,3:2|3:0,0:0:0:0:
358,49,25004,6,0,P|348:86|325:118,1,78.5249978911744,2|2,0:0|0:0,0:0:0:0:
324,118,25987,1,2,0:0:0:0:
249,174,26332,2,0,P|221:149|203:116,1,75,2|2,3:2|0:0,0:0:0:0:
203,116,27320,1,2,0:0:0:0:
266,38,27653,1,0,0:0:0:0:
42,64,29661,6,0,P|68:89|84:123,1,75,2|2,0:0|0:0,0:0:0:0:
84,122,30653,1,0,0:0:0:0:
34,194,30986,1,2,0:0:0:0:
169,256,31486,1,2,0:0:0:0:
302,196,31986,2,0,B|330:199|349:217|349:217|377:205|412:213,1,100,2|0,0:0|0:0,0:0:0:0:
466,292,32986,1,2,3:2:0:0:
466,292,33320,2,0,B|434:292|399:318|399:318|366:300|324:306,1,150,2|0,0:0|3:0,0:0:0:0:
512,41,38319,6,0,P|488:15|446:-1,1,75,2|0,3:2|0:0,0:0:0:0:
389,49,38985,2,0,P|356:39|311:44,1,75,2|0,0:0|0:0,0:0:0:0:
248,85,39652,1,2,3:2:0:0:
313,174,39985,2,0,B|236:175|171:217|171:217|104:187|21:202,1,300,2|0,0:0|0:0,0:0:0:0:
152,315,42304,2,0,B|198:312|249:344|249:344|295:322|353:331,1,200,2|0,3:2|3:0,0:0:0:0:
313,174,44311,6,0,P|289:192|256:201,1,50,2|2,0:0|0:0,0:0:0:0:
362,80,44992,2,0,P|357:50|366:17,1,50,2|2,3:2|0:0,0:0:0:0:
418,168,45633,1,2,0:0:0:0:
418,168,45966,2,0,P|445:178|469:202,1,50,2|0,0:0|3:0,0:0:0:0:
313,174,46628,2,0,B|270:176|242:200|242:200|198:188|153:207,1,150,2|0,0:0|0:0,0:0:0:0:
254,279,47965,2,0,B|297:281|325:305|325:305|369:293|414:312,1,150,2|0,0:0|3:0,0:0:0:0:
156,314,49654,6,0,P|174:337|204:354,1,50,2|2,0:0|0:0,0:0:0:0:
132,210,50320,2,0,P|144:182|144:148,1,50,2|2,3:2|0:0,0:0:0:0:
56,281,50972,1,2,0:0:0:0:
56,281,51305,2,0,P|27:283|-3:300,1,50,2|0,0:0|3:0,0:0:0:0:
285,51,53646,6,0,B|332:54|379:83|379:83|424:63|477:73,1,200,2|0,0:0|0:0,0:0:0:0:
287,303,56116,1,0,0:0:0:0:
234,239,56282,5,4,3:0:0:0:
130,348,56628,1,0,0:0:0:0:
315,225,56975,2,0,L|397:238,1,75.0000028610231,0|0,1:0|0:0,0:0:0:0:
469,249,57486,1,4,0:3:0:0:
512,182,57656,1,4,3:0:0:0:
476,111,57819,2,0,L|401:122,1,75.0000028610231
322,134,58308,1,0,1:0:0:0:
318,305,58641,5,0,0:0:0:0:
401,121,58974,2,0,L|390:42,1,75.0000028610231,4|0,3:0|0:0,0:0:0:0:
390,46,59641,1,0,1:0:0:0:
316,90,59808,2,0,P|282:107|240:111,1,75.0000028610231,0|2,0:0|0:0,0:0:0:0:
245,111,60472,1,0,0:0:0:0:
76,92,60802,1,0,0:0:0:0:
22,153,60967,5,0,1:0:0:0:
215,233,61307,1,0,0:0:0:0:
53,351,61648,2,0,L|137:362,1,75.0000028610231,4|0,3:0|0:0,0:0:0:0:
127,360,62314,1,0,1:0:0:0:
198,317,62481,2,0,L|284:302,1,75.0000028610231
350,287,62981,1,4,3:0:0:0:
363,47,63307,1,0,0:0:0:0:
363,47,63633,6,0,L|360:140,1,75.0000028610231,0|0,1:0|0:0,0:0:0:0:
354,347,64299,1,4,3:0:0:0:
431,325,64466,1,0,0:0:0:0:
153,270,64799,1,0,0:0:0:0:
75,289,64966,2,0,L|-5:307,1,75.0000028610231,0|0,1:0|0:0,0:0:0:0:
47,84,65647,6,0,L|56:126,1,37.5000014305115,4|0,3:0|0:0,0:0:0:0:
104,24,65973,2,0,L|112:-17,1,37.5000014305115
166,84,66336,1,0,1:0:0:0:
166,84,66642,5,0,0:0:0:0:
243,53,66818,2,0,L|302:68,1,37.5000014305115,0|4,0:0|3:0,0:0:0:0:
232,134,67157,2,0,P|253:148|284:189,1,75.0000028610231
344,249,67646,2,0,P|328:256|308:277,1,37.5000014305115,0|0,1:0|0:0,0:0:0:0:
307,348,67979,1,0,0:0:0:0:
165,254,68312,6,0,P|136:277|121:311,1,75.0000028610231,4|0,3:0|0:0,0:0:0:0:
121,311,68979,1,0,1:0:0:0:
195,353,69146,1,0,0:0:0:0:
428,158,69479,2,0,P|434:121|423:85,1,75.0000028610231,2|0,0:0|0:0,0:0:0:0:
424,86,70124,5,2,0:0:0:0:
376,28,70284,2,0,L|301:17,2,75.0000028610231,0|0|4,1:0|0:0|3:0,0:0:0:0:
131,75,71306,2,0,L|83:84,1,37.5000014305115
31,35,71647,1,0,1:0:0:0:
20,115,71813,2,0,P|42:144|75:161,1,75.0000028610231
155,159,72313,1,4,3:0:0:0:
208,373,72647,5,0,0:0:0:0:
4,319,72980,2,0,L|-9:217,1,75.0000028610231,0|0,1:0|0:0,0:0:0:0:
214,62,73647,1,4,3:0:0:0:
202,142,73811,2,0,L|192:216,1,75.0000028610231
185,297,74306,5,0,1:0:0:0:
261,279,74471,1,0,0:0:0:0:
277,204,74636,1,0,0:0:0:0:
341,157,74800,2,0,L|381:167,1,37.5000014305115,2|0,2:0|0:0,0:0:0:0:
2,353,82035,5,2,0:0:0:0:
223,314,82350,2,0,L|266:307,2,37.5000014305115,2|0|2,0:0|0:0|0:0,0:0:0:0:
95,171,83321,6,0,L|99:128,1,43.7500004172325,0|2,0:0|0:0,0:0:0:0:
21,112,83654,2,0,L|17:69,1,43.7500004172325,0|2,0:0|0:0,0:0:0:0:
82,12,83987,5,2,0:0:0:0:
160,25,84154,1,2,0:0:0:0:
238,38,84315,2,0,L|230:148,1,100,4|0,3:0|0:0,0:0:0:0:
400,130,84981,6,0,L|460:140,1,50,2|0,1:2|0:0,0:0:0:0:
512,212,85310,2,0,L|452:221,1,50,2|0,0:0|0:0,0:0:0:0:
386,282,85640,2,0,L|439:300,1,50,6|0,3:0|0:0,0:0:0:0:
501,367,85977,2,0,L|436:388,1,50,2|0,0:0|0:0,0:0:0:0:
373,384,86314,1,2,1:2:0:0:
297,144,86640,1,2,0:0:0:0:
297,144,86803,1,0,0:0:0:0:
297,144,86966,2,0,P|253:130|176:150,1,100,6|0,3:0|0:0,0:0:0:0:
378,80,87632,1,2,1:2:0:0:
130,179,87963,2,0,P|102:200|72:260,1,100,2|4,0:0|3:0,0:0:0:0:
280,197,88627,2,0,L|275:134,1,50,2|0,0:0|0:0,0:0:0:0:
271,66,88960,5,4,3:0:0:0:
139,340,89294,2,0,P|175:342|227:326,1,50
265,313,89627,1,0,1:0:0:0:
109,151,89960,1,2,0:0:0:0:
322,76,90294,2,0,P|351:97|388:154,1,100,6|0,3:0|0:0,0:0:0:0:
339,214,90799,2,0,P|313:225|288:224,1,50,2|0,0:0|1:0,0:0:0:0:
466,23,91301,2,0,P|478:59|449:131,1,100,2|4,0:0|3:0,0:0:0:0:
221,139,91968,1,2,0:0:0:0:
221,139,92301,2,0,L|275:149,1,50,2|0,1:2|0:0,0:0:0:0:
44,38,92801,2,0,L|99:27,1,50,2|4,0:0|3:0,0:0:0:0:
54,225,93301,1,2,0:0:0:0:
229,66,93634,6,0,P|258:67|306:87,1,50,2|2,1:2|0:0,0:0:0:0:
270,151,93971,2,0,P|294:166|326:207,1,50,2|2,0:0|0:0,0:0:0:0:
290,254,94308,2,0,P|311:304|300:357,1,100,4|0,3:0|0:0,0:0:0:0:
23,151,94974,6,0,L|98:138,1,50,2|0,1:2|0:0,0:0:0:0:
101,217,95308,2,0,L|167:232,1,50,2|0,0:0|0:0,0:0:0:0:
190,152,95641,2,0,L|265:139,1,50,6|0,3:0|0:0,0:0:0:0:
273,217,95975,2,0,L|339:232,1,50,2|0,0:0|0:0,0:0:0:0:
400,247,96308,1,2,1:2:0:0:
512,67,96641,1,2,0:0:0:0:
313,52,96974,2,0,P|277:51|220:89,1,100,6|0,3:0|0:0,0:0:0:0:
418,292,97641,2,0,P|413:269|399:246,1,50,2|0,1:2|0:0,0:0:0:0:
415,170,97974,2,0,P|373:139|285:141,1,100,2|4,0:0|3:0,0:0:0:0:
243,336,98641,1,2,0:0:0:0:
243,336,98974,6,0,L|126:326,1,100,4|0,3:0|0:0,0:0:0:0:
65,317,99474,1,0,0:0:0:0:
111,256,99641,1,0,1:0:0:0:
276,134,99974,6,0,L|343:139,1,50,2|0,0:0|0:0,0:0:0:0:
384,85,100308,2,0,L|440:80,1,50,6|0,3:0|0:0,0:0:0:0:
338,298,100808,1,2,0:0:0:0:
418,289,100974,1,0,1:0:0:0:
137,310,101308,2,0,L|83:315,1,50,2|0,0:0|0:0,0:0:0:0:
45,374,101641,2,0,P|53:320|31:263,1,100,4|2,3:0|0:0,0:0:0:0:
415,57,102308,2,0,L|474:51,1,50,2|0,1:2|0:0,0:0:0:0:
169,118,102808,2,0,L|110:124,1,50,2|4,0:0|3:0,0:0:0:0:
339,267,103308,1,2,0:0:0:0:
33,252,103641,6,0,L|42:306,1,50,2|2,1:2|0:0,0:0:0:0:
98,358,103963,1,2,0:0:0:0:
168,320,104124,1,2,0:0:0:0:
238,358,104286,5,4,3:0:0:0:
363,197,104626,2,0,L|421:188,1,50
477,226,104967,2,0,P|451:167|457:98,1,100,2|0,1:2|0:0,0:0:0:0:
484,58,105467,1,0,0:0:0:0:
402,64,105633,2,0,P|361:93|333:134,1,100,6|0,3:0|0:0,0:0:0:0:
333,133,106300,1,0,1:0:0:0:
203,345,106637,1,2,0:0:0:0:
203,345,106805,1,0,0:0:0:0:
203,345,106974,6,0,P|166:332|122:288,1,100,4|0,3:0|0:0,0:0:0:0:
65,57,107640,1,0,1:0:0:0:
48,137,107807,1,0,0:0:0:0:
48,137,108140,2,0,L|97:130,1,50,4|0,3:0|0:0,0:0:0:0:
176,119,108471,1,0,0:0:0:0:
124,372,108801,1,2,0:0:0:0:
200,351,108966,2,0,L|254:357,1,50,6|0,3:0|0:0,0:0:0:0:
328,360,109299,5,0,0:0:0:0:
176,119,109632,2,0,P|197:91|264:74,1,100,0|0,1:0|0:0,0:0:0:0:
334,123,110132,1,0,0:0:0:0:
334,123,110299,1,4,3:0:0:0:
334,123,110466,2,0,L|329:172,1,50
325,253,110799,1,0,0:0:0:0:
258,208,110966,2,0,L|147:222,1,100,0|0,1:0|0:0,0:0:0:0:
158,220,111632,6,0,P|152:240|162:273,1,50,6|0,3:0|0:0,0:0:0:0:
266,340,111966,2,0,P|245:319|210:314,1,50,2|0,0:0|0:0,0:0:0:0:
111,372,112299,2,0,P|131:366|152:342,1,50,2|0,1:2|0:0,0:0:0:0:
158,267,112632,1,2,0:0:0:0:
315,77,112966,2,0,P|275:47|225:43,1,100,6|2,3:0|0:0,0:0:0:0:
155,89,113460,5,0,0:0:0:0:
222,123,113625,2,0,L|230:192,2,50,2|2|2,1:2|0:0|0:0,0:0:0:0:
155,89,114119,1,2,0:0:0:0:
148,164,114284,5,4,3:0:0:0:
480,40,114619,2,0,P|443:37|415:46,1,50
364,80,114954,1,0,1:0:0:0:
364,80,115289,1,2,0:0:0:0:
307,142,115457,2,0,P|282:145|257:141,1,50,0|4,0:0|3:0,0:0:0:0:
213,81,115792,2,0,P|210:134|178:190,1,100,0|2,0:0|0:0,0:0:0:0:
119,206,116295,1,0,1:0:0:0:
289,42,116630,1,0,0:0:0:0:
360,285,116965,6,0,P|380:291|413:281,1,50,6|0,3:0|0:0,0:0:0:0:
480,177,117300,2,0,P|459:198|454:233,1,50,2|0,0:0|0:0,0:0:0:0:
512,332,117635,2,0,P|506:312|482:291,1,50,2|0,1:2|0:0,0:0:0:0:
407,285,117968,1,2,0:0:0:0:
139,342,118301,2,0,L|89:351,1,50,6|0,3:0|0:0,0:0:0:0:
12,366,118635,1,2,0:0:0:0:
235,252,118968,5,4,1:3:0:0:
426,93,119301,2,0,P|424:64|410:36,1,50
352,0,119635,1,0,1:0:0:0:
462,227,119968,1,0,0:0:0:0:
462,227,120135,1,0,0:0:0:0:
462,227,120301,2,0,L|465:169,2,50,4|0|0,1:3|0:0|0:0,0:0:0:0:
284,341,120963,5,2,3:0:0:0:
284,341,121129,1,0,0:0:0:0:
284,341,121296,2,0,L|233:335,1,50
157,372,121629,1,0,1:0:0:0:
157,372,121963,2,0,P|153:338|127:290,1,50
90,269,122296,1,4,3:0:0:0:
138,205,122463,2,0,P|118:178|71:148,1,50
33,141,122796,1,0,0:0:0:0:
89,89,122963,2,0,P|133:67|183:64,1,100,0|0,1:0|0:0,0:0:0:0:
239,123,123463,1,0,1:0:0:0:
309,80,123629,5,0,1:0:0:0:
152,337,123962,2,0,L|222:329,1,69.9999978637696
221,329,124624,1,0,0:0:0:0:
274,267,124789,2,0,L|343:277,1,69.9999978637696,0|4,1:0|3:0,0:0:0:0:
343,277,125465,1,0,0:0:0:0:
298,348,125635,1,0,1:0:0:0:
112,139,125968,6,0,L|104:200,1,40,4|0,3:0|0:0,0:0:0:0:
47,90,126301,2,0,L|36:5,1,80,4|4,3:0|3:0,0:0:0:0:
177,267,126953,1,0,0:0:0:0:
150,342,127121,1,0,1:0:0:0:
233,53,127458,2,0,L|292:62,1,40,0|4,0:0|3:0,0:0:0:0:
323,119,127808,2,0,L|414:104,1,80,0|0,1:0|0:0,0:0:0:0:
480,152,128308,1,4,3:0:0:0:
480,152,128474,1,4,3:0:0:0:
480,152,128641,6,0,L|476:215,1,42.5000008106232,4|0,3:0|0:0,0:0:0:0:
430,258,128974,2,0,L|436:342,1,85.0000016212464,4|0,3:0|0:0,0:0:0:0:
505,384,129463,1,0,1:0:0:0:
317,152,129796,2,0,L|263:162,2,42.5000008106232,4|0|0,3:0|0:0|0:0,0:0:0:0:
374,95,130307,2,0,L|428:105,1,42.5000008106232,0|4,1:0|3:0,0:0:0:0:
493,122,130636,5,4,3:0:0:0:
271,298,130966,1,4,3:0:0:0:
271,298,131288,2,0,L|282:352,2,44.999998626709,0|4|0,0:0|3:0|0:0,0:0:0:0:
254,224,131781,1,0,1:0:0:0:
12,164,132122,2,0,L|56:166,1,44.999998626709,4|0,3:0|0:0,0:0:0:0:
122,119,132458,1,0,0:0:0:0:
182,67,132625,2,0,L|244:63,1,44.999998626709,0|4,1:0|3:0,0:0:0:0:
305,57,132958,5,4,3:0:0:0:
254,280,133292,1,4,3:0:0:0:
254,280,133625,2,0,L|153:298,1,94.9999974632264
115,232,134119,2,0,L|68:223,1,47.4999987316132,0|4,1:0|3:0,0:0:0:0:
9,170,134450,1,4,3:0:0:0:
221,32,134784,1,0,0:0:0:0:
281,88,134950,2,0,L|269:147,1,47.4999987316132,0|4,1:0|3:0,0:0:0:0:
206,183,135284,6,0,L|219:248,1,50,4|0,3:0|0:0,0:0:0:0:
240,309,135617,1,4,3:0:0:0:
281,88,135954,2,0,L|385:104,1,100
456,122,136459,1,4,3:0:0:0:
212,140,136796,2,0,L|162:143,1,50,4|0,3:0|0:0,0:0:0:0:
85,151,137133,1,0,0:0:0:0:
85,151,137476,1,4,3:0:0:0:
121,76,137650,5,4,3:0:0:0:
182,128,138990,6,0,B|214:142|214:142|267:135,1,69.9999978637696,10|0,0:0|0:0,0:0:0:0:
312,87,139501,2,0,P|349:90|400:127,1,69.9999978637696,2|0,0:0|0:0,0:0:0:0:
419,173,139989,2,0,P|406:207|357:247,1,69.9999978637696,2|6,0:0|3:0,0:0:0:0:
185,338,140822,1,0,0:0:0:0:
185,338,140989,2,0,L|178:303,3,34.9999989318848
144,230,141655,6,0,B|111:216|111:216|77:221,1,69.9999978637696,10|0,0:0|0:0,0:0:0:0:
15,269,142155,1,4,3:0:0:0:
15,269,142322,1,4,3:0:0:0:
416,320,143655,6,0,L|456:327,3,34.9999989318848,8|0|0|0,0:0|0:0|0:0|0:0,0:0:0:0:
100,143,144988,1,4,3:0:0:0:
100,143,145655,2,0,L|135:137,3,34.9999989318848
220,122,146322,6,0,B|206:90|206:90|210:55,1,69.9999978637696,8|0,0:0|0:0,0:0:0:0:
281,15,146822,1,4,3:0:0:0:
281,15,146988,1,4,3:0:0:0:
344,247,147655,2,0,L|395:253,2,34.9999989318848
265,238,148155,1,2,0:0:0:0:
309,171,148322,6,0,B|281:149|281:149|247:145,1,69.9999978637696,10|0,0:0|0:0,0:0:0:0:
169,161,148822,2,0,P|137:202|124:253,1,104.999996795654,2|2,0:0|0:0,0:0:0:0:
168,326,149488,1,4,3:0:0:0:
168,326,149655,2,0,P|201:336|235:330,1,69.9999978637696,6|0,3:0|0:0,0:0:0:0:
292,273,150155,2,0,P|326:266|399:289,1,104.999996795654,2|2,0:0|0:0,0:0:0:0:
459,327,150822,1,0,0:0:0:0:
464,247,150988,6,0,B|471:212|471:212|457:180,1,69.9999978637696,8|0,0:0|0:0,0:0:0:0:
414,120,151488,1,4,3:0:0:0:
414,120,151655,1,4,3:0:0:0:
217,32,151988,2,0,L|183:39,2,34.9999989318848
68,244,152988,6,0,L|130:253,1,34.9999989318848,8|0,0:0|0:0,0:0:0:0:
281,342,153822,2,0,L|343:333,1,34.9999989318848,4|0,3:0|0:0,0:0:0:0:
316,337,154322,1,4,3:0:0:0:
174,74,155488,1,0,0:0:0:0:
241,38,155655,6,0,B|275:33|275:33|307:47,1,69.9999978637696,8|0,0:0|0:0,0:0:0:0:
380,93,156155,1,4,3:0:0:0:
380,93,156322,1,4,3:0:0:0:
430,279,157488,1,0,0:0:0:0:
366,329,157655,6,0,B|331:333|331:333|299:319,1,69.9999978637696,10|0,0:0|0:0,0:0:0:0:
244,265,158155,2,0,P|241:230|250:196,1,69.9999978637696,2|0,0:0|0:0,0:0:0:0:
310,144,158655,1,2,0:0:0:0:
256,192,158988,12,0,165321,0:0:0:0:
11,59,165655,6,0,B|65:34|123:56|123:56|166:9|246:10,1,225.000008583069,4|0,0:3|0:0,0:0:0:0:
302,85,166321,1,8,1:3:0:0:
302,85,166404,1,0,2:0:0:0:
302,85,166488,2,0,L|382:95,1,75.0000028610231,8|12,0:3|0:3,0:0:0:0:
419,185,166821,1,8,1:3:0:0:
419,185,166904,1,0,2:0:0:0:
419,185,166988,2,0,L|339:175,1,75.0000028610231,8|12,0:0|0:3,0:0:0:0:
250,200,167321,2,0,P|266:233|298:260,1,75.0000028610231,8|0,1:3|0:0,0:0:0:0:
219,318,167655,2,0,P|203:285|171:258,1,75.0000028610231,8|0,1:3|2:0,0:0:0:0:
78,259,167988,6,0,L|59:202,2,37.5000014305115,4|0|0,0:3|0:0|0:0,0:0:0:0:
124,338,168321,2,0,L|143:395,1,37.5000014305115,10|0,1:3|0:0,0:0:0:0:
294,257,168654,2,0,L|375:266,2,75.0000028610231,12|0|8,0:3|2:3|1:3,0:0:0:0:
231,188,169155,1,12,0:3:0:0:
231,188,169488,2,0,L|172:181,1,37.5000014305115,8|0,1:3|0:0,0:0:0:0:
417,62,169988,6,0,L|379:57,3,37.5000014305115,8|8|8|8,1:3|1:3|1:3|1:3,0:0:0:0:
363,59,170321,2,0,B|326:62|295:88|295:88|256:67|209:82,1,150.000005722046,6|0,0:3|2:0,0:0:0:0:
147,33,170821,1,10,0:3:0:0:
147,33,170904,1,0,0:3:0:0:
147,33,170988,6,8,P|111:54|81:87,2,75.0000028610231,8|8|8,1:3|0:3|0:3,0:3:0:0:
222,78,171488,1,12,0:3:0:0:
178,165,171655,2,0,L|172:202,1,37.5000014305115,0|12,0:0|3:3,0:0:0:0:
249,309,172155,2,0,L|255:346,2,37.5000014305115,10|0|0,1:3|0:0|2:0,0:0:0:0:
288,232,172488,1,8,0:0:0:0:
288,232,172571,1,8,0:0:0:0:
288,232,172655,2,0,B|317:224|343:234|343:234|365:211|392:211,1,112.500004291535,4|0,0:3|2:3,0:0:0:0:
411,210,172988,6,0,P|434:237|438:278,1,75.0000028610231,10|0,1:3|0:0,0:0:0:0:
365,339,173321,1,4,0:3:0:0:
262,316,173488,2,0,L|224:321,1,37.5000014305115,8|0,0:3|0:0,0:0:0:0:
206,320,173654,2,0,P|183:293|178:251,1,75.0000028610231,8|0,0:0|0:0,0:0:0:0:
305,66,174154,2,0,L|267:69,1,37.5000014305115,8|0,0:0|0:0,0:0:0:0:
124,26,174404,2,0,L|86:29,1,37.5000014305115,8|8,0:0|0:0,0:0:0:0:
48,250,174821,1,8,0:0:0:0:
129,195,174988,6,0,B|166:195|199:213|199:213|234:198|277:206,1,150.000005722046,4|0,0:3|0:0,0:0:0:0:
341,276,175488,2,0,L|336:330,1,37.5000014305115,8|8,0:0|0:0,0:0:0:0:
453,194,175738,2,0,L|449:156,1,37.5000014305115,8|8,0:0|0:0,0:0:0:0:
356,49,175987,1,0,3:3:0:0:
356,49,176154,2,0,P|318:44|283:54,1,75.0000028610231,8|0,1:3|0:0,0:0:0:0:
224,136,176487,1,8,0:0:0:0:
224,136,176571,1,8,0:0:0:0:
224,136,176654,2,0,L|98:155,2,100.000003814697,8|8|8,0:0|0:0|0:0,0:0:0:0:
367,108,177321,6,0,B|395:108|419:124|419:124|446:107|482:112,1,112.500004291535,4|0,0:3|0:0,0:0:0:0:
485,128,177654,2,0,L|477:180,3,37.5000014305115,8|8|8|8,0:0|0:0|0:0|0:3,0:0:0:0:
480,183,177987,2,0,P|448:203|428:235,1,75.0000028610231,8|8,0:0|0:0,0:0:0:0:
473,321,178321,1,8,0:0:0:0:
386,351,178488,2,0,L|375:305,2,37.5000014305115,8|8|8,0:0|0:0|0:0,0:0:0:0:
373,364,178738,2,0,P|329:365|271:309,1,112.500004291535,8|4,1:3|0:3,0:0:0:0:
266,79,179321,1,8,1:3:0:0:
189,135,179487,1,8,0:0:0:0:
189,135,179571,1,8,0:0:0:0:
189,135,179654,2,0,B|151:130|119:153|119:153|81:135|39:143,1,150.000005722046,4|0,0:3|0:0,0:0:0:0:
40,354,180321,5,8,1:3:0:0:
40,354,180571,2,0,L|105:347,1,37.5000014305115,8|8,0:0|1:3,0:0:0:0:
217,314,180821,2,0,L|282:321,3,37.5000014305115,4|0|0|0,0:3|0:0|0:0|0:0,0:0:0:0:
430,220,181321,2,0,L|440:180,1,37.5000014305115,8|8,0:0|0:0,0:0:0:0:
353,103,181571,2,0,L|343:63,1,37.5000014305115,8|8,0:0|0:0,0:0:0:0:
500,97,181821,1,8,0:0:0:0:
500,97,181988,6,0,B|420:84|340:115|291:164|291:164|220:118|141:109|70:133,1,450.000017166138,8|0,0:0|2:0,0:0:0:0:
78,130,183154,1,8,1:3:0:0:
84,228,183321,2,0,L|88:265,2,37.5000014305115,8|8|8,3:0|0:0|0:0,0:0:0:0:
100,218,183571,1,0,0:0:0:0:
178,276,183738,2,0,L|170:329,1,37.5000014305115,8|8,0:0|1:3,0:0:0:0:
301,219,183988,2,0,P|331:224|379:255,1,75.0000028610231,8|0,0:3|2:0,0:0:0:0:
472,347,184321,6,0,P|461:318|464:261,1,75.0000028610231
497,135,184654,2,0,P|477:158|426:184,1,75.0000028610231,8|0,1:3|0:0,0:0:0:0:
438,180,184904,1,0,1:0:0:0:
438,180,184988,2,0,P|421:83|383:24,1,150.000005722046,8|8,1:3|1:3,0:0:0:0:
307,86,185487,1,8,0:0:0:0:
307,86,185571,1,2,0:0:0:0:
307,86,185654,2,0,L|268:75,2,37.5000014305115,0|4|4,0:0|0:3|0:3,0:0:0:0:
190,123,185988,2,0,L|117:143,2,75.0000028610231,8|0|0,1:3|0:0|0:0,0:0:0:0:
266,196,186488,1,0,0:0:0:0:
266,196,186571,1,4,0:3:0:0:
266,196,186654,6,0,B|287:192|316:215|316:215|344:201|369:210,1,112.500004291535,8|0,1:3|0:0,0:0:0:0:
379,228,186988,2,0,L|388:280,1,37.5000014305115,8|0,1:3|0:0,0:0:0:0:
368,119,187321,1,4,0:3:0:0:
275,86,187488,1,4,0:3:0:0:
182,114,187654,1,8,1:3:0:0:
86,88,187821,2,0,L|48:91,3,37.5000014305115
32,101,188154,2,0,L|26:193,1,75.0000028610231,8|0,1:3|0:0,0:0:0:0:
23,274,188488,1,0,0:0:0:0:
106,234,188654,1,8,1:3:0:0:
119,223,188738,2,0,P|152:206|189:207,1,75.0000028610231,8|0,0:0|0:0,0:0:0:0:
206,214,188988,1,4,0:3:0:0:
249,134,189154,1,4,0:3:0:0:
249,134,189321,6,0,P|282:150|319:149,1,75.0000028610231,8|0,1:3|0:0,0:0:0:0:
394,98,189654,2,0,L|375:21,2,75.0000028610231,8|0|0,1:3|0:0|0:0,0:0:0:0:
461,168,190154,2,0,L|442:245,2,75.0000028610231,8|0|0,1:3|0:0|0:0,0:0:0:0:
394,98,190654,1,8,1:3:0:0:
364,191,190821,1,0,0:0:0:0:
364,191,190904,1,2,0:0:0:0:
364,191,190988,2,0,P|329:178|302:152,1,75.0000028610231,8|0,1:3|0:0,0:0:0:0:
290,55,191321,6,0,B|260:52|237:73|237:73|203:58|184:67,1,112.500004291535,4|0,0:3|0:0,0:0:0:0:
161,71,191654,2,0,P|131:105|117:159,1,75.0000028610231,8|0,1:3|0:0,0:0:0:0:
120,132,191904,1,0,0:0:0:0:
120,132,191987,2,0,P|162:135|213:161,1,75.0000028610231,8|0,1:3|2:0,0:0:0:0:
218,164,192237,2,0,L|211:200,2,37.5000014305115,8|8|8,0:0|0:0|0:0,0:0:0:0:
237,158,192488,2,0,B|290:145|337:195|337:195|382:155|468:176,1,225.000008583069,8|0,1:3|0:0,0:0:0:0:
466,258,193154,2,0,L|460:296,2,37.5000014305115,8|8|8,3:0|3:0|3:0,0:0:0:0:
369,299,193488,1,8,0:0:0:0:
369,299,193571,1,8,0:0:0:0:
369,299,193654,6,0,L|374:337,3,37.5000014305115,4|0|0|0,0:3|0:0|0:0|0:0,0:0:0:0:
377,360,193988,1,2,0:3:0:0:
168,304,194321,2,0,L|129:308,1,37.5000014305115,12|8,3:3|3:0,0:0:0:0:
46,214,194571,1,4,0:3:0:0:
46,214,194654,2,0,L|126:222,1,75.0000028610231,10|0,0:0|0:0,0:0:0:0:
184,154,194987,1,8,1:3:0:0:
272,138,195154,1,8,1:3:0:0:
508,323,195488,1,10,1:3:0:0:
420,339,195654,2,0,L|318:354,1,75.0000028610231,2|2,1:3|1:3,0:0:0:0:
280,274,195988,6,0,L|276:232,2,37.5000014305115,4|0|0,0:3|0:0|0:0,0:0:0:0:
242,364,196321,2,0,P|205:359|172:340,1,75.0000028610231,8|0,1:3|0:0,0:0:0:0:
146,247,196654,1,8,0:0:0:0:
80,319,196821,2,8,L|43:326,1,37.5000014305115,8|8,1:3|1:3,1:3:0:0:
25,331,196988,1,10,1:3:0:0:
44,235,197154,2,0,L|8:222,2,37.5000014305115,12|8|8,0:3|0:0|0:0,0:0:0:0:
54,144,197488,2,0,L|29:115,2,37.5000014305115,8|8|8,0:0|0:0|0:0,0:0:0:0:
118,78,197821,2,0,P|147:55|184:47,1,75.0000028610231,10|10,1:3|1:3,0:0:0:0:
262,103,198154,1,10,1:3:0:0:
262,103,198238,1,10,1:3:0:0:
262,103,198321,6,0,B|281:93|315:108|315:108|338:87|365:89,1,112.500004291535,4|0,0:3|2:0,0:0:0:0:
382,102,198654,2,0,P|407:128|418:164,1,75.0000028610231,8|8,1:3|0:3,0:0:0:0:
369,237,198988,2,0,L|332:231,2,37.5000014305115,4|0|4,3:3|0:0|0:3,0:0:0:0:
452,313,199321,2,0,P|415:320|386:342,1,75.0000028610231,10|0,1:3|0:0,0:0:0:0:
289,366,199654,1,12,3:3:0:0:
289,366,199737,1,0,0:0:0:0:
289,366,199821,2,0,P|252:349|229:319,1,75.0000028610231,8|8,0:0|1:3,0:0:0:0:
221,126,200238,2,0,L|181:133,1,37.5000014305115,8|8,1:3|0:0,0:0:0:0:
152,233,200488,1,8,1:3:0:0:
152,233,200571,1,8,1:3:0:0:
152,233,200654,6,0,B|131:228|102:252|102:252|74:237|49:246,1,112.500004291535,4|0,0:3|2:0,0:0:0:0:
31,257,200988,2,0,L|12:184,1,75.0000028610231,8|0,1:3|0:0,0:0:0:0:
0,86,201321,2,0,L|37:81,3,37.5000014305115,4|0|0|0,0:3|0:0|0:0|0:0,0:0:0:0:
55,81,201654,2,0,L|136:97,1,75.0000028610231,8|0,1:3|0:0,0:0:0:0:
224,115,201988,1,6,0:3:0:0:
306,66,202154,1,12,0:3:0:0:
306,66,202321,2,0,P|331:97|396:111,1,75.0000028610231,8|0,1:3|0:0,0:0:0:0:
467,147,202654,2,0,P|433:162|410:192,1,75.0000028610231,8|8,1:3|1:3,0:0:0:0:
384,286,202988,6,0,L|422:293,2,37.5000014305115,4|0|0,0:3|0:0|0:0,0:0:0:0:
314,217,203321,2,0,B|293:213|264:236|264:236|236:222|211:231,1,112.500004291535,8|0,1:3|0:0,0:0:0:0:
199,248,203654,1,8,1:3:0:0:
126,313,203821,2,0,P|94:292|70:264,1,75.0000028610231,8|0,0:0|0:0,0:0:0:0:
115,177,204154,1,4,0:3:0:0:
115,177,204321,1,4,0:3:0:0:
72,89,204488,2,0,P|73:51|86:16,1,75.0000028610231,0|0,1:3|0:0,0:0:0:0:
101,4,204738,1,8,3:0:0:0:
180,68,204904,1,8,1:3:0:0:
180,68,204988,2,0,L|256:78,1,75.0000028610231
333,134,205321,6,0,L|336:171,3,37.5000014305115,4|0|0|0,0:3|0:0|0:0|0:0,0:0:0:0:
339,189,205654,2,0,L|346:282,1,75.0000028610231,8|0,1:3|0:0,0:0:0:0:
432,328,205988,1,0,0:0:0:0:
432,328,206071,1,8,0:0:0:0:
432,328,206154,2,0,L|488:334,1,37.5000014305115,4|0,0:3|0:0,0:0:0:0:
488,329,206321,2,0,L|498:255,1,75.0000028610231,8|8,1:3|0:0,0:0:0:0:
512,158,206654,2,0,L|475:164,2,37.5000014305115,0|8|4,0:0|0:0|0:3,0:0:0:0:
445,75,206988,2,0,L|365:139,1,75.0000028610231,8|0,1:3|0:0,0:0:0:0:
313,57,207321,2,0,L|276:152,1,75.0000028610231,8|8,0:0|0:0,0:0:0:0:
280,145,207571,1,8,0:0:0:0:
273,162,207654,6,0,L|218:171,2,37.5000014305115,6|0|0,0:3|0:0|0:0,0:0:0:0:
260,260,207987,1,10,1:3:0:0:
260,260,208071,1,0,0:0:0:0:
260,260,208154,1,0,0:0:0:0:
172,293,208321,2,0,P|135:286|106:263,1,75.0000028610231,6|0,0:0|0:0,0:0:0:0:
75,175,208654,1,2,0:0:0:0:
75,175,208821,2,0,L|65:90,1,75.0000028610231,6|0,0:0|0:0,0:0:0:0:
63,6,209154,1,2,0:0:0:0:
63,6,209321,2,0,P|100:2|134:17,1,75.0000028610231,14|8,0:0|0:0,0:0:0:0:
197,91,209654,2,0,P|231:105|268:102,1,75.0000028610231,6|8,0:3|0:0,0:0:0:0:
358,65,209987,1,4,0:3:0:0:
354,163,210154,1,8,1:3:0:0:
354,163,210237,1,8,0:0:0:0:
354,163,210321,1,2,0:0:0:0:
399,246,210488,2,0,L|403:316,1,37.5000014305115,12|0,0:0|0:0,0:0:0:0:
401,302,210654,6,0,B|362:298|331:320|331:320|294:302|257:310,1,150.000005722046,10|8,1:3|3:0,0:0:0:0:
208,224,211154,6,0,P|190:225|157:251,3,43.7500004172325,12|8|8|8,1:3|1:3|1:3|1:3,0:0:0:0:
138,260,211488,2,0,P|121:278|113:312,3,43.7500004172325,8|8|8|8,1:3|1:3|1:3|1:3,0:0:0:0:
96,285,211821,2,0,P|72:263|32:247,3,43.7500004172325,8|8|8|8,1:3|1:3|1:3|1:3,0:0:0:0:
39,249,212154,1,8,1:3:0:0:
16,245,212237,1,8,1:3:0:0:
