osu file format v14

[General]
AudioFilename: audio.mp3
AudioLeadIn: 0
PreviewTime: 29267
Countdown: 0
SampleSet: Soft
StackLeniency: 0.4
Mode: 0
LetterboxInBreaks: 0
WidescreenStoryboard: 1

[Editor]
Bookmarks: 29380,36540,43926,51199,58471,73017,87562,94835,102108,109380,116653,131199,145744,158471,160290,167562,174835,182108,189380,203926,218471,225744,231199,233017,237562
DistanceSpacing: 1
BeatDivisor: 4
GridSize: 4
TimelineZoom: 1.8

[Metadata]
Title:Arrasando
TitleUnicode:Arrasando
Artist:Thalia
ArtistUnicode:Thalia
Creator:Krisom
Version:Dificil
Source:
Tags:Spanish EspaƱol Latin Pop Mexico Rap HipHop Hip Hop
BeatmapID:3995016
BeatmapSetID:1930803

[Difficulty]
HPDrainRate:4.5
CircleSize:3.3
OverallDifficulty:7
ApproachRate:8
SliderMultiplier:2.35
SliderTickRate:2

[Events]
//Background and Video events
0,0,"Arrasando.jpg",0,0
Video,0,"ThaliaIsEminem.mp4"
//Break Periods
2,7752,14075
2,145934,157711
//Storyboard Layer 0 (Background)
//Storyboard Layer 1 (Fail)
//Storyboard Layer 2 (Pass)
//Storyboard Layer 3 (Foreground)
//Storyboard Layer 4 (Overlay)
//Storyboard Sound Samples

[TimingPoints]
280,454.545454545455,4,2,1,85,1,0
29370,-100,4,2,1,85,0,0
58461,-100,4,2,1,100,0,1
87552,-100,4,2,1,85,0,0
116643,-100,4,2,1,100,0,1
145734,-100,4,2,1,85,0,0
189370,-95.2380952380952,4,2,1,100,0,1
218461,-100,4,2,1,70,0,0
225734,-100,4,2,1,85,0,0
233007,-100,4,2,1,10,0,0
237552,-100,4,2,1,5,0,0

[Colours]
Combo1 : 245,27,191
Combo2 : 0,202,0

[HitObjects]
136,192,280,5,4,3:0:0:0:
376,192,734,1,2,3:1:0:0:
171,107,1189,5,4,3:0:0:0:
340,276,1643,1,2,3:1:0:0:
256,72,2098,5,4,3:0:0:0:
340,276,2325,1,2,3:1:0:0:
171,107,2552,5,4,3:0:0:0:
376,192,2780,1,2,3:1:0:0:
136,192,3007,5,4,3:0:0:0:
340,108,3234,1,2,3:1:0:0:
172,276,3461,5,4,3:0:0:0:
256,72,3689,1,2,3:1:0:0:
256,312,3916,5,2,3:1:0:0:
376,192,4143,1,2,3:1:0:0:
256,72,4370,5,2,3:1:0:0:
136,192,4597,1,2,3:1:0:0:
340,276,4825,5,2,3:1:0:0:
340,108,5052,1,2,3:1:0:0:
172,108,5280,5,2,3:1:0:0:
172,276,5507,1,2,3:1:0:0:
276,168,5734,6,0,L|324:120,3,58.75,2|2|2|2,3:1|3:1|3:1|3:1,0:0:0:0:
236,216,6189,6,0,L|188:264,3,58.75,2|2|2|2,3:1|3:1|3:1|3:1,0:0:0:0:
156,212,6643,6,2,P|256:44|356:212,1,470,2|4,3:1|3:2,3:1:0:0:
292,96,14825,6,0,P|348:92|384:140,1,117.5,4|0,3:2|0:0,0:0:0:0:
392,196,15166,1,0,0:0:0:0:
400,256,15280,2,0,L|280:272,1,117.5,8|0,3:1|0:0,0:0:0:0:
228,271,15620,2,0,L|112:256,1,117.5,2|2,0:0|0:0,0:0:0:0:
128,136,16075,1,0,0:0:0:0:
128,136,16189,2,0,P|163:92|220:96,1,117.5,8|0,3:1|0:0,0:0:0:0:
308,280,16643,6,0,P|296:224|320:164,1,117.5,0|0,3:0|0:0,0:0:0:0:
204,280,17098,2,0,P|216:224|192:164,1,117.5,8|0,3:1|0:0,0:0:0:0:
148,132,17439,1,2,0:0:0:0:
256,84,17666,1,2,0:0:0:0:
364,36,17893,1,2,0:0:0:0:
364,36,18007,1,8,3:1:0:0:
256,84,18234,1,0,0:0:0:0:
328,204,18461,5,0,3:0:0:0:
284,172,18575,1,0,0:0:0:0:
228,172,18689,1,0,0:0:0:0:
180,208,18802,1,0,0:0:0:0:
168,264,18916,2,0,L|208:376,1,117.5,8|0,3:1|0:0,0:0:0:0:
256,344,19257,2,0,L|256:224,2,117.5,2|2|2,0:0|0:0|0:0,0:0:0:0:
304,374,19825,2,0,L|344:264,1,117.5,8|0,3:1|0:0,0:0:0:0:
316,116,20280,6,2,P|364:136|384:200,1,117.5,2|0,3:1|0:0,0:1:0:0:
196,116,20734,2,2,P|148:136|128:200,1,117.5,8|0,3:1|0:0,0:1:0:0:
140,252,21075,1,2,0:0:0:0:
256,260,21302,1,2,0:0:0:0:
372,268,21530,1,2,0:0:0:0:
372,268,21643,1,8,3:1:0:0:
256,260,21870,1,0,3:0:0:0:
208,112,22098,6,0,B|156:112|156:112|124:112|104:148,1,117.5,0|0,3:0|0:0,0:0:0:0:
92,204,22439,1,0,0:0:0:0:
80,260,22552,2,0,P|136:252|188:288,1,117.5,8|0,3:1|0:0,0:0:0:0:
172,340,22893,2,0,P|116:348|64:312,1,117.5,2|2,0:0|0:0,0:0:0:0:
92,204,23348,1,0,0:0:0:0:
104,147,23461,2,0,P|160:139|212:175,1,117.5,8|0,3:1|0:0,0:0:0:0:
408,147,23916,6,0,P|352:139|300:175,1,117.5,0|0,3:0|0:0,0:0:0:0:
326,283,24370,2,0,P|375:252|432:260,1,117.5,8|0,3:1|0:0,0:0:0:0:
445,316,24711,2,0,P|396:347|339:339,1,117.5,2|2,0:0|0:0,0:0:0:0:
256,256,25166,1,2,0:0:0:0:
256,256,25280,1,8,3:1:0:0:
256,140,25507,1,0,0:0:0:0:
168,64,25734,5,0,3:0:0:0:
200,16,25848,1,0,0:0:0:0:
256,0,25961,1,0,0:0:0:0:
312,16,26075,1,0,0:0:0:0:
344,64,26189,1,8,3:1:0:0:
368,180,26416,1,0,0:0:0:0:
368,180,26530,1,2,0:0:0:0:
256,216,26757,1,2,0:0:0:0:
148,256,26984,1,2,0:0:0:0:
148,256,27098,2,0,P|96:312|104:372,1,117.5,8|0,3:1|0:0,0:0:0:0:
256,216,27552,6,2,L|256:336,1,117.5,2|0,3:1|0:0,0:1:0:0:
364,256,28007,2,2,P|416:312|408:372,1,117.5,8|0,3:1|0:0,0:1:0:0:
364,372,28348,1,2,0:0:0:0:
256,333,28575,1,2,0:0:0:0:
156,284,28803,1,2,0:0:0:0:
156,284,28916,1,8,3:1:0:0:
256,333,29143,1,0,3:0:0:0:
404,240,29370,6,0,P|384:184|392:128,1,117.5,0|0,3:0|0:0,0:0:0:0:
416,72,29711,1,0,0:0:0:0:
468,44,29825,2,0,L|488:176,1,117.5,8|0,3:2|0:0,0:0:0:0:
492,220,30166,1,0,0:0:0:0:
500,280,30280,1,0,3:0:0:0:
384,300,30507,1,0,0:0:0:0:
384,300,30620,1,2,0:0:0:0:
268,312,30848,1,2,0:0:0:0:
268,312,30961,1,0,0:0:0:0:
304,172,31189,6,0,P|264:156|228:156,2,58.75,0|0|0,3:0|0:0|0:0,0:0:0:0:
336,124,31530,1,0,0:0:0:0:
368,76,31643,2,0,P|316:44|252:40,1,117.5,8|0,3:2|0:0,0:0:0:0:
204,44,31984,1,0,0:0:0:0:
148,56,32098,2,0,P|160:104|144:168,1,117.5,0|0,3:0|0:0,0:0:0:0:
108,216,32439,2,0,B|140:212|164:232|164:232|200:224|220:244,1,117.5,2|2,0:0|0:0,0:0:0:0:
256,284,32780,1,0,0:0:0:0:
372,144,33007,5,0,3:0:0:0:
328,184,33120,1,0,0:0:0:0:
272,164,33234,2,0,P|240:140|204:136,1,58.75
164,148,33461,1,8,3:2:0:0:
92,239,33689,2,0,P|97:268|96:304,1,58.75
80,356,33916,1,0,3:0:0:0:
136,372,34030,1,0,0:0:0:0:
180,336,34143,1,0,0:0:0:0:
236,316,34257,1,0,0:0:0:0:
288,340,34370,1,8,3:2:0:0:
376,236,34598,5,0,0:0:0:0:
408,188,34711,1,0,0:0:0:0:
404,128,34825,2,0,L|276:144,1,117.5,0|0,3:0|0:0,0:0:0:0:
228,156,35166,1,0,0:0:0:0:
172,168,35280,2,0,B|152:200|176:224|192:216|208:244|188:276,1,117.5,8|0,3:2|0:0,0:0:0:0:
148,316,35620,1,0,0:0:0:0:
140,376,35734,1,0,3:0:0:0:
256,352,35961,1,0,0:0:0:0:
372,332,36189,1,8,3:2:0:0:
228,176,36530,5,0,0:0:0:0:
212,120,36643,2,0,P|160:108|108:144,1,117.5,0|0,3:0|0:0,0:0:0:0:
120,200,36984,1,0,0:0:0:0:
128,260,37098,2,0,B|168:268|168:268|184:288|184:288|244:296,1,117.5,8|0,3:2|0:0,0:0:0:0:
292,300,37439,1,0,0:0:0:0:
348,308,37552,1,0,3:0:0:0:
464,324,37780,1,0,0:0:0:0:
464,324,37893,1,2,0:0:0:0:
416,216,38120,1,2,0:0:0:0:
416,216,38234,1,0,0:0:0:0:
496,84,38461,6,0,P|484:112|460:140,2,58.75,0|0|0,3:0|0:0|0:0,0:0:0:0:
472,32,38802,1,0,0:0:0:0:
416,20,38916,2,0,B|380:8|360:28|340:48|300:32,1,117.5,8|0,3:2|0:0,0:0:0:0:
244,24,39257,1,0,0:0:0:0:
188,12,39370,2,0,L|216:132,1,117.5,0|0,3:0|0:0,0:0:0:0:
232,184,39711,2,0,P|172:168|120:192,1,117.5,2|2,0:0|0:0,0:0:0:0:
96,240,40052,1,0,0:0:0:0:
212,336,40280,5,0,3:0:0:0:
228,280,40393,1,0,0:0:0:0:
284,260,40507,2,0,P|316:284|352:288,1,58.75
384,260,40734,1,8,3:2:0:0:
448,160,40962,2,0,P|453:131|451:95,1,58.75
408,64,41189,1,0,3:0:0:0:
348,72,41303,1,0,0:0:0:0:
320,124,41416,1,0,0:0:0:0:
336,180,41530,1,0,0:0:0:0:
392,196,41643,1,8,3:2:0:0:
252,172,41871,5,0,0:0:0:0:
196,152,41984,1,0,0:0:0:0:
140,172,42098,2,0,B|110:153|82:169|90:185|66:209|34:189,1,117.5,0|0,3:0|0:0,0:0:0:0:
20,132,42439,1,0,0:0:0:0:
32,72,42553,2,0,B|72:68|72:68|112:64|148:88,1,117.5,8|0,3:2|0:2,0:2:0:0:
200,104,42893,1,0,0:2:0:0:
256,92,43007,1,0,3:0:0:0:
372,68,43234,1,0,0:0:0:0:
488,48,43462,1,8,3:2:0:0:
372,68,43689,1,0,3:0:0:0:
452,188,43916,6,0,B|408:180|408:180|380:192|380:192|336:184,1,117.5,0|0,3:0|0:0,0:0:0:0:
280,172,44257,1,0,0:0:0:0:
224,160,44370,2,0,B|172:152|172:152|136:148|116:180,1,117.5,8|0,3:2|0:0,0:0:0:0:
112,236,44711,1,0,0:0:0:0:
116,296,44825,1,0,3:0:0:0:
232,280,45052,1,0,0:0:0:0:
232,280,45166,1,2,0:0:0:0:
352,264,45393,1,2,0:0:0:0:
352,264,45507,1,0,0:0:0:0:
452,204,45734,6,0,P|440:176|416:148,2,58.75,0|0|0,3:0|0:0|0:0,0:0:0:0:
424,320,46189,1,8,3:2:0:0:
368,304,46302,1,0,0:0:0:0:
328,348,46416,1,0,0:0:0:0:
216,376,46643,2,0,B|188:344|188:344|164:312|184:264,1,117.5,0|0,3:0|0:0,0:0:0:0:
196,216,46984,2,0,P|152:180|92:188,1,117.5,2|2,0:0|0:0,0:0:0:0:
68,240,47325,1,0,0:0:0:0:
84,296,47439,1,2,0:0:0:0:
120,340,47552,6,0,L|244:316,1,117.5,0|0,3:0|0:0,0:0:0:0:
256,264,47893,1,0,0:0:0:0:
280,212,48007,2,0,L|404:236,1,117.5,8|0,3:2|0:0,0:0:0:0:
452,248,48348,1,0,0:0:0:0:
464,192,48461,1,0,3:0:0:0:
476,136,48575,1,2,0:0:0:0:
360,112,48802,1,2,0:0:0:0:
244,92,49030,1,2,0:0:0:0:
128,68,49257,5,0,0:0:0:0:
76,96,49370,2,0,P|120:144|128:204,1,117.5,0|0,3:0|0:0,0:0:0:0:
100,244,49711,1,0,0:0:0:0:
84,300,49825,2,0,B|144:312|144:312|192:280,1,117.5,8|0,3:2|0:0,0:0:0:0:
236,244,50166,1,0,0:0:0:0:
284,208,50280,2,0,P|332:196|388:240,1,117.5,0|0,3:0|0:0,0:0:0:0:
372,348,50734,1,8,3:2:0:0:
256,340,50961,1,0,3:0:0:0:
140,332,51189,5,4,3:0:0:0:
372,256,51643,1,2,3:1:0:0:
140,180,52098,5,4,3:0:0:0:
372,104,52552,1,2,3:1:0:0:
140,104,53007,5,4,3:0:0:0:
288,76,53234,1,2,3:1:0:0:
140,180,53461,5,4,3:0:0:0:
288,152,53688,1,2,3:1:0:0:
372,256,53916,5,4,3:0:0:0:
228,228,54143,1,2,3:1:0:0:
372,332,54370,5,4,3:0:0:0:
228,304,54597,1,2,3:1:0:0:
372,180,54825,5,2,3:1:0:0:
140,180,55052,1,2,3:1:0:0:
372,260,55280,5,2,3:1:0:0:
140,260,55507,1,2,3:1:0:0:
372,180,55734,5,2,3:1:0:0:
140,180,55961,1,2,3:1:0:0:
372,260,56189,5,2,3:1:0:0:
140,260,56416,1,2,3:1:0:0:
372,180,56643,5,2,3:1:0:0:
360,124,56757,1,2,3:1:0:0:
312,92,56870,1,2,3:1:0:0:
256,104,56984,1,2,3:1:0:0:
216,148,57098,6,0,P|188:164|152:168,3,58.75,2|2|2|2,3:1|3:1|3:1|3:1,0:0:0:0:
108,148,57552,6,2,B|80:128|16:136|-16:200|32:276|80:268|120:252|120:252|164:236|216:256|184:268|236:288|276:272,1,411.25,2|2,3:1|3:1,3:1:0:0:
332,272,58461,6,0,P|388:256|444:272,1,117.5,4|2,3:2|0:0,0:0:0:0:
508,172,58916,2,0,B|496:136|460:136|460:136|396:136,1,117.5,8|0,0:1|0:0,0:0:0:0:
348,136,59257,1,2,0:0:0:0:
256,212,59484,1,2,0:0:0:0:
168,288,59711,1,2,0:0:0:0:
124,328,59825,2,0,P|72:292|80:221,1,117.5,8|2,0:1|0:0,0:0:0:0:
86,63,60280,6,0,P|134:92|140:148,1,117.5,0|2,3:0|0:0,0:0:0:0:
69,242,60734,2,0,B|93:258|125:246|125:238|157:226|181:242,1,117.5,8|0,0:1|0:0,0:0:0:0:
216,288,61075,1,2,0:0:0:0:
332,288,61302,1,2,0:0:0:0:
448,288,61530,1,2,0:0:0:0:
448,228,61643,2,0,B|448:164|448:164|404:128,1,117.5,8|0,0:1|3:0,0:0:0:0:
256,84,62098,6,0,B|256:148|256:148|300:184,1,117.5,0|2,3:0|0:0,0:0:0:0:
312,300,62552,2,2,B|280:304|256:288|256:288|232:304|200:300,1,117.5,8|2,0:1|0:0,0:1:0:0:
152,268,62893,1,2,0:0:0:0:
68,192,63120,1,2,0:0:0:0:
68,192,63234,1,0,0:0:0:0:
152,116,63461,1,8,0:1:0:0:
256,176,63689,1,2,0:0:0:0:
360,116,63916,5,0,3:0:0:0:
444,192,64143,1,0,3:0:0:0:
500,88,64370,2,2,P|456:16|368:-8,1,176.25,8|2,0:1|0:0,0:0:0:0:
312,92,64939,1,2,0:0:0:0:
200,92,65166,1,0,0:0:0:0:
200,92,65280,1,8,0:1:0:0:
256,188,65507,1,0,3:3:0:0:
180,272,65734,6,0,P|124:256|68:272,1,117.5,0|2,3:0|0:0,0:0:0:0:
4,172,66189,2,0,B|16:136|52:136|52:136|116:136,1,117.5,8|0,0:1|0:0,0:0:0:0:
164,136,66530,1,2,0:0:0:0:
256,212,66757,1,2,0:0:0:0:
344,288,66984,1,2,0:0:0:0:
388,328,67098,2,0,P|440:292|432:221,1,117.5,8|2,0:1|0:0,0:0:0:0:
426,63,67553,6,0,P|378:92|372:148,1,117.5,0|2,3:0|0:0,0:0:0:0:
443,242,68007,2,0,B|419:258|387:246|387:238|355:226|331:242,1,117.5,8|0,0:1|0:0,0:0:0:0:
296,288,68348,1,2,0:0:0:0:
180,288,68575,1,2,0:0:0:0:
64,288,68803,1,2,0:0:0:0:
64,228,68916,2,0,B|64:164|64:164|108:128,1,117.5,8|0,0:1|3:0,0:0:0:0:
256,84,69371,6,0,B|256:148|256:148|212:184,1,117.5,0|2,3:0|0:0,0:0:0:0:
200,300,69825,2,2,B|232:304|256:288|256:288|280:304|312:300,1,117.5,8|2,0:1|0:0,0:1:0:0:
360,268,70166,1,2,0:0:0:0:
444,192,70393,1,2,0:0:0:0:
360,116,70620,1,2,0:0:0:0:
360,116,70734,1,8,0:1:0:0:
256,176,70962,1,0,0:0:0:0:
152,116,71189,5,0,3:0:0:0:
68,192,71416,1,0,3:0:0:0:
12,88,71643,2,2,P|56:16|144:-8,1,176.25,8|2,0:1|0:0,0:0:0:0:
256,20,72212,1,2,0:0:0:0:
316,128,72439,1,2,0:0:0:0:
316,128,72553,1,8,3:1:0:0:
196,128,72780,1,0,3:0:0:0:
344,240,73007,6,0,P|396:264|448:240,1,117.5,4|2,3:2|0:0,0:0:0:0:
480,192,73348,1,0,0:0:0:0:
508,140,73461,2,0,B|508:92|508:92|508:56|468:40,1,117.5,8|0,0:1|0:0,0:0:0:0:
409,40,73802,2,0,B|385:56|353:44|353:36|321:24|297:40,2,117.5,2|2|0,0:0|0:0|0:0,0:0:0:0:
468,40,74370,1,8,0:1:0:0:
416,144,74598,1,0,0:0:0:0:
368,252,74825,6,0,B|308:252|308:252|272:296,1,117.5,0|2,3:0|0:0,0:0:0:0:
144,252,75280,2,0,B|204:252|204:252|240:208,1,117.5,8|0,0:1|0:0,0:0:0:0:
272,156,75620,1,2,0:0:0:0:
160,120,75848,1,2,0:0:0:0:
52,88,76075,1,0,0:0:0:0:
52,88,76189,1,8,0:1:0:0:
76,204,76416,1,0,3:0:0:0:
112,315,76643,6,0,P|159:284|216:294,1,117.5,0|2,3:0|0:0,0:0:0:0:
256,340,76984,1,2,0:0:0:0:
295,294,77098,2,0,P|352:284|399:315,1,117.5,8|0,0:1|0:0,0:0:0:0:
432,364,77439,1,2,0:0:0:0:
460,248,77666,1,2,0:0:0:0:
488,136,77893,1,2,0:0:0:0:
488,136,78007,1,8,0:1:0:0:
512,20,78234,1,0,3:0:0:0:
404,64,78461,6,0,P|336:84|312:124,1,117.5,2|2,3:1|0:0,0:0:0:0:
108,64,78916,2,0,P|176:84|200:124,1,117.5,10|2,0:1|0:0,0:0:0:0:
168,168,79257,1,2,0:1:0:0:
256,248,79484,1,2,0:1:0:0:
344,168,79711,1,2,0:1:0:0:
344,168,79825,1,8,3:1:0:0:
256,92,80052,1,0,3:0:0:0:
168,240,80280,6,0,P|116:264|64:240,1,117.5,4|2,3:2|0:0,0:0:0:0:
32,192,80621,1,0,0:0:0:0:
4,140,80734,2,0,B|4:92|4:92|4:56|44:40,1,117.5,8|0,0:1|0:0,0:0:0:0:
103,40,81075,2,0,B|127:56|159:44|159:36|191:24|215:40,2,117.5,2|2|0,0:0|0:0|0:0,0:0:0:0:
44,40,81643,1,8,0:1:0:0:
96,144,81871,1,0,0:0:0:0:
144,252,82098,6,0,B|204:252|204:252|240:296,1,117.5,0|2,3:0|0:0,0:0:0:0:
368,252,82553,2,0,B|308:252|308:252|272:208,1,117.5,8|0,0:1|0:0,0:0:0:0:
240,156,82893,1,2,0:0:0:0:
352,120,83121,1,2,0:0:0:0:
460,88,83348,1,0,0:0:0:0:
460,88,83462,1,8,0:1:0:0:
436,204,83689,1,0,3:0:0:0:
399,315,83916,6,0,P|352:284|295:294,1,117.5,0|2,3:0|0:0,0:0:0:0:
256,340,84257,1,2,0:0:0:0:
216,294,84371,2,0,P|159:284|112:315,1,117.5,8|0,0:1|0:0,0:0:0:0:
80,364,84712,1,2,0:0:0:0:
52,248,84939,1,2,0:0:0:0:
24,136,85166,1,2,0:0:0:0:
24,136,85280,1,8,0:1:0:0:
0,20,85507,1,0,3:0:0:0:
108,64,85734,6,0,P|176:84|200:124,1,117.5,2|2,3:1|0:0,0:0:0:0:
404,64,86189,2,0,P|336:84|312:124,1,117.5,10|2,0:1|0:0,0:0:0:0:
344,168,86530,1,2,0:1:0:0:
256,248,86757,1,2,0:1:0:0:
168,168,86984,1,2,0:1:0:0:
168,168,87098,1,8,3:1:0:0:
256,92,87325,1,0,3:0:0:0:
343,168,87552,6,0,P|395:167|436:216,1,117.5,4|0,3:1|0:0,0:0:0:0:
452,268,87893,1,0,0:0:0:0:
464,324,88007,2,0,B|428:321|428:321|395:327|395:327|348:324,1,117.5,8|0,3:2|0:0,0:0:0:0:
288,320,88348,1,0,0:0:0:0:
232,312,88461,1,0,3:0:0:0:
120,300,88689,1,0,0:0:0:0:
120,300,88802,1,2,0:0:0:0:
184,204,89030,1,2,0:0:0:0:
184,204,89143,1,0,0:0:0:0:
168,88,89370,6,0,P|136:68|100:64,2,58.75,0|0|0,3:0|0:0|0:0,0:0:0:0:
216,124,89711,1,0,0:0:0:0:
264,92,89825,2,0,B|288:76|320:96|320:96|336:68|368:72,1,117.5,8|0,3:2|0:0,0:0:0:0:
416,108,90166,1,0,0:0:0:0:
448,156,90280,2,0,P|460:188|412:248,1,117.5,0|0,3:0|0:0,0:0:0:0:
356,236,90620,2,0,B|336:216|296:224|296:224|244:236,1,117.5,2|2,0:0|0:0,0:0:0:0:
188,248,90961,1,0,0:0:0:0:
76,288,91189,5,0,3:0:0:0:
40,240,91302,1,0,0:0:0:0:
60,184,91416,2,0,P|84:160|92:128,1,58.75
64,84,91643,1,8,3:2:0:0:
160,16,91870,2,0,P|184:32|224:32,1,58.75
268,12,92097,1,0,3:0:0:0:
328,8,92211,1,0,0:0:0:0:
372,44,92324,1,0,0:0:0:0:
420,80,92438,1,0,0:0:0:0:
476,60,92551,1,8,3:2:0:0:
504,176,92780,5,0,0:0:0:0:
464,220,92893,1,0,0:0:0:0:
480,276,93007,2,0,L|364:252,1,117.5,0|0,3:0|0:0,0:0:0:0:
316,220,93348,1,0,0:0:0:0:
256,216,93461,2,0,P|276:260|244:320,1,117.5,8|0,3:2|0:0,0:0:0:0:
192,340,93802,1,0,0:0:0:0:
140,312,93916,1,0,3:0:0:0:
116,196,94143,1,0,0:0:0:0:
96,80,94370,1,8,3:2:0:0:
116,196,94598,1,0,3:0:0:0:
172,64,94825,6,0,B|208:52|228:68|252:84|288:72,1,117.5,0|0,3:0|0:0,0:0:0:0:
344,56,95166,1,0,0:0:0:0:
396,28,95280,2,0,L|372:144,1,117.5,8|0,3:2|0:0,0:0:0:0:
352,196,95620,1,0,0:0:0:0:
336,252,95734,1,0,3:0:0:0:
308,368,95961,1,0,0:0:0:0:
308,368,96075,1,2,0:0:0:0:
232,288,96302,1,2,0:0:0:0:
232,288,96416,1,0,0:0:0:0:
128,340,96643,6,0,P|96:360|72:364,2,58.75,0|0|0,3:0|0:0|0:0,0:0:0:0:
116,284,96984,1,0,0:0:0:0:
148,240,97098,2,0,B|32:224,1,117.5,8|0,3:2|0:0,0:0:0:0:
12,168,97439,1,0,0:0:0:0:
40,116,97553,2,0,B|81:108|81:108|121:100|148:132,1,117.5,0|0,3:0|0:0,0:0:0:0:
200,164,97893,2,0,P|234:126|224:60,1,117.5,2|2,0:0|0:0,0:0:0:0:
184,24,98234,1,0,0:0:0:0:
300,20,98461,6,0,P|324:8|356:12,1,58.75,0|0,3:0|0:0,0:0:0:0:
408,36,98689,1,0,0:0:0:0:
432,88,98802,1,0,0:0:0:0:
428,148,98916,1,8,3:2:0:0:
364,244,99143,2,0,P|328:256|300:252,1,58.75
252,232,99370,2,0,P|232:208|228:172,1,58.75,0|0,3:0|0:0,0:0:0:0:
248,128,99598,1,0,0:0:0:0:
296,92,99711,1,0,0:0:0:0:
356,96,99825,1,8,3:2:0:0:
416,196,100052,5,0,0:0:0:0:
428,252,100166,1,0,0:0:0:0:
392,296,100280,2,0,B|360:312|336:292|342:283|312:264|284:280,1,117.5,0|0,3:0|0:0,0:0:0:0:
236,316,100620,1,0,0:0:0:0:
196,360,100734,2,0,L|164:240,1,117.5,8|0,3:2|0:2,0:2:0:0:
152,188,101075,1,0,0:2:0:0:
136,132,101189,1,0,3:0:0:0:
224,56,101416,1,0,0:0:0:0:
112,16,101643,1,8,3:2:0:0:
224,56,101870,1,0,3:0:0:0:
68,88,102098,6,0,B|76:128|76:128|68:144|68:144|80:204,1,117.5,0|0,3:0|0:0,0:0:0:0:
92,260,102439,1,0,0:0:0:0:
104,316,102552,2,0,P|168:328|212:300,1,117.5,8|0,3:2|0:0,0:0:0:0:
232,248,102893,1,0,0:0:0:0:
208,196,103007,1,0,3:0:0:0:
324,176,103234,1,0,0:0:0:0:
324,176,103348,1,2,0:0:0:0:
444,160,103575,1,2,0:0:0:0:
444,160,103689,1,0,0:0:0:0:
396,268,103916,6,0,P|384:296|360:324,2,58.75,0|0|0,3:0|0:0|0:0,0:0:0:0:
324,176,104371,1,8,3:2:0:0:
272,152,104484,1,0,0:0:0:0:
216,172,104598,1,0,0:0:0:0:
152,272,104825,2,0,B|104:304|104:304|44:292,1,117.5,0|0,3:0|0:0,0:0:0:0:
36,236,105166,2,0,B|84:204|84:204|144:216,1,117.5,2|2,0:0|0:0,0:0:0:0:
196,240,105507,1,0,0:0:0:0:
240,280,105621,1,0,0:0:0:0:
292,252,105734,6,0,P|352:260|400:224,1,117.5,0|0,3:0|0:0,0:0:0:0:
408,172,106075,1,0,0:0:0:0:
360,140,106189,2,0,L|236:116,1,117.5,8|0,3:2|0:0,0:0:0:0:
188,140,106530,1,0,0:0:0:0:
140,108,106643,1,0,3:0:0:0:
60,192,106870,1,0,0:0:0:0:
100,304,107098,1,8,3:2:0:0:
152,276,107211,1,0,0:0:0:0:
212,284,107325,1,0,0:0:0:0:
244,332,107439,1,0,0:0:0:0:
295,359,107552,6,0,P|351:372|398:339,1,117.5,0|0,3:0|0:0,0:0:0:0:
392,280,107893,1,0,0:0:0:0:
428,232,108007,2,0,B|444:156|444:156|420:124,1,117.5,8|0,3:2|0:0,0:0:0:0:
360,124,108348,1,0,0:0:0:0:
312,92,108462,2,0,P|264:80|208:124,1,117.5,0|0,3:0|0:0,0:0:0:0:
188,232,108916,1,8,3:2:0:0:
164,348,109143,1,0,3:0:0:0:
64,284,109371,5,4,3:0:0:0:
144,100,109825,1,2,3:1:0:0:
224,284,110280,5,4,3:0:0:0:
304,100,110734,1,2,3:1:0:0:
384,284,111189,5,4,3:0:0:0:
332,172,111416,1,2,3:1:0:0:
304,284,111643,5,4,3:0:0:0:
252,172,111870,1,2,3:1:0:0:
144,284,112098,5,4,3:0:0:0:
92,172,112325,1,2,3:1:0:0:
224,284,112552,5,4,3:0:0:0:
172,172,112779,1,2,3:1:0:0:
304,284,113007,5,2,3:1:0:0:
304,100,113234,1,2,3:1:0:0:
208,284,113461,5,2,3:1:0:0:
208,100,113688,1,2,3:1:0:0:
304,284,113916,5,2,3:1:0:0:
304,100,114143,1,2,3:1:0:0:
208,284,114370,5,2,3:1:0:0:
208,100,114597,1,2,3:1:0:0:
304,284,114825,5,2,3:1:0:0:
356,308,114939,1,2,3:1:0:0:
412,296,115052,1,2,3:1:0:0:
440,244,115166,1,2,3:1:0:0:
448,184,115280,6,0,P|472:164|504:160,3,58.75,2|2|2|2,3:1|3:1|3:1|3:1,0:0:0:0:
508,100,115734,6,2,B|436:40|348:112|348:112|312:16|208:40,1,352.5,2|2,3:1|3:1,3:1:0:0:
136,132,116643,5,4,3:2:0:0:
136,252,116870,1,2,0:0:0:0:
36,316,117098,2,0,P|84:360|140:372,1,117.5,8|0,0:1|0:0,0:0:0:0:
176,332,117439,1,2,0:0:0:0:
256,248,117666,1,2,0:0:0:0:
336,164,117893,1,2,0:0:0:0:
336,164,118007,1,8,0:1:0:0:
452,164,118234,1,2,0:0:0:0:
508,60,118461,5,0,3:0:0:0:
392,60,118689,1,2,0:0:0:0:
312,144,118916,2,0,P|256:160|200:144,1,117.5,8|0,0:1|0:0,0:0:0:0:
152,112,119257,2,0,B|129:106|109:126|109:126|92:143|92:143|72:162|78:185,1,117.5,2|2,0:0|0:0,0:0:0:0:
168,260,119711,1,2,0:0:0:0:
228,260,119825,2,0,B|284:260|284:260|312:260|335:227,1,117.5,8|0,0:1|0:0,0:0:0:0:
510,105,120280,6,0,B|454:105|454:105|426:105|402:137,1,117.5,0|2,3:0|0:0,0:0:0:0:
334,229,120734,1,8,0:1:0:0:
256,144,120961,1,2,0:0:0:0:
256,144,121075,1,2,0:0:0:0:
178,229,121302,1,2,0:0:0:0:
178,229,121416,1,0,0:0:0:0:
108,135,121643,2,0,B|86:105|58:105|58:105|2:105,1,117.5,8|2,0:1|0:0,0:0:0:0:
140,56,122098,5,0,3:0:0:0:
256,56,122325,1,0,3:0:0:0:
372,56,122552,1,8,0:1:0:0:
316,232,122893,1,2,0:0:0:0:
196,232,123120,1,2,0:0:0:0:
256,132,123348,1,2,0:0:0:0:
256,132,123461,1,8,0:1:0:0:
312,28,123689,1,0,3:3:0:0:
376,132,123916,5,0,3:0:0:0:
376,252,124143,1,2,0:0:0:0:
476,316,124371,2,0,P|428:360|372:372,1,117.5,8|0,0:1|0:0,0:0:0:0:
336,332,124712,1,2,0:0:0:0:
256,248,124939,1,2,0:0:0:0:
176,164,125166,1,2,0:0:0:0:
176,164,125280,1,8,0:1:0:0:
60,164,125507,1,2,0:0:0:0:
4,60,125734,5,0,3:0:0:0:
120,60,125962,1,2,0:0:0:0:
200,144,126189,2,0,P|256:160|312:144,1,117.5,8|0,0:1|0:0,0:0:0:0:
360,112,126530,2,0,B|382:106|402:126|402:126|419:143|419:143|439:162|433:185,1,117.5,2|2,0:0|0:0,0:0:0:0:
344,260,126984,1,2,0:0:0:0:
284,260,127098,2,0,B|228:260|228:260|200:260|177:227,1,117.5,8|0,0:1|3:0,0:0:0:0:
2,105,127553,6,0,B|58:105|58:105|86:105|110:137,1,117.5,0|2,3:0|0:0,0:0:0:0:
178,229,128007,1,8,0:1:0:0:
256,144,128234,1,2,0:0:0:0:
256,144,128348,1,2,0:0:0:0:
334,229,128575,1,2,0:0:0:0:
403,135,128802,1,2,0:0:0:0:
403,135,128916,2,0,B|426:105|454:105|454:105|510:105,1,117.5,8|0,0:1|0:0,0:0:0:0:
372,56,129371,5,0,3:0:0:0:
256,56,129598,1,0,3:0:0:0:
140,56,129825,1,8,0:1:0:0:
196,232,130166,1,2,0:0:0:0:
316,232,130393,1,2,0:0:0:0:
256,132,130621,1,2,0:0:0:0:
256,132,130734,1,8,3:1:0:0:
200,28,130962,1,0,3:0:0:0:
200,188,131189,6,0,B|184:228|148:228|148:228|100:228,1,117.5,4|2,3:2|0:0,0:0:0:0:
76,176,131530,1,0,0:0:0:0:
52,124,131643,2,0,P|92:80|152:72,1,117.5,8|0,0:1|0:0,0:0:0:0:
200,100,131984,2,0,B|224:116|256:104|256:104|288:116|312:100,2,117.5,2|2|0,0:0|0:0|0:0,0:0:0:0:
147,71,132552,1,8,0:1:0:0:
152,188,132780,1,0,0:0:0:0:
100,292,133007,6,0,B|152:320|152:320|204:292,1,117.5,0|2,3:0|0:0,0:0:0:0:
412,292,133461,2,0,B|360:320|360:320|308:292,1,117.5,8|0,0:1|0:0,0:0:0:0:
308,232,133802,1,2,0:0:0:0:
256,128,134030,1,2,0:0:0:0:
368,84,134257,1,0,0:0:0:0:
368,84,134371,1,8,0:1:0:0:
420,188,134598,1,0,3:0:0:0:
496,276,134825,6,0,P|448:300|386:298,1,117.5,0|2,3:0|0:0,0:0:0:0:
348,252,135166,1,2,0:0:0:0:
312,204,135280,2,0,B|288:188|256:200|256:208|224:220|200:204,1,117.5,8|0,0:1|0:0,0:0:0:0:
164,156,135621,1,2,0:0:0:0:
46,156,135848,1,2,0:0:0:0:
104,56,136075,1,2,0:0:0:0:
104,56,136189,1,8,0:1:0:0:
220,56,136416,1,0,3:0:0:0:
336,56,136643,6,0,P|364:100|348:160,1,117.5,2|2,3:1|0:0,0:0:0:0:
176,328,137098,2,0,P|148:284|164:224,1,117.5,10|2,0:1|0:0,0:0:0:0:
128,176,137439,1,2,0:1:0:0:
144,60,137666,1,2,0:1:0:0:
256,108,137893,1,2,0:1:0:0:
256,108,138007,1,8,3:1:0:0:
368,60,138234,1,0,3:0:0:0:
312,188,138461,6,0,B|328:228|364:228|364:228|412:228,1,117.5,4|2,3:2|0:0,0:0:0:0:
436,176,138802,1,0,0:0:0:0:
460,124,138915,2,0,P|420:80|360:72,1,117.5,8|0,0:1|0:0,0:0:0:0:
312,100,139256,2,0,B|288:116|256:104|256:104|224:116|200:100,2,117.5,2|2|0,0:0|0:0|0:0,0:0:0:0:
365,71,139824,1,8,0:1:0:0:
360,188,140052,1,0,0:0:0:0:
412,292,140280,6,0,B|360:320|360:320|308:292,1,117.5,0|2,3:0|0:0,0:0:0:0:
100,292,140734,2,0,B|152:320|152:320|204:292,1,117.5,8|0,0:1|0:0,0:0:0:0:
204,232,141075,1,2,0:0:0:0:
256,128,141303,1,2,0:0:0:0:
144,84,141530,1,0,0:0:0:0:
144,84,141644,1,8,0:1:0:0:
92,188,141871,1,0,3:0:0:0:
16,276,142098,6,0,P|64:300|126:298,1,117.5,0|2,3:0|0:0,0:0:0:0:
164,252,142439,1,2,0:0:0:0:
200,204,142553,2,0,B|224:188|256:200|256:208|288:220|312:204,1,117.5,8|0,0:1|0:0,0:0:0:0:
348,156,142894,1,2,0:0:0:0:
466,156,143121,1,2,0:0:0:0:
408,56,143348,1,2,0:0:0:0:
408,56,143462,1,8,0:1:0:0:
292,56,143689,1,0,3:0:0:0:
176,56,143916,6,0,P|148:100|164:160,1,117.5,2|2,3:1|0:0,0:0:0:0:
336,328,144371,2,0,P|364:284|348:224,1,117.5,10|2,0:1|0:0,0:0:0:0:
384,176,144712,1,2,0:1:0:0:
368,60,144939,1,2,0:1:0:0:
256,108,145166,1,2,0:1:0:0:
256,108,145280,1,8,3:1:0:0:
144,60,145507,1,0,3:0:0:0:
256,188,145734,5,6,3:1:0:0:
136,192,158461,5,4,3:2:0:0:
376,192,158915,1,4,3:2:0:0:
184,56,159370,5,4,3:2:0:0:
252,16,159521,5,4,3:2:0:0:
260,96,159673,5,4,3:2:0:0:
328,56,159824,5,4,3:2:0:0:
169,168,160280,6,0,B|140:184|132:212|132:212|104:200|76:216,1,117.5,0|0,3:1|0:0,0:0:0:0:
56,272,160621,1,0,0:0:0:0:
80,324,160735,2,0,B|120:320|120:320|164:316|184:280,1,117.5,8|0,3:2|0:0,0:0:0:0:
208,228,161076,1,0,0:0:0:0:
264,208,161189,1,0,3:0:0:0:
312,240,161302,1,0,0:0:0:0:
412,176,161530,2,0,P|432:236|416:296,1,117.5,2|2,0:0|0:0,0:0:0:0:
380,328,161871,1,0,0:0:0:0:
264,332,162098,6,0,P|232:352|196:356,2,58.75,0|0|0,3:0|0:0|0:0,0:0:0:0:
292,280,162439,1,0,0:0:0:0:
280,224,162553,2,0,B|220:256|172:212,1,117.5,8|0,3:2|0:0,0:0:0:0:
132,168,162894,1,0,0:0:0:0:
120,112,163008,2,0,L|240:100,1,117.5,0|0,3:0|0:0,0:0:0:0:
296,88,163348,1,0,0:0:0:0:
340,128,163461,1,8,3:2:0:0:
408,224,163689,1,0,0:0:0:0:
476,128,163916,6,0,B|464:92|464:92|452:48|400:44,1,117.5,0|0,3:1|0:0,0:0:0:0:
352,64,164257,1,0,0:0:0:0:
300,40,164370,2,0,L|160:72,1,117.5,8|0,3:2|0:0,0:0:0:0:
132,92,164711,1,0,0:0:0:0:
76,80,164825,1,0,3:0:0:0:
44,192,165052,1,0,0:0:0:0:
160,180,165280,1,8,3:2:0:0:
112,288,165508,5,0,0:0:0:0:
168,304,165621,1,0,0:0:0:0:
196,356,165735,2,0,B|248:316|312:332,1,117.5,0|0,3:0|0:0,0:0:0:0:
360,356,166076,1,0,0:0:0:0:
412,328,166189,2,0,B|396:304|416:272|432:284|456:252|444:224,1,117.5,8|0,3:2|0:0,0:0:0:0:
396,192,166530,1,0,0:0:0:0:
340,216,166644,1,0,3:2:0:0:
224,192,166871,1,0,0:0:0:0:
328,136,167097,1,8,3:2:0:0:
212,112,167325,1,0,0:0:0:0:
312,52,167553,6,0,P|372:64|408:108,1,117.5,0|0,3:1|0:0,0:0:0:0:
400,164,167894,1,0,0:0:0:0:
360,208,168008,2,0,B|308:260|336:324,1,117.5,8|0,3:2|0:0,0:0:0:0:
384,344,168348,1,0,0:0:0:0:
440,320,168462,1,0,3:0:0:0:
468,268,168575,1,0,0:0:0:0:
436,156,168803,1,2,0:0:0:0:
324,180,169030,1,2,0:0:0:0:
324,180,169144,1,0,0:0:0:0:
212,140,169370,6,0,P|180:128|140:128,2,58.75,0|0|0,3:0|0:0|0:0,0:0:0:0:
236,196,169711,1,0,0:0:0:0:
212,252,169825,2,0,B|176:264|176:264|128:280|100:248,1,117.5,8|0,3:2|0:0,0:0:0:0:
92,192,170166,1,0,0:0:0:0:
56,144,170280,1,0,3:0:0:0:
92,100,170393,1,0,0:0:0:0:
208,80,170620,1,2,0:0:0:0:
328,64,170848,1,2,0:0:0:0:
328,64,170961,1,0,3:0:0:0:
436,112,171189,6,0,B|420:184|360:212,1,117.5,0|0,3:1|0:0,0:0:0:0:
312,196,171530,1,0,0:0:0:0:
256,172,171643,2,0,B|240:244|180:272,1,117.5,8|0,3:2|0:0,0:0:0:0:
132,256,171984,1,0,0:0:0:0:
84,288,172098,1,0,3:0:0:0:
32,260,172211,2,0,L|4:144,2,117.5,0|2|2,0:0|0:0|0:0,0:0:0:0:
84,288,172780,5,0,0:0:0:0:
132,256,172894,1,0,0:0:0:0:
191,265,173007,1,0,3:0:0:0:
264,356,173234,1,0,0:0:0:0:
316,324,173348,1,0,0:0:0:0:
372,348,173462,2,0,B|428:376|484:336,1,117.5,8|0,3:2|0:0,0:0:0:0:
492,280,173803,1,0,0:0:0:0:
452,236,173917,1,0,3:0:0:0:
364,160,174144,1,0,0:0:0:0:
476,120,174371,1,8,3:2:0:0:
392,40,174598,1,0,3:0:0:0:
280,72,174826,6,0,B|252:120|252:120|268:180,1,117.5,0|0,3:0|0:0,0:0:0:0:
288,236,175167,1,0,0:0:0:0:
240,268,175280,2,0,P|176:280|132:252,1,117.5,8|0,3:2|0:0,0:0:0:0:
116,196,175621,1,0,0:0:0:0:
144,144,175735,1,0,3:0:0:0:
236,68,175962,1,0,0:0:0:0:
236,68,176076,1,2,0:0:0:0:
267,179,176303,1,2,0:0:0:0:
267,179,176417,1,0,0:0:0:0:
116,268,176644,6,0,P|128:296|152:324,2,58.75,0|0|0,3:0|0:0|0:0,0:0:0:0:
121,209,176984,1,0,0:0:0:0:
162,167,177098,1,8,3:2:0:0:
259,232,177325,1,0,0:0:0:0:
307,199,177439,1,0,0:0:0:0:
363,182,177552,2,0,P|349:147|317:121,1,58.75,0|0,3:0|0:0,0:0:0:0:
285,98,177780,2,0,P|253:88|212:100,1,58.75
182,127,178007,1,8,3:2:0:0:
139,236,178234,5,0,3:2:0:0:
157,292,178348,1,0,0:0:0:0:
204,326,178462,2,0,B|266:342|312:298,1,117.5,0|0,3:0|0:0,0:0:0:0:
320,239,178803,1,0,0:0:0:0:
371,210,178917,2,0,B|379:167|379:167|393:153|393:153|404:89,1,117.5,8|0,3:2|0:0,0:0:0:0:
424,45,179258,1,0,0:0:0:0:
369,23,179371,1,0,3:0:0:0:
271,87,179598,1,0,0:0:0:0:
173,153,179826,1,8,3:2:0:0:
272,214,180053,5,0,0:0:0:0:
247,267,180167,1,0,0:0:0:0:
288,307,180280,2,0,P|344:320|391:287,1,117.5,0|0,3:0|0:0,0:0:0:0:
440,318,180621,1,0,0:0:0:0:
472,269,180735,2,0,B|456:193|456:193|480:161,1,117.5,8|0,3:2|0:0,0:0:0:0:
506,108,181076,1,0,0:0:0:0:
459,71,181190,2,0,P|414:35|358:46,1,117.5,0|0,3:0|0:0,0:0:0:0:
256,108,181644,1,8,3:2:0:0:
256,224,181871,1,0,3:0:0:0:
256,340,182099,5,4,3:0:0:0:
368,100,182553,1,2,3:1:0:0:
256,340,183008,5,4,3:0:0:0:
144,100,183462,1,2,3:1:0:0:
256,340,183917,5,4,3:0:0:0:
104,324,184144,1,2,3:1:0:0:
256,340,184371,5,4,3:0:0:0:
188,204,184598,1,2,3:1:0:0:
256,340,184826,5,4,3:0:0:0:
324,204,185053,1,2,3:1:0:0:
256,340,185280,5,4,3:0:0:0:
408,324,185507,1,2,3:1:0:0:
392,172,185735,5,2,3:1:0:0:
256,104,185962,1,2,3:1:0:0:
392,172,186189,5,2,3:1:0:0:
256,236,186416,1,2,3:1:0:0:
120,172,186644,5,2,3:1:0:0:
256,236,186871,1,2,3:1:0:0:
120,172,187098,5,2,3:1:0:0:
256,104,187325,1,2,3:1:0:0:
392,172,187553,5,2,3:1:0:0:
381,229,187667,1,2,3:1:0:0:
342,272,187780,1,2,3:1:0:0:
286,292,187894,1,2,3:1:0:0:
226,292,188007,5,2,3:1:0:0:
170,272,188121,1,2,3:1:0:0:
131,229,188234,1,2,3:1:0:0:
120,172,188348,1,2,3:1:0:0:
120,112,188461,6,2,B|144:32|212:32|212:32|300:32|300:32|368:32|392:112,1,352.5,2|2,3:1|3:1,3:1:0:0:
256,144,189370,5,4,3:2:0:0:
292,260,189597,1,2,0:0:0:0:
332,376,189825,2,0,B|364:360|392:376|420:392|452:376,1,123.374996234894,8|0,0:1|0:0,0:0:0:0:
476,320,190166,1,2,0:0:0:0:
392,232,190393,1,2,0:0:0:0:
308,320,190620,1,2,0:0:0:0:
308,320,190734,1,8,0:1:0:0:
224,232,190961,1,2,0:0:0:0:
224,356,191188,5,0,3:0:0:0:
100,356,191416,1,2,0:0:0:0:
100,232,191643,2,0,P|60:192|100:152,1,123.374996234894,8|0,0:1|0:0,0:0:0:0:
144,112,191984,2,0,B|188:112|188:112|224:112|256:148,1,123.374996234894,2|2,0:0|0:0,0:0:0:0:
324,248,192438,1,2,0:0:0:0:
316,308,192552,2,0,B|256:320|256:320|196:308,1,123.374996234894,8|0,0:1|3:0,0:0:0:0:
196,76,193007,6,0,B|256:64|256:64|316:76,1,123.374996234894,0|2,3:0|0:0,0:0:0:0:
256,184,193461,1,8,0:1:0:0:
196,292,193688,1,2,0:0:0:0:
196,292,193802,1,2,0:0:0:0:
76,292,194029,1,2,0:0:0:0:
76,292,194143,1,0,0:0:0:0:
136,184,194370,2,0,P|64:176|8:196,1,123.374996234894,8|2,0:1|0:0,0:0:0:0:
140,332,194825,5,0,3:0:0:0:
260,300,195052,1,0,3:0:0:0:
380,268,195279,1,8,0:1:0:0:
312,92,195620,2,0,P|256:68|200:92,2,123.374996234894,2|2|2,0:0|0:0|0:0,0:0:0:0:
352,140,196189,1,8,0:1:0:0:
352,16,196416,1,0,3:3:0:0:
256,144,196643,5,0,3:0:0:0:
220,260,196870,1,2,0:0:0:0:
180,376,197098,2,0,B|148:360|120:376|92:392|60:376,1,123.374996234894,8|0,0:1|0:0,0:0:0:0:
36,320,197439,1,2,0:0:0:0:
120,232,197666,1,2,0:0:0:0:
204,320,197893,1,2,0:0:0:0:
204,320,198007,1,8,0:1:0:0:
288,232,198234,1,2,0:0:0:0:
288,356,198461,5,0,3:0:0:0:
412,356,198689,1,2,0:0:0:0:
412,232,198916,2,0,P|452:192|412:152,1,123.374996234894,8|0,0:1|0:0,0:0:0:0:
368,112,199257,2,0,B|324:112|324:112|288:112|256:148,1,123.374996234894,2|2,0:0|0:0,0:0:0:0:
188,248,199711,1,2,0:0:0:0:
196,308,199825,2,0,B|256:320|256:320|316:308,1,123.374996234894,8|0,0:1|3:0,0:0:0:0:
316,76,200280,6,0,B|256:64|256:64|196:76,1,123.374996234894,0|2,3:0|0:0,0:0:0:0:
256,184,200734,1,8,0:1:0:0:
316,292,200961,1,2,0:0:0:0:
316,292,201075,1,2,0:0:0:0:
436,292,201302,1,2,0:0:0:0:
376,184,201530,1,2,0:0:0:0:
376,184,201643,2,0,P|448:176|504:196,1,123.374996234894,8|0,0:1|0:0,0:0:0:0:
372,332,202098,5,0,3:0:0:0:
252,300,202325,1,0,3:0:0:0:
132,268,202552,1,8,0:1:0:0:
200,92,202893,2,0,P|256:68|312:92,2,123.374996234894,2|2|2,0:0|0:0|0:0,0:0:0:0:
160,140,203462,1,8,3:1:0:0:
160,16,203689,1,0,3:0:0:0:
256,144,203916,6,0,P|312:168|368:144,1,123.374996234894,4|2,3:2|0:0,0:0:0:0:
396,92,204257,1,0,0:0:0:0:
428,40,204370,1,8,0:1:0:0:
312,80,204598,1,0,0:0:0:0:
312,80,204711,1,2,0:0:0:0:
196,40,204939,1,2,0:0:0:0:
84,80,205166,1,0,0:0:0:0:
84,80,205280,2,0,B|84:128|84:128|84:168|116:192,1,123.374996234894,8|0,0:1|0:0,0:0:0:0:
228,304,205734,6,0,B|228:256|228:256|228:216|196:192,1,123.374996234894,0|2,3:0|0:0,0:0:0:0:
156,144,206075,1,2,0:0:0:0:
196,96,206189,2,0,B|256:108|256:108|316:96,1,123.374996234894,8|0,0:1|0:0,0:0:0:0:
316,32,206530,2,0,B|256:20|256:20|196:32,1,123.374996234894,2|2,0:0|0:0,0:0:0:0:
256,140,206984,1,0,0:0:0:0:
256,140,207098,1,8,0:1:0:0:
320,244,207325,1,0,3:0:0:0:
384,140,207552,5,0,3:0:0:0:
424,184,207666,1,2,0:0:0:0:
468,228,207780,1,2,0:0:0:0:
508,272,207893,1,2,0:0:0:0:
508,332,208007,2,0,B|476:348|448:332|420:316|388:332,1,123.374996234894,8|0,0:1|0:0,0:0:0:0:
332,356,208348,1,2,0:0:0:0:
256,260,208575,1,2,0:0:0:0:
184,160,208802,1,0,0:0:0:0:
160,104,208916,2,0,P|104:96|56:144,1,123.374996234894,8|0,0:1|3:0,0:0:0:0:
96,256,209370,6,0,P|152:264|200:216,1,123.374996234894,2|2,3:1|0:0,0:0:0:0:
416,256,209825,2,0,P|360:248|312:296,1,123.374996234894,10|2,0:1|0:0,0:0:0:0:
320,352,210166,1,2,0:1:0:0:
192,352,210393,1,2,0:1:0:0:
256,248,210620,1,2,0:1:0:0:
256,248,210734,1,8,3:1:0:0:
132,248,210961,1,0,3:0:0:0:
256,144,211189,6,0,P|200:168|144:144,1,123.374996234894,4|2,3:2|0:0,0:0:0:0:
116,92,211530,1,0,0:0:0:0:
84,40,211643,1,8,0:1:0:0:
200,80,211871,1,0,0:0:0:0:
200,80,211984,1,2,0:0:0:0:
316,40,212212,1,2,0:0:0:0:
428,80,212439,1,0,0:0:0:0:
428,80,212553,2,0,B|428:128|428:128|428:168|396:192,1,123.374996234894,8|0,0:1|0:0,0:0:0:0:
284,304,213007,6,0,B|284:256|284:256|284:216|316:192,1,123.374996234894,0|2,3:0|0:0,0:0:0:0:
356,144,213348,1,2,0:0:0:0:
316,96,213462,2,0,B|256:108|256:108|196:96,1,123.374996234894,8|0,0:1|0:0,0:0:0:0:
196,32,213803,2,0,B|256:20|256:20|316:32,1,123.374996234894,2|2,0:0|0:0,0:0:0:0:
256,140,214257,1,0,0:0:0:0:
256,140,214371,1,8,0:1:0:0:
192,244,214598,1,0,3:0:0:0:
128,140,214825,5,0,3:0:0:0:
88,184,214939,1,2,0:0:0:0:
44,228,215053,1,2,0:0:0:0:
4,272,215166,1,2,0:0:0:0:
4,332,215280,2,0,B|36:348|64:332|92:316|124:332,1,123.374996234894,8|0,0:1|0:0,0:0:0:0:
180,356,215621,1,2,0:0:0:0:
256,260,215848,1,2,0:0:0:0:
328,160,216075,1,2,0:0:0:0:
352,104,216189,2,0,P|408:96|456:144,1,123.374996234894,8|0,0:1|3:0,0:0:0:0:
416,256,216643,6,0,P|360:264|312:216,1,123.374996234894,2|2,3:1|0:0,0:0:0:0:
96,256,217098,2,0,P|152:248|200:296,1,123.374996234894,10|2,0:1|0:0,0:0:0:0:
192,352,217439,1,2,0:1:0:0:
320,352,217666,1,2,0:1:0:0:
256,252,217893,1,2,0:1:0:0:
256,252,218007,1,8,3:1:0:0:
380,248,218234,1,0,3:0:0:0:
324,144,218461,6,0,B|292:136|268:156|268:156|236:144|212:160,1,117.5,4|0,1:2|0:0,0:0:0:0:
168,200,218802,1,0,0:0:0:0:
108,192,218916,1,2,0:0:0:0:
136,80,219143,1,0,0:0:0:0:
136,80,219257,1,2,0:0:0:0:
252,56,219484,2,0,B|296:48|296:48|344:40|368:72,1,117.5,2|2,0:0|0:3,0:0:0:0:
384,120,219825,1,2,0:3:0:0:
428,228,220052,1,2,0:3:0:0:
468,340,220280,6,0,P|416:332|360:368,1,117.5,2|0,1:3|0:0,0:0:0:0:
224,304,220734,2,0,P|276:312|332:276,1,117.5,2|0,0:0|0:0,0:0:0:0:
320,220,221075,1,2,0:0:0:0:
204,204,221302,1,2,0:0:0:0:
272,108,221530,1,2,0:3:0:0:
272,108,221643,1,2,0:3:0:0:
388,124,221870,1,2,0:3:0:0:
472,40,222098,6,0,B|478:91|478:91|493:106|493:106|496:156,1,117.5,2|0,1:3|0:0,0:0:0:0:
500,208,222439,1,0,0:0:0:0:
504,268,222552,1,2,0:0:0:0:
388,296,222780,1,0,0:0:0:0:
388,296,222893,1,2,0:0:0:0:
272,308,223120,1,2,0:0:0:0:
156,324,223348,1,2,0:3:0:0:
156,324,223461,1,2,0:3:0:0:
196,212,223689,1,2,0:3:0:0:
124,120,223916,6,0,P|172:92|232:104,1,117.5,8|2,0:3|0:3,0:0:0:0:
272,144,224257,1,8,0:3:0:0:
320,112,224370,2,0,L|332:228,1,117.5,2|8,0:3|0:3,0:0:0:0:
340,288,224711,1,2,0:3:0:0:
348,348,224825,1,2,0:3:0:0:
452,292,225052,1,2,0:3:0:0:
444,232,225166,1,2,0:3:0:0:
436,172,225280,1,8,0:3:0:0:
324,144,225507,1,8,0:3:0:0:
220,96,225734,6,0,P|164:92|128:140,1,117.5,4|0,3:2|0:0,0:0:0:0:
120,196,226075,1,0,0:0:0:0:
112,256,226189,2,0,L|232:272,1,117.5,8|0,3:1|0:0,0:0:0:0:
284,271,226529,2,0,L|400:256,1,117.5,2|2,0:0|0:0,0:0:0:0:
384,136,226984,1,0,0:0:0:0:
384,136,227098,2,0,P|349:92|292:96,1,117.5,8|0,3:1|0:0,0:0:0:0:
204,280,227552,6,0,P|216:224|192:164,1,117.5,0|0,3:0|0:0,0:0:0:0:
308,280,228007,2,0,P|296:224|320:164,1,117.5,8|0,3:1|0:0,0:0:0:0:
364,132,228348,1,2,0:0:0:0:
256,84,228575,1,2,0:0:0:0:
148,36,228802,1,2,0:0:0:0:
148,36,228916,1,8,3:1:0:0:
256,84,229143,1,0,0:0:0:0:
184,204,229370,5,0,3:0:0:0:
228,172,229484,1,0,0:0:0:0:
284,172,229598,1,0,0:0:0:0:
332,208,229711,1,0,0:0:0:0:
344,264,229825,2,0,L|304:376,1,117.5,8|0,3:1|0:0,0:0:0:0:
256,344,230166,2,0,L|256:224,2,117.5,2|2|2,0:0|0:0|0:0,0:0:0:0:
208,374,230734,2,0,L|168:264,1,117.5,8|0,3:1|0:0,0:0:0:0:
124,152,231189,5,4,3:2:0:0:
388,152,231643,1,4,3:2:0:0:
256,344,232098,5,4,3:2:0:0:
216,276,232249,5,4,3:2:0:0:
296,268,232401,5,4,3:2:0:0:
256,200,232552,5,4,3:2:0:0:
256,192,233007,12,0,237552,0:0:0:0:
