osu file format v14

[General]
AudioFilename: audio.mp3
AudioLeadIn: 0
PreviewTime: 29267
Countdown: 0
SampleSet: Soft
StackLeniency: 0.4
Mode: 0
LetterboxInBreaks: 0
WidescreenStoryboard: 1

[Editor]
Bookmarks: 29380,36540,43926,51199,58471,73017,87562,94835,102108,109380,116653,131199,145744,158471,160290,167562,174835,182108,189380,203926,218471,225744,231199,233017,237562
DistanceSpacing: 1.1
BeatDivisor: 4
GridSize: 4
TimelineZoom: 2.4

[Metadata]
Title:Arrasando
TitleUnicode:Arrasando
Artist:Thalia
ArtistUnicode:Thalia
Creator:Krisom
Version:Alocado
Source:
Tags:Spanish EspaƱol Latin Pop Mexico Rap HipHop Hip Hop
BeatmapID:3996270
BeatmapSetID:1930803

[Difficulty]
HPDrainRate:5
CircleSize:3.8
OverallDifficulty:8
ApproachRate:9
SliderMultiplier:2.65
SliderTickRate:2

[Events]
//Background and Video events
0,0,"Arrasando.jpg",0,0
Video,0,"ThaliaIsEminem.mp4"
//Break Periods
2,7752,14225
2,145934,157861
//Storyboard Layer 0 (Background)
//Storyboard Layer 1 (Fail)
//Storyboard Layer 2 (Pass)
//Storyboard Layer 3 (Foreground)
//Storyboard Layer 4 (Overlay)
//Storyboard Sound Samples

[TimingPoints]
280,454.545454545455,4,2,1,85,1,0
29370,-100,4,2,1,85,0,0
58461,-100,4,2,1,100,0,1
87552,-100,4,2,1,85,0,0
116643,-100,4,2,1,85,0,1
145734,-100,4,2,1,100,0,0
189370,-100,4,2,1,100,0,1
218461,-100,4,2,1,70,0,0
225734,-100,4,2,1,85,0,0
233007,-100,4,2,1,10,0,0
237552,-100,4,2,1,5,0,0

[Colours]
Combo1 : 245,27,191
Combo2 : 0,202,0

[HitObjects]
96,64,280,5,4,3:0:0:0:
416,64,734,1,2,3:1:0:0:
96,192,1189,5,4,3:0:0:0:
416,192,1643,1,2,3:1:0:0:
96,320,2098,5,4,3:0:0:0:
256,256,2325,1,2,3:1:0:0:
416,320,2552,5,4,3:0:0:0:
256,256,2779,1,2,3:1:0:0:
96,192,3007,5,4,3:0:0:0:
256,256,3234,1,2,3:1:0:0:
416,192,3461,5,4,3:0:0:0:
256,256,3688,1,2,3:1:0:0:
332,84,3916,5,2,3:1:0:0:
332,256,4143,1,2,3:1:0:0:
256,84,4370,5,2,3:1:0:0:
256,256,4597,1,2,3:1:0:0:
180,84,4825,5,2,3:1:0:0:
180,256,5052,1,2,3:1:0:0:
256,84,5280,5,2,3:1:0:0:
256,256,5507,1,2,3:1:0:0:
332,84,5734,5,2,3:1:0:0:
292,24,5848,1,2,3:1:0:0:
220,24,5961,1,2,3:1:0:0:
180,84,6075,1,2,3:1:0:0:
180,156,6189,5,2,3:1:0:0:
220,216,6303,1,2,3:1:0:0:
292,216,6416,1,2,3:1:0:0:
332,156,6530,1,2,3:1:0:0:
404,156,6643,6,2,B|404:224|404:224|404:308|256:384|108:308|108:224|108:224|108:156,1,530,2|4,3:1|3:2,3:1:0:0:
440,48,14825,6,0,L|308:48,1,132.5,4|0,3:2|0:0,0:0:0:0:
256,100,15166,1,0,0:0:0:0:
204,152,15280,2,0,L|72:152,1,132.5,8|0,3:1|0:0,0:0:0:0:
24,94,15620,2,0,P|-3:152|24:210,2,132.5,2|2|0,0:0|0:0|0:0,0:0:0:0:
71,152,16189,2,0,B|127:152|127:152|167:152|187:192,1,132.5,8|0,3:1|0:0,0:0:0:0:
324,352,16643,6,0,P|392:356|432:309,1,132.5,0|0,3:0|0:0,0:0:0:0:
360,288,16984,1,0,0:0:0:0:
288,265,17098,2,0,P|331:218|395:223,1,132.5,8|0,3:1|0:0,0:0:0:0:
468,244,17439,1,2,0:0:0:0:
400,116,17666,1,2,0:0:0:0:
256,116,17893,1,2,0:0:0:0:
256,116,18007,1,8,3:1:0:0:
112,116,18234,1,0,0:0:0:0:
180,320,18461,5,0,3:0:0:0:
220,260,18575,1,0,0:0:0:0:
292,260,18689,1,0,0:0:0:0:
332,320,18802,1,0,0:0:0:0:
404,320,18916,2,0,L|440:192,1,132.5,8|0,3:1|0:0,0:0:0:0:
372,164,19257,2,0,L|408:36,2,132.5,2|2|2,0:0|0:0|0:0,0:0:0:0:
356,236,19825,2,0,P|304:196|305:132,1,132.5,8|0,3:1|0:0,0:0:0:0:
41,194,20280,6,2,B|89:194|89:194|137:194|156:236,1,132.5,2|0,3:1|0:0,0:1:0:0:
471,194,20734,2,2,B|423:194|423:194|375:194|355:236,1,132.5,8|0,3:1|0:0,0:1:0:0:
316,296,21075,2,0,P|256:272|196:296,2,132.5,2|2|2,0:0|0:0|0:0,0:0:0:0:
256,348,21643,1,8,3:1:0:0:
256,200,21870,1,0,3:0:0:0:
72,48,22098,6,0,L|204:48,1,132.5,0|0,3:0|0:0,0:0:0:0:
256,100,22439,1,0,0:0:0:0:
308,152,22553,2,0,L|440:152,1,132.5,8|0,3:1|0:0,0:0:0:0:
488,94,22893,2,0,P|515:152|488:210,2,132.5,2|2|0,0:0|0:0|0:0,0:0:0:0:
441,152,23462,2,0,B|385:152|385:152|345:152|325:192,1,132.5,8|0,3:1|0:0,0:0:0:0:
188,352,23916,6,0,P|120:356|80:309,1,132.5,0|0,3:0|0:0,0:0:0:0:
152,288,24257,1,0,0:0:0:0:
224,265,24371,2,0,P|181:218|117:223,1,132.5,8|0,3:1|0:0,0:0:0:0:
44,244,24712,1,2,0:0:0:0:
112,116,24939,1,2,0:0:0:0:
256,116,25166,1,2,0:0:0:0:
256,116,25280,1,8,3:1:0:0:
400,116,25507,1,0,0:0:0:0:
332,320,25734,5,0,3:0:0:0:
292,260,25848,1,0,0:0:0:0:
220,260,25962,1,0,0:0:0:0:
180,320,26075,1,0,0:0:0:0:
108,320,26189,2,0,L|72:192,1,132.5,8|0,3:1|0:0,0:0:0:0:
140,164,26530,2,0,L|104:36,2,132.5,2|2|2,0:0|0:0|0:0,0:0:0:0:
156,236,27098,2,0,P|208:196|207:132,1,132.5,8|0,3:1|0:0,0:0:0:0:
471,194,27552,6,2,B|423:194|423:194|375:194|356:236,1,132.5,2|0,3:1|0:0,0:1:0:0:
41,194,28006,2,2,B|89:194|89:194|137:194|157:236,1,132.5,8|0,3:1|0:0,0:1:0:0:
196,296,28347,2,0,P|256:272|316:296,2,132.5,2|2|2,0:0|0:0|0:0,0:0:0:0:
256,348,28915,1,8,3:1:0:0:
220,204,29142,1,0,3:0:0:0:
292,204,29257,1,0,0:0:0:0:
364,204,29370,6,0,B|364:144|364:144|364:104|404:84,1,132.5,0|0,3:0|0:0,0:0:0:0:
436,148,29711,1,0,0:0:0:0:
484,204,29825,2,0,B|484:264|484:264|484:304|444:324,1,132.5,8|0,3:2|0:0,0:0:0:0:
412,260,30166,1,0,0:0:0:0:
376,324,30280,1,0,3:0:0:0:
340,260,30393,1,0,0:0:0:0:
304,324,30507,1,0,0:0:0:0:
268,260,30620,2,0,P|208:236|148:260,1,132.5,2|2,0:0|0:0,0:0:0:0:
208,312,30961,5,0,0:0:0:0:
136,332,31075,1,0,0:0:0:0:
64,352,31189,2,0,P|14:312|23:249,1,132.5,0|0,3:0|0:0,0:0:0:0:
64,188,31530,1,0,0:0:0:0:
32,124,31643,2,0,B|64:104|96:120|96:128|128:144|160:124,1,132.5,8|0,3:2|0:0,0:0:0:0:
128,60,31984,1,0,0:0:0:0:
196,36,32098,2,0,P|256:12|316:36,2,132.5,0|0|8,3:0|0:0|3:2,0:0:0:0:
348,112,32780,5,0,0:0:0:0:
420,112,32893,1,0,0:0:0:0:
384,176,33007,2,0,L|320:292,2,132.5,0|0|8,3:0|0:0|3:2,0:0:0:0:
292,64,33689,1,0,0:0:0:0:
220,64,33802,1,0,0:0:0:0:
256,128,33916,2,0,L|256:264,2,132.5,0|0|8,3:0|0:0|3:2,0:0:0:0:
92,112,34598,5,0,0:0:0:0:
164,112,34711,1,0,0:0:0:0:
128,176,34825,2,0,L|192:292,1,132.5,0|0,3:0|0:0,0:0:0:0:
256,328,35166,1,0,0:0:0:0:
320,292,35280,2,0,L|384:176,1,132.5,8|0,3:2|0:0,0:0:0:0:
420,112,35620,1,0,0:0:0:0:
384,48,35734,1,0,3:0:0:0:
312,48,35848,1,0,0:0:0:0:
276,112,35961,1,0,0:0:0:0:
312,176,36075,1,0,0:0:0:0:
384,176,36189,1,8,3:2:0:0:
348,112,36302,1,0,0:0:0:0:
220,204,36530,5,0,0:0:0:0:
148,204,36643,2,0,B|148:144|148:144|148:104|108:84,1,132.5,0|0,3:0|0:0,0:0:0:0:
76,148,36984,1,0,0:0:0:0:
28,204,37098,2,0,B|28:264|28:264|28:304|68:324,1,132.5,8|0,3:2|0:0,0:0:0:0:
100,260,37439,1,0,0:0:0:0:
136,324,37553,1,0,3:0:0:0:
172,260,37666,1,0,0:0:0:0:
208,324,37780,1,0,0:0:0:0:
244,260,37893,2,0,P|304:236|364:260,1,132.5,2|2,0:0|0:0,0:0:0:0:
304,312,38234,5,0,0:0:0:0:
376,332,38348,1,0,0:0:0:0:
447,352,38462,2,0,P|497:312|488:249,1,132.5,0|0,3:0|0:0,0:0:0:0:
448,188,38803,1,0,0:0:0:0:
480,124,38916,2,0,B|448:104|416:120|416:128|384:144|352:124,1,132.5,8|0,3:2|0:0,0:0:0:0:
384,60,39257,1,0,0:0:0:0:
316,36,39371,2,0,P|256:12|196:36,2,132.5,0|0|8,3:0|0:0|3:2,0:0:0:0:
392,196,40052,5,0,0:0:0:0:
416,264,40166,1,0,0:0:0:0:
444,332,40280,2,0,P|384:356|324:332,2,132.5,0|0|8,3:0|0:0|3:2,0:0:0:0:
256,252,40961,1,0,0:0:0:0:
280,184,41075,1,0,0:0:0:0:
312,120,41189,2,0,P|256:90|200:120,2,132.5,0|0|8,3:0|0:0|3:2,0:0:0:0:
120,196,41870,5,0,0:0:0:0:
96,264,41984,1,0,0:0:0:0:
68,332,42098,2,0,P|128:356|188:332,1,132.5,0|0,3:0|0:0,0:0:0:0:
240,280,42439,1,0,0:0:0:0:
188,228,42552,2,0,P|128:252|68:228,1,132.5,8|0,3:2|0:2,0:2:0:0:
128,176,42893,1,0,0:2:0:0:
92,112,43007,1,0,3:0:0:0:
128,48,43121,1,0,0:0:0:0:
200,48,43234,1,0,0:0:0:0:
236,112,43348,1,0,0:2:0:0:
200,176,43462,1,8,3:2:0:0:
164,112,43575,1,0,0:0:0:0:
128,48,43689,1,0,3:0:0:0:
144,224,43916,6,0,B|144:280|144:280|144:320|184:340,1,132.5,0|0,3:0|0:0,0:0:0:0:
256,328,44257,1,0,0:0:0:0:
328,340,44370,2,0,B|368:320|368:280|368:280|368:224,1,132.5,8|0,3:2|0:0,0:0:0:0:
336,160,44711,1,0,0:0:0:0:
292,104,44825,1,0,3:0:0:0:
220,104,44939,1,0,0:0:0:0:
176,160,45052,1,0,0:0:0:0:
208,228,45166,2,0,B|176:248|144:232|144:224|112:208|80:228,1,132.5,2|2,0:0|0:0,0:0:0:0:
108,296,45507,1,0,0:0:0:0:
120,368,45620,1,0,0:0:0:0:
192,368,45734,6,0,P|256:384|320:368,1,132.5,0|0,3:0|0:0,0:0:0:0:
356,304,46075,1,0,0:0:0:0:
320,240,46189,2,0,B|256:224|256:224|192:240,1,132.5,8|0,3:2|0:0,0:0:0:0:
152,180,46530,1,0,0:0:0:0:
124,112,46643,1,0,3:0:0:0:
256,48,46870,1,0,0:0:0:0:
388,112,47098,1,8,3:2:0:0:
388,112,47211,1,2,0:0:0:0:
404,296,47439,5,2,0:0:0:0:
430,227,47552,2,0,B|400:208|368:224|368:232|336:248|304:228,1,132.5,0|0,3:0|0:0,0:0:0:0:
256,172,47893,1,0,0:0:0:0:
212,112,48007,2,0,B|160:112|160:112|116:112|88:160,1,132.5,8|0,3:2|0:0,0:0:0:0:
68,220,48348,1,0,0:0:0:0:
52,292,48461,1,0,3:0:0:0:
32,364,48575,2,0,L|176:364,2,132.5,2|2|2,0:0|0:0|0:0,0:0:0:0:
52,292,49143,5,0,0:0:0:0:
68,220,49257,1,0,0:0:0:0:
93,151,49370,2,0,B|116:112|160:112|160:112|212:112,1,132.5,0|0,3:0|0:0,0:0:0:0:
256,168,49711,1,0,0:0:0:0:
300,112,49825,2,0,B|352:112|352:112|396:112|424:160,1,132.5,8|0,3:2|0:0,0:0:0:0:
444,220,50166,1,0,0:0:0:0:
460,292,50279,1,0,3:0:0:0:
388,292,50393,1,0,0:0:0:0:
316,292,50507,1,0,0:0:0:0:
332,364,50620,1,0,0:0:0:0:
256,364,50734,1,8,3:2:0:0:
256,220,50961,1,0,3:0:0:0:
256,72,51189,5,4,3:0:0:0:
468,344,51643,1,2,3:1:0:0:
256,72,52098,5,4,3:0:0:0:
44,344,52552,1,2,3:1:0:0:
44,40,53007,5,4,3:0:0:0:
124,192,53234,1,2,3:1:0:0:
212,40,53461,5,4,3:0:0:0:
292,192,53688,1,2,3:1:0:0:
468,40,53916,5,4,3:0:0:0:
388,192,54143,1,2,3:1:0:0:
300,40,54370,5,4,3:0:0:0:
220,192,54597,1,2,3:1:0:0:
384,268,54825,5,2,3:1:0:0:
128,268,55052,1,2,3:1:0:0:
384,192,55280,5,2,3:1:0:0:
128,192,55507,1,2,3:1:0:0:
384,116,55734,5,2,3:1:0:0:
128,116,55961,1,2,3:1:0:0:
384,192,56189,5,2,3:1:0:0:
128,192,56416,1,2,3:1:0:0:
360,260,56643,5,2,3:1:0:0:
328,328,56757,1,2,3:1:0:0:
256,348,56870,1,2,3:1:0:0:
184,328,56984,1,2,3:1:0:0:
152,260,57098,5,2,3:1:0:0:
184,192,57212,1,2,3:1:0:0:
256,172,57325,1,2,3:1:0:0:
328,192,57439,1,2,3:1:0:0:
400,192,57552,6,2,B|400:148|400:148|400:76|256:-8|112:76|112:148|112:148|112:192,1,463.75,2|2,3:1|3:1,3:1:0:0:
120,263,58461,6,0,P|59:241|40:180,1,132.5,4|2,3:2|0:0,0:0:0:0:
112,56,58916,1,8,0:1:0:0:
256,32,59143,1,0,0:0:0:0:
198,80,59257,2,0,P|256:107|314:80,1,132.5,2|2,0:0|0:0,0:0:0:0:
460,80,59711,1,2,0:0:0:0:
488,148,59825,2,0,B|458:167|426:151|426:143|394:127|362:147,1,132.5,8|2,0:1|0:0,0:0:0:0:
472,244,60280,5,0,3:0:0:0:
328,244,60507,1,2,0:0:0:0:
400,372,60734,1,8,0:1:0:0:
256,372,60961,1,0,0:0:0:0:
328,352,61075,2,0,B|304:300|256:300|256:300|208:300,1,132.5,2|2,0:0|0:0,0:0:0:0:
72,300,61530,1,2,0:0:0:0:
0,280,61643,2,0,B|24:228|72:228|72:228|120:228,1,132.5,8|0,0:1|3:0,0:0:0:0:
336,84,62098,5,0,3:0:0:0:
480,84,62325,1,2,0:0:0:0:
408,208,62552,1,8,0:1:0:0:
408,352,62779,1,2,0:0:0:0:
336,352,62893,2,0,L|200:352,1,132.5,2|2,0:0|0:0,0:0:0:0:
184,280,63234,2,0,L|320:280,1,132.5,0|8,0:0|0:1,0:0:0:0:
464,280,63689,1,2,0:0:0:0:
392,120,63916,5,0,3:0:0:0:
256,72,64143,1,0,3:0:0:0:
120,120,64370,2,2,P|63:192|120:264,1,198.75,8|2,0:1|0:0,0:0:0:0:
256,320,64939,1,2,0:0:0:0:
328,196,65166,1,0,0:0:0:0:
328,196,65280,1,8,0:1:0:0:
184,196,65507,1,0,3:3:0:0:
391,263,65734,6,0,P|452:241|471:180,1,132.5,0|2,3:0|0:0,0:0:0:0:
400,56,66189,1,8,0:1:0:0:
256,32,66416,1,0,0:0:0:0:
314,80,66530,2,0,P|256:107|198:80,1,132.5,2|2,0:0|0:0,0:0:0:0:
52,80,66984,1,2,0:0:0:0:
24,148,67098,2,0,B|54:167|86:151|86:143|118:127|150:147,1,132.5,8|2,0:1|0:0,0:0:0:0:
40,244,67552,5,0,3:0:0:0:
184,244,67779,1,2,0:0:0:0:
112,372,68006,1,8,0:1:0:0:
256,372,68233,1,0,0:0:0:0:
184,352,68347,2,0,B|208:300|256:300|256:300|304:300,1,132.5,2|2,0:0|0:0,0:0:0:0:
440,300,68802,1,2,0:0:0:0:
512,280,68915,2,0,B|488:228|440:228|440:228|392:228,1,132.5,8|0,0:1|3:0,0:0:0:0:
176,84,69370,5,0,3:0:0:0:
32,84,69597,1,2,0:0:0:0:
104,208,69824,1,8,0:1:0:0:
104,352,70051,1,2,0:0:0:0:
176,352,70165,2,0,L|312:352,1,132.5,2|2,0:0|0:0,0:0:0:0:
340,208,70620,1,2,0:0:0:0:
328,280,70734,2,0,L|195:280,1,132.5,8|0,0:1|0:0,0:0:0:0:
120,120,71188,5,0,3:0:0:0:
256,72,71415,1,0,3:0:0:0:
392,120,71642,2,2,P|449:192|392:264,1,198.75,8|2,0:1|0:0,0:0:0:0:
256,320,72211,1,2,0:0:0:0:
184,196,72438,1,2,0:0:0:0:
184,196,72552,1,8,3:1:0:0:
328,196,72779,1,0,3:0:0:0:
148,56,73007,6,0,P|92:68|60:140,1,132.5,4|2,3:2|0:0,0:0:0:0:
132,128,73348,1,0,0:0:0:0:
204,125,73461,2,0,P|177:183|115:199,1,132.5,8|0,0:1|0:0,0:0:0:0:
44,220,73802,2,0,B|68:272|116:272|116:272|164:272,1,132.5,2|2,0:0|0:0,0:0:0:0:
220,304,74143,1,0,0:0:0:0:
292,304,74257,1,0,0:0:0:0:
320,372,74370,2,0,B|256:388|256:388|192:372,1,132.5,8|0,0:1|0:0,0:0:0:0:
316,192,74825,5,0,3:0:0:0:
364,136,74939,1,2,0:0:0:0:
436,136,75052,1,2,0:0:0:0:
484,192,75166,1,2,0:0:0:0:
458,259,75280,2,0,P|399:287|341:259,1,132.5,8|0,0:1|0:0,0:0:0:0:
400,212,75621,1,2,0:0:0:0:
400,68,75848,1,2,0:0:0:0:
256,40,76075,1,0,0:0:0:0:
284,108,76189,2,0,B|254:127|222:111|222:103|190:87|158:107,1,132.5,8|0,0:1|3:0,0:0:0:0:
80,256,76643,5,0,3:0:0:0:
152,256,76757,1,2,0:0:0:0:
188,320,76870,1,2,0:0:0:0:
116,320,76984,1,2,0:0:0:0:
43,319,77098,2,0,P|6:266|27:205,1,132.5,8|0,0:1|0:0,0:0:0:0:
92,176,77439,2,0,L|220:136,2,132.5,2|2|2,0:0|0:0|0:0,0:0:0:0:
72,104,78007,2,0,L|200:64,1,132.5,8|0,0:1|3:0,0:0:0:0:
380,24,78461,5,2,3:1:0:0:
380,232,78689,1,2,0:0:0:0:
132,24,78916,5,10,0:1:0:0:
132,232,79144,1,2,0:0:0:0:
132,160,79257,5,2,0:1:0:0:
256,316,79484,1,2,0:1:0:0:
380,160,79711,1,2,0:1:0:0:
380,232,79825,5,8,3:1:0:0:
132,232,80052,1,0,3:0:0:0:
364,56,80280,6,0,P|420:68|452:140,1,132.5,4|2,3:2|0:0,0:0:0:0:
380,128,80621,1,0,0:0:0:0:
308,125,80734,2,0,P|335:183|397:199,1,132.5,8|0,0:1|0:0,0:0:0:0:
468,220,81075,2,0,B|444:272|396:272|396:272|348:272,1,132.5,2|2,0:0|0:0,0:0:0:0:
292,304,81416,1,0,0:0:0:0:
220,304,81530,1,0,0:0:0:0:
192,372,81643,2,0,B|256:388|256:388|320:372,1,132.5,8|0,0:1|0:0,0:0:0:0:
196,192,82098,5,0,3:0:0:0:
148,136,82212,1,2,0:0:0:0:
76,136,82325,1,2,0:0:0:0:
28,192,82439,1,2,0:0:0:0:
54,259,82553,2,0,P|113:287|171:259,1,132.5,8|0,0:1|0:0,0:0:0:0:
112,212,82894,1,2,0:0:0:0:
112,68,83121,1,2,0:0:0:0:
256,40,83348,1,0,0:0:0:0:
228,108,83462,2,0,B|258:127|290:111|290:103|322:87|354:107,1,132.5,8|0,0:1|3:0,0:0:0:0:
432,256,83916,5,0,3:0:0:0:
360,256,84030,1,2,0:0:0:0:
324,320,84143,1,2,0:0:0:0:
396,320,84257,1,2,0:0:0:0:
469,319,84371,2,0,P|505:266|485:205,1,132.5,8|0,0:1|0:0,0:0:0:0:
420,176,84712,2,0,L|292:136,2,132.5,2|2|2,0:0|0:0|0:0,0:0:0:0:
440,104,85280,2,0,L|312:64,1,132.5,8|0,0:1|3:0,0:0:0:0:
132,24,85734,5,2,3:1:0:0:
132,232,85962,1,2,0:0:0:0:
380,24,86189,5,10,0:1:0:0:
380,232,86417,1,2,0:0:0:0:
380,160,86530,5,2,0:1:0:0:
256,316,86757,1,2,0:1:0:0:
132,160,86984,1,2,0:1:0:0:
132,232,87098,5,8,3:1:0:0:
380,232,87325,1,0,3:0:0:0:
256,76,87552,6,0,B|316:76|316:76|356:76|376:116,1,132.5,4|0,3:1|0:0,0:0:0:0:
312,148,87893,1,0,0:0:0:0:
254,196,88007,2,0,P|312:223|370:196,1,132.5,8|0,3:2|0:0,0:0:0:0:
432,156,88348,1,0,0:0:0:0:
492,196,88462,1,0,3:0:0:0:
432,236,88575,1,0,0:0:0:0:
492,104,88802,2,0,P|432:80|372:104,1,132.5,2|2,0:0|0:0,0:0:0:0:
324,160,89143,5,0,0:0:0:0:
256,192,89257,1,0,0:0:0:0:
188,224,89370,2,0,L|56:224,1,132.5,0|0,3:0|0:0,0:0:0:0:
20,288,89712,1,0,0:0:0:0:
56,352,89825,2,0,L|188:352,1,132.5,8|0,3:2|0:0,0:0:0:0:
256,320,90166,1,0,0:0:0:0:
228,252,90280,2,0,B|258:233|290:249|290:257|322:273|354:253,2,132.5,0|0|8,3:0|0:0|3:2,0:0:0:0:
48,128,90962,5,0,0:0:0:0:
100,180,91075,1,0,0:0:0:0:
28,200,91189,2,0,B|52:252|100:252|100:252|148:252,2,132.5,0|0|8,3:0|0:0|3:2,0:0:0:0:
220,360,91871,1,0,0:0:0:0:
292,360,91984,1,0,0:0:0:0:
316,292,92098,2,0,B|300:272|272:272|272:272|240:272|240:272|212:272|196:292,2,132.5,0|0|8,3:0|0:0|3:2,0:0:0:0:
464,128,92780,5,0,0:0:0:0:
412,180,92893,1,0,0:0:0:0:
484,200,93007,2,0,B|460:252|412:252|412:252|364:252,1,132.5,0|0,3:0|0:0,0:0:0:0:
344,184,93348,1,0,0:0:0:0:
320,116,93462,2,0,P|256:100|192:116,1,132.5,8|0,3:2|0:0,0:0:0:0:
168,184,93802,1,0,0:0:0:0:
184,256,93916,1,0,3:0:0:0:
256,256,94030,1,0,0:0:0:0:
328,256,94143,1,0,0:0:0:0:
292,320,94257,1,0,0:0:0:0:
220,320,94371,1,8,3:2:0:0:
184,256,94484,1,0,0:0:0:0:
256,76,94711,5,0,0:0:0:0:
256,76,94825,2,0,B|196:76|196:76|156:76|136:116,1,132.5,0|0,3:0|0:0,0:0:0:0:
200,148,95166,1,0,0:0:0:0:
258,196,95280,2,0,P|200:223|142:196,1,132.5,8|0,3:2|0:0,0:0:0:0:
80,156,95621,1,0,0:0:0:0:
20,196,95735,1,0,3:0:0:0:
80,236,95848,1,0,0:0:0:0:
20,104,96075,2,0,P|80:80|140:104,1,132.5,2|2,0:0|0:0,0:0:0:0:
188,160,96416,5,0,0:0:0:0:
256,192,96530,1,0,0:0:0:0:
324,224,96643,2,0,L|456:224,1,132.5,0|0,3:0|0:0,0:0:0:0:
492,288,96985,1,0,0:0:0:0:
456,352,97098,2,0,L|324:352,1,132.5,8|0,3:2|0:0,0:0:0:0:
256,320,97439,1,0,0:0:0:0:
284,252,97553,2,0,B|254:233|222:249|222:257|190:273|158:253,2,132.5,0|0|8,3:0|0:0|3:2,0:0:0:0:
464,128,98235,5,0,0:0:0:0:
412,180,98348,1,0,0:0:0:0:
484,200,98462,2,0,B|460:252|412:252|412:252|364:252,2,132.5,0|0|8,3:0|0:0|3:2,0:0:0:0:
292,360,99144,1,0,0:0:0:0:
220,360,99257,1,0,0:0:0:0:
196,292,99371,2,0,B|212:272|240:272|240:272|272:272|272:272|300:272|316:292,2,132.5,0|0|8,3:0|0:0|3:2,0:0:0:0:
48,128,100053,5,0,0:0:0:0:
100,180,100166,1,0,0:0:0:0:
28,200,100280,2,0,B|52:252|100:252|100:252|148:252,1,132.5,0|0,3:0|0:0,0:0:0:0:
168,184,100621,1,0,0:0:0:0:
192,116,100734,2,0,P|256:100|320:116,1,132.5,8|0,3:2|0:2,0:2:0:0:
344,184,101074,1,0,0:2:0:0:
328,256,101188,1,0,3:0:0:0:
256,256,101302,1,0,0:0:0:0:
184,256,101415,1,0,0:0:0:0:
220,320,101529,1,0,0:0:0:0:
292,320,101643,1,8,3:2:0:0:
328,256,101757,1,0,0:0:0:0:
408,84,101984,5,0,0:0:0:0:
436,152,102098,2,0,B|404:172|372:156|372:148|340:132|308:152,1,132.5,0|0,3:0|0:0,0:0:0:0:
256,200,102439,1,0,0:0:0:0:
203,151,102552,2,0,B|171:131|139:147|139:155|107:171|75:151,1,132.5,8|0,3:2|0:0,0:0:0:0:
104,84,102893,1,0,0:0:0:0:
120,12,103007,1,0,3:0:0:0:
192,12,103120,2,0,B|256:-4|256:-4|320:12,2,132.5,2|2|2,0:0|0:0|0:0,0:0:0:0:
176,84,103689,5,0,0:0:0:0:
104,84,103802,1,0,0:0:0:0:
32,84,103916,2,0,P|56:140|122:154,1,132.5,0|0,3:0|0:0,0:0:0:0:
196,156,104257,1,0,0:0:0:0:
268,176,104370,2,0,B|244:228|196:228|196:228|148:228,1,132.5,8|0,3:2|0:0,0:0:0:0:
84,228,104711,1,0,0:0:0:0:
56,296,104825,1,0,3:0:0:0:
200,296,105052,1,0,0:0:0:0:
256,164,105280,1,8,3:2:0:0:
256,164,105393,1,2,0:0:0:0:
408,84,105620,5,0,0:0:0:0:
480,84,105734,2,0,P|456:140|390:154,1,132.5,0|0,3:0|0:0,0:0:0:0:
316,156,106075,1,0,0:0:0:0:
244,176,106188,2,0,B|268:228|316:228|316:228|364:228,1,132.5,8|0,3:2|0:0,0:0:0:0:
428,228,106529,1,0,0:0:0:0:
456,296,106643,1,0,3:0:0:0:
312,296,106870,1,0,0:0:0:0:
256,164,107098,1,8,3:2:0:0:
184,164,107211,1,0,0:0:0:0:
220,100,107326,1,0,0:0:0:0:
292,100,107439,1,0,0:0:0:0:
328,164,107552,6,0,L|328:300,1,132.5,0|0,3:0|0:0,0:0:0:0:
256,316,107893,1,0,0:0:0:0:
184,296,108007,2,0,L|184:160,1,132.5,8|0,3:2|0:0,0:0:0:0:
184,92,108348,1,0,0:0:0:0:
192,20,108461,2,0,P|256:4|320:20,3,132.5,0|0|8|0,3:0|0:0|3:2|3:0,0:0:0:0:
468,40,109370,5,4,3:0:0:0:
256,312,109824,1,2,3:1:0:0:
44,40,110279,5,4,3:0:0:0:
256,312,110733,1,2,3:1:0:0:
44,344,111189,5,4,3:0:0:0:
124,192,111416,1,2,3:1:0:0:
212,344,111643,5,4,3:0:0:0:
292,192,111870,1,2,3:1:0:0:
468,344,112098,5,4,3:0:0:0:
388,192,112325,1,2,3:1:0:0:
300,344,112552,5,4,3:0:0:0:
220,192,112779,1,2,3:1:0:0:
384,116,113007,5,2,3:1:0:0:
128,116,113234,1,2,3:1:0:0:
384,192,113462,5,2,3:1:0:0:
128,192,113689,1,2,3:1:0:0:
384,268,113916,5,2,3:1:0:0:
128,268,114143,1,2,3:1:0:0:
384,192,114371,5,2,3:1:0:0:
128,192,114598,1,2,3:1:0:0:
360,124,114825,5,2,3:1:0:0:
328,56,114939,1,2,3:1:0:0:
256,36,115052,1,2,3:1:0:0:
184,56,115166,1,2,3:1:0:0:
152,124,115280,5,2,3:1:0:0:
184,192,115394,1,2,3:1:0:0:
256,212,115507,1,2,3:1:0:0:
328,192,115621,1,2,3:1:0:0:
400,192,115734,6,2,B|400:236|400:236|400:308|256:392|112:308|112:236|112:236|112:192,1,463.75,2|2,3:1|3:1,3:1:0:0:
55,145,116643,6,0,P|113:118|171:145,1,132.5,4|2,3:2|0:0,0:0:0:0:
256,264,117098,1,8,0:1:0:0:
112,264,117325,1,0,0:0:0:0:
54,312,117439,2,0,P|112:339|170:312,1,132.5,2|2,0:0|0:0,0:0:0:0:
256,192,117893,1,2,0:0:0:0:
198,147,118007,2,0,P|256:120|314:147,1,132.5,8|2,0:1|0:0,0:0:0:0:
400,264,118462,5,0,3:0:0:0:
256,264,118689,1,2,0:0:0:0:
112,264,118916,1,8,0:1:0:0:
184,136,119143,1,0,0:0:0:0:
164,64,119257,2,0,B|112:88|112:136|112:136|112:184,1,132.5,2|2,0:0|0:0,0:0:0:0:
112,312,119712,1,2,0:0:0:0:
92,384,119825,2,0,B|40:360|40:312|40:312|40:264,1,132.5,8|0,0:1|0:0,0:0:0:0:
40,128,120280,5,0,3:0:0:0:
172,192,120507,1,2,0:0:0:0:
304,128,120734,1,8,0:1:0:0:
436,192,120961,1,2,0:0:0:0:
444,264,121075,2,0,L|312:279,1,132.5,2|2,0:0|0:0,0:0:0:0:
320,352,121416,2,0,L|452:337,1,132.5,0|8,0:0|0:1,0:0:0:0:
436,192,121871,1,2,0:0:0:0:
328,96,122098,5,0,3:0:0:0:
184,96,122325,1,0,3:0:0:0:
164,240,122552,2,0,B|208:280|256:244|256:236|304:200|348:240,1,198.75,8|2,0:1|0:0,0:0:0:0:
208,176,123121,1,2,0:0:0:0:
308,304,123348,1,2,0:0:0:0:
308,304,123462,1,8,0:1:0:0:
452,304,123689,1,0,3:3:0:0:
457,145,123916,6,0,P|399:118|341:145,1,132.5,0|2,3:0|0:0,0:0:0:0:
256,264,124371,1,8,0:1:0:0:
400,264,124598,1,0,0:0:0:0:
458,312,124712,2,0,P|400:339|342:312,1,132.5,2|2,0:0|0:0,0:0:0:0:
256,192,125166,1,2,0:0:0:0:
314,147,125280,2,0,P|256:120|198:147,1,132.5,8|2,0:1|0:0,0:0:0:0:
112,264,125734,5,0,3:0:0:0:
256,264,125961,1,2,0:0:0:0:
400,264,126188,1,8,0:1:0:0:
328,136,126415,1,0,0:0:0:0:
348,64,126529,2,0,B|400:88|400:136|400:136|400:184,1,132.5,2|2,0:0|0:0,0:0:0:0:
400,312,126984,1,2,0:0:0:0:
420,384,127097,2,0,B|472:360|472:312|472:312|472:264,1,132.5,8|0,0:1|3:0,0:0:0:0:
472,128,127552,5,0,3:0:0:0:
340,192,127779,1,2,0:0:0:0:
208,128,128006,1,8,0:1:0:0:
76,192,128233,1,2,0:0:0:0:
68,264,128347,2,0,L|200:279,1,132.5,2|2,0:0|0:0,0:0:0:0:
60,337,128802,1,2,0:0:0:0:
60,337,128916,2,0,L|192:352,1,132.5,8|0,0:1|0:0,0:0:0:0:
184,208,129370,5,0,3:0:0:0:
328,208,129597,1,0,3:0:0:0:
348,68,129824,2,2,B|304:28|256:64|256:72|208:108|164:68,1,198.75,8|2,0:1|0:0,0:0:0:0:
304,132,130393,1,2,0:0:0:0:
204,4,130620,1,2,0:0:0:0:
204,4,130734,1,8,3:1:0:0:
48,4,130961,1,0,3:0:0:0:
120,152,131189,6,0,B|150:171|182:155|182:147|214:131|246:151,1,132.5,4|2,3:2|0:0,0:0:0:0:
216,216,131530,1,0,0:0:0:0:
188,284,131643,2,0,B|218:303|250:287|250:279|282:263|314:283,1,132.5,8|0,0:1|0:0,0:0:0:0:
336,356,131984,2,0,B|388:332|388:284|388:284|388:245,1,132.5,2|2,0:0|0:0,0:0:0:0:
388,172,132325,1,0,0:0:0:0:
388,100,132439,1,0,0:0:0:0:
446,55,132553,2,0,P|388:28|330:55,1,132.5,8|0,0:1|0:0,0:0:0:0:
172,172,133007,5,0,3:0:0:0:
220,228,133121,1,2,0:0:0:0:
292,228,133234,1,2,0:0:0:0:
340,172,133348,1,2,0:0:0:0:
360,100,133461,2,0,B|412:124|412:172|412:172|412:220,1,132.5,8|0,0:1|0:0,0:0:0:0:
412,284,133803,1,2,0:0:0:0:
268,284,134030,1,2,0:0:0:0:
124,284,134257,1,0,0:0:0:0:
108,356,134371,2,0,B|240:356,1,132.5,8|0,0:1|3:0,0:0:0:0:
227,167,134825,5,0,3:0:0:0:
155,167,134939,1,2,0:0:0:0:
119,231,135052,1,2,0:0:0:0:
191,231,135166,1,2,0:0:0:0:
264,230,135280,2,0,P|301:177|280:116,1,132.5,8|0,0:1|0:0,0:0:0:0:
215,87,135620,2,0,P|151:96|120:153,2,132.5,2|2|2,0:0|0:0|0:0,0:0:0:0:
195,159,136189,2,0,P|165:212|98:220,1,132.5,8|0,0:1|3:0,0:0:0:0:
120,60,136643,5,2,3:1:0:0:
392,60,136871,1,2,0:0:0:0:
120,151,137098,5,10,0:1:0:0:
392,151,137326,1,2,0:0:0:0:
336,104,137439,5,2,0:1:0:0:
256,280,137666,1,2,0:1:0:0:
176,104,137893,1,2,0:1:0:0:
120,151,138007,5,8,3:1:0:0:
256,280,138234,1,0,3:0:0:0:
392,152,138461,6,0,B|362:171|330:155|330:147|298:131|266:151,1,132.5,4|2,3:2|0:0,0:0:0:0:
296,216,138802,1,0,0:0:0:0:
324,284,138915,2,0,B|294:303|262:287|262:279|230:263|198:283,1,132.5,8|0,0:1|0:0,0:0:0:0:
176,356,139256,2,0,B|124:332|124:284|124:284|124:245,1,132.5,2|2,0:0|0:0,0:0:0:0:
124,172,139597,1,0,0:0:0:0:
124,100,139711,1,0,0:0:0:0:
66,55,139825,2,0,P|124:28|182:55,1,132.5,8|0,0:1|0:0,0:0:0:0:
340,172,140280,5,0,3:0:0:0:
292,228,140394,1,2,0:0:0:0:
220,228,140507,1,2,0:0:0:0:
172,172,140621,1,2,0:0:0:0:
152,100,140734,2,0,B|100:124|100:172|100:172|100:220,1,132.5,8|0,0:1|0:0,0:0:0:0:
100,284,141076,1,2,0:0:0:0:
244,284,141303,1,2,0:0:0:0:
388,284,141530,1,0,0:0:0:0:
404,356,141644,2,0,B|272:356,1,132.5,8|0,0:1|3:0,0:0:0:0:
285,167,142098,5,0,3:0:0:0:
357,167,142212,1,2,0:0:0:0:
393,231,142325,1,2,0:0:0:0:
321,231,142439,1,2,0:0:0:0:
248,230,142553,2,0,P|211:177|232:116,1,132.5,8|0,0:1|0:0,0:0:0:0:
297,87,142893,2,0,P|360:96|391:153,2,132.5,2|2|2,0:0|0:0|0:0,0:0:0:0:
317,159,143462,2,0,P|347:212|414:220,1,132.5,8|0,0:1|3:0,0:0:0:0:
392,60,143916,5,2,3:1:0:0:
120,60,144144,1,2,0:0:0:0:
392,151,144371,5,10,0:1:0:0:
120,151,144599,1,2,0:0:0:0:
176,104,144712,5,2,0:1:0:0:
256,280,144939,1,2,0:1:0:0:
336,104,145166,1,2,0:1:0:0:
392,151,145280,5,8,3:1:0:0:
256,280,145507,1,0,3:0:0:0:
256,44,145734,5,6,3:1:0:0:
112,112,158461,5,4,3:2:0:0:
400,112,158916,1,4,3:2:0:0:
256,364,159370,5,4,3:2:0:0:
208,280,159522,5,4,3:2:0:0:
304,280,159673,5,4,3:2:0:0:
256,364,159825,5,4,3:2:0:0:
160,168,160166,5,2,0:0:0:0:
88,168,160280,2,0,P|116:112|184:100,1,132.5,0|0,3:1|0:0,0:0:0:0:
252,112,160620,1,0,0:0:0:0:
324,112,160734,2,0,P|296:56|228:44,1,132.5,8|0,3:2|0:0,0:0:0:0:
160,24,161075,1,0,0:0:0:0:
88,24,161189,1,0,3:0:0:0:
16,24,161302,2,0,P|44:80|112:92,2,132.5,2|2|2,0:0|0:0|0:0,0:0:0:0:
88,24,161870,5,0,0:0:0:0:
160,24,161984,1,0,0:0:0:0:
232,24,162098,2,0,B|272:24|272:24|328:24|344:72,1,132.5,0|0,3:0|0:0,0:0:0:0:
380,136,162439,1,0,0:0:0:0:
308,136,162552,2,0,B|268:136|268:136|212:136|196:184,1,132.5,8|0,3:2|0:0,0:0:0:0:
160,248,162893,1,0,0:0:0:0:
232,248,163007,1,0,3:0:0:0:
124,344,163234,1,0,0:0:0:0:
196,344,163348,1,0,0:0:0:0:
268,344,163461,1,8,3:2:0:0:
416,344,163689,1,0,0:0:0:0:
432,200,163916,6,0,P|372:176|312:200,1,132.5,0|0,3:1|0:0,0:0:0:0:
256,248,164257,1,0,0:0:0:0:
200,200,164370,2,0,P|140:176|80:200,1,132.5,8|0,3:2|0:0,0:0:0:0:
24,248,164711,1,0,0:0:0:0:
80,296,164825,2,0,P|140:320|200:296,1,132.5,0|0,3:0|0:0,0:0:0:0:
256,248,165166,1,0,0:0:0:0:
311,295,165280,1,8,3:2:0:0:
372,340,165393,1,0,0:0:0:0:
432,296,165507,1,0,0:0:0:0:
488,248,165620,1,0,0:0:0:0:
488,176,165734,6,0,L|352:176,1,132.5,0|0,3:0|0:0,0:0:0:0:
332,108,166075,1,0,0:0:0:0:
316,36,166189,2,0,P|256:12|196:36,1,132.5,8|0,3:2|0:0,0:0:0:0:
180,108,166530,1,0,0:0:0:0:
157,176,166643,1,0,3:2:0:0:
84,176,166757,1,0,0:0:0:0:
12,176,166870,1,0,0:0:0:0:
48,240,166984,1,0,0:0:0:0:
120,240,167098,1,8,3:2:0:0:
280,168,167325,5,0,0:0:0:0:
352,168,167439,1,0,0:0:0:0:
424,168,167553,2,0,P|396:112|328:100,1,132.5,0|0,3:1|0:0,0:0:0:0:
260,112,167893,1,0,0:0:0:0:
188,112,168007,2,0,P|216:56|284:44,1,132.5,8|0,3:2|0:0,0:0:0:0:
352,24,168348,1,0,0:0:0:0:
424,24,168462,1,0,3:0:0:0:
496,24,168575,2,0,P|468:80|400:92,2,132.5,2|2|2,0:0|0:0|0:0,0:0:0:0:
424,24,169143,5,0,0:0:0:0:
352,24,169257,1,0,0:0:0:0:
280,24,169371,2,0,B|240:24|240:24|184:24|168:72,1,132.5,0|0,3:0|0:0,0:0:0:0:
132,136,169712,1,0,0:0:0:0:
204,136,169825,2,0,B|244:136|244:136|300:136|316:184,1,132.5,8|0,3:2|0:0,0:0:0:0:
352,248,170166,1,0,0:0:0:0:
280,248,170280,1,0,3:0:0:0:
316,312,170393,1,2,0:0:0:0:
168,312,170621,1,2,0:0:0:0:
24,312,170848,1,2,0:0:0:0:
24,312,170961,1,0,3:0:0:0:
80,200,171189,6,0,P|140:176|200:200,1,132.5,0|0,3:1|0:0,0:0:0:0:
256,248,171530,1,0,0:0:0:0:
312,200,171643,2,0,P|372:176|432:200,1,132.5,8|0,3:2|0:0,0:0:0:0:
488,248,171984,1,0,0:0:0:0:
432,296,172098,1,0,3:0:0:0:
376,248,172211,1,2,0:0:0:0:
256,328,172439,1,2,0:0:0:0:
136,248,172666,1,2,0:0:0:0:
80,296,172780,1,0,0:0:0:0:
24,248,172893,1,0,0:0:0:0:
24,176,173007,6,0,L|160:176,1,132.5,0|0,3:0|0:0,0:0:0:0:
180,108,173348,1,0,0:0:0:0:
196,36,173462,2,0,P|256:12|316:36,1,132.5,8|0,3:2|0:0,0:0:0:0:
332,108,173803,1,0,0:0:0:0:
355,176,173916,1,0,3:0:0:0:
428,176,174030,1,0,0:0:0:0:
500,176,174143,1,0,0:0:0:0:
464,240,174257,1,0,0:0:0:0:
392,240,174371,1,8,3:2:0:0:
355,176,174484,1,0,0:0:0:0:
392,112,174598,1,0,3:0:0:0:
464,112,174711,1,0,0:0:0:0:
428,48,174825,6,0,B|412:0|356:0|356:0|316:0,1,132.5,0|0,3:0|0:0,0:0:0:0:
256,40,175166,1,0,0:0:0:0:
196,0,175280,2,0,B|156:0|156:0|100:0|84:48,1,132.5,8|0,3:2|0:0,0:0:0:0:
60,116,175620,1,0,0:0:0:0:
84,184,175734,1,0,3:0:0:0:
108,252,175848,1,2,0:0:0:0:
256,252,176075,1,2,0:0:0:0:
404,252,176302,1,2,0:0:0:0:
404,252,176416,1,0,0:0:0:0:
322,372,176643,6,0,L|182:372,1,132.5,0|0,3:0|0:0,0:0:0:0:
160,304,176984,1,0,0:0:0:0:
132,236,177098,2,0,B|76:236|76:236|32:236|16:196,1,132.5,8|0,3:2|0:0,0:0:0:0:
0,124,177439,1,0,0:0:0:0:
72,124,177552,2,0,L|208:124,1,132.5,0|0,3:0|0:0,0:0:0:0:
256,72,177893,1,0,0:0:0:0:
308,124,178007,1,8,3:2:0:0:
256,272,178234,5,0,3:2:0:0:
189,301,178348,1,0,0:0:0:0:
190,372,178461,2,0,L|330:372,1,132.5,0|0,3:0|0:0,0:0:0:0:
352,304,178802,1,0,0:0:0:0:
380,236,178916,2,0,B|436:236|436:236|480:236|496:196,1,132.5,8|0,3:2|0:0,0:0:0:0:
512,124,179257,1,0,0:0:0:0:
440,124,179370,2,0,L|304:124,1,132.5,0|0,3:0|0:0,0:0:0:0:
256,72,179711,1,0,0:0:0:0:
205,124,179825,1,8,3:2:0:0:
256,272,180052,5,0,0:0:0:0:
323,301,180166,1,0,0:0:0:0:
388,272,180280,1,0,3:0:0:0:
388,200,180393,1,0,0:0:0:0:
321,171,180507,1,0,0:0:0:0:
256,200,180621,1,0,0:0:0:0:
256,272,180734,1,8,3:2:0:0:
256,128,180961,1,0,0:0:0:0:
189,157,181075,1,0,0:0:0:0:
124,128,181189,1,0,3:0:0:0:
124,56,181302,1,0,0:0:0:0:
191,27,181416,1,0,0:0:0:0:
256,56,181530,1,0,0:0:0:0:
256,128,181643,2,0,L|256:280,1,132.5,8|0,3:2|3:0,0:0:0:0:
388,324,182098,5,4,3:0:0:0:
388,60,182552,1,2,3:1:0:0:
124,324,183007,5,4,3:0:0:0:
124,60,183461,1,2,3:1:0:0:
348,192,183916,5,4,3:0:0:0:
164,192,184143,1,2,3:1:0:0:
321,257,184370,5,4,3:0:0:0:
190,126,184597,1,2,3:1:0:0:
256,284,184825,5,4,3:0:0:0:
256,100,185052,1,2,3:1:0:0:
190,257,185279,5,4,3:0:0:0:
321,126,185506,1,2,3:1:0:0:
136,192,185734,5,2,3:1:0:0:
256,72,185961,1,2,3:1:0:0:
376,192,186189,5,2,3:1:0:0:
256,312,186416,1,2,3:1:0:0:
171,107,186643,5,2,3:1:0:0:
340,107,186870,1,2,3:1:0:0:
340,276,187098,5,2,3:1:0:0:
171,276,187325,1,2,3:1:0:0:
376,192,187552,5,2,3:1:0:0:
392,264,187666,1,2,3:1:0:0:
356,328,187780,1,2,3:1:0:0:
292,364,187893,1,2,3:1:0:0:
220,364,188007,5,2,3:1:0:0:
156,328,188121,1,2,3:1:0:0:
120,264,188235,1,2,3:1:0:0:
136,192,188348,1,2,3:1:0:0:
128,116,188461,6,2,B|84:64|120:8|184:8|184:8|256:8|328:8|328:8|392:8|428:64|384:116,1,463.75,2|2,3:1|3:1,3:1:0:0:
314,144,189370,6,0,P|256:171|198:144,1,132.5,4|2,3:2|0:0,0:0:0:0:
316,56,189825,1,8,0:1:0:0:
432,144,190052,1,0,0:0:0:0:
496,180,190166,2,0,B|476:220|436:220|436:220|380:220,1,132.5,2|2,0:0|0:0,0:0:0:0:
236,220,190620,1,2,0:0:0:0:
172,184,190734,2,0,B|192:144|232:144|232:144|288:144,1,132.5,8|2,0:1|0:0,0:0:0:0:
432,144,191189,5,0,3:0:0:0:
504,272,191416,1,2,0:0:0:0:
360,272,191643,1,8,0:1:0:0:
484,200,191870,1,0,0:0:0:0:
504,128,191984,2,0,P|462:79|398:79,1,132.5,2|2,0:0|0:0,0:0:0:0:
256,116,192439,1,2,0:0:0:0:
328,100,192552,2,0,P|286:51|222:51,1,132.5,8|0,0:1|3:0,0:0:0:0:
172,188,193007,5,0,3:0:0:0:
28,192,193234,1,2,0:0:0:0:
104,68,193461,1,8,0:1:0:0:
100,212,193688,1,2,0:0:0:0:
100,140,193802,1,2,0:0:0:0:
228,68,194030,1,2,0:0:0:0:
228,140,194143,1,0,0:0:0:0:
356,212,194370,1,8,0:1:0:0:
356,64,194598,1,2,0:0:0:0:
480,140,194825,5,0,3:0:0:0:
336,140,195052,1,0,3:0:0:0:
336,284,195279,2,2,P|408:341|480:284,1,198.75,8|2,0:1|0:0,0:0:0:0:
408,156,195848,1,2,0:0:0:0:
340,288,196075,1,2,0:0:0:0:
340,288,196189,1,8,0:1:0:0:
172,288,196416,1,0,3:3:0:0:
198,144,196643,6,0,P|256:171|314:144,1,132.5,0|2,3:0|0:0,0:0:0:0:
196,56,197098,1,8,0:1:0:0:
80,144,197325,1,0,0:0:0:0:
16,180,197439,2,0,B|36:220|76:220|76:220|132:220,1,132.5,2|2,0:0|0:0,0:0:0:0:
276,220,197893,1,2,0:0:0:0:
340,184,198007,2,0,B|320:144|280:144|280:144|224:144,1,132.5,8|2,0:1|0:0,0:0:0:0:
80,144,198461,5,0,3:0:0:0:
8,272,198688,1,2,0:0:0:0:
152,272,198915,1,8,0:1:0:0:
28,200,199142,1,0,0:0:0:0:
8,128,199256,2,0,P|50:79|114:79,1,132.5,2|2,0:0|0:0,0:0:0:0:
256,116,199711,1,2,0:0:0:0:
184,100,199824,2,0,P|226:51|290:51,1,132.5,8|0,0:1|3:0,0:0:0:0:
340,188,200279,5,0,3:0:0:0:
484,192,200506,1,2,0:0:0:0:
408,68,200733,1,8,0:1:0:0:
412,212,200960,1,2,0:0:0:0:
412,140,201074,1,2,0:0:0:0:
284,68,201302,1,2,0:0:0:0:
156,140,201530,1,2,0:0:0:0:
156,212,201642,1,8,0:1:0:0:
156,64,201870,1,0,0:0:0:0:
32,140,202097,5,0,3:0:0:0:
176,140,202324,1,0,3:0:0:0:
176,284,202551,2,2,P|104:341|32:284,1,198.75,8|2,0:1|0:0,0:0:0:0:
104,156,203120,1,2,0:0:0:0:
180,288,203347,1,2,0:0:0:0:
180,288,203461,1,8,3:1:0:0:
332,288,203689,1,0,3:0:0:0:
420,96,203916,6,0,P|476:108|508:180,1,132.5,4|2,3:2|0:0,0:0:0:0:
436,168,204257,1,0,0:0:0:0:
364,165,204370,2,0,P|391:223|453:239,1,132.5,8|0,0:1|0:0,0:0:0:0:
436,168,204711,2,0,P|409:110|347:94,1,132.5,2|2,0:0|0:0,0:0:0:0:
292,48,205052,1,0,0:0:0:0:
220,48,205166,1,0,0:0:0:0:
166,94,205280,2,0,P|104:109|77:167,1,132.5,8|0,0:1|0:0,0:0:0:0:
220,296,205734,5,0,3:0:0:0:
184,360,205848,1,2,0:0:0:0:
112,360,205961,1,2,0:0:0:0:
76,296,206075,1,2,0:0:0:0:
148,296,206189,2,0,P|164:252|244:228,1,132.5,8|0,0:1|0:0,0:0:0:0:
308,256,206530,1,2,0:0:0:0:
452,256,206757,1,2,0:0:0:0:
380,128,206984,1,0,0:0:0:0:
308,108,207098,2,0,B|332:56|380:56|380:56|428:56,1,132.5,8|0,0:1|3:0,0:0:0:0:
380,236,207552,5,0,3:0:0:0:
308,236,207666,1,2,0:0:0:0:
256,288,207779,1,2,0:0:0:0:
184,288,207893,1,2,0:0:0:0:
132,340,208007,2,0,L|0:340,1,132.5,8|0,0:1|0:0,0:0:0:0:
0,268,208348,2,0,L|152:268,2,132.5,2|2|0,0:0|0:0|0:0,0:0:0:0:
0,196,208916,2,0,L|132:196,1,132.5,8|0,0:1|3:0,0:0:0:0:
128,32,209370,5,2,3:1:0:0:
384,32,209598,1,2,0:0:0:0:
92,96,209825,5,10,0:1:0:0:
420,96,210053,1,2,0:0:0:0:
384,160,210166,5,2,0:1:0:0:
256,268,210393,1,2,0:1:0:0:
128,160,210620,1,2,0:1:0:0:
164,96,210734,5,8,3:1:0:0:
348,96,210961,1,0,3:0:0:0:
92,96,211189,6,0,P|36:108|4:180,1,132.5,4|2,3:2|0:0,0:0:0:0:
76,168,211530,1,0,0:0:0:0:
148,165,211643,2,0,P|121:223|59:239,1,132.5,8|0,0:1|0:0,0:0:0:0:
76,168,211984,2,0,P|103:110|165:94,1,132.5,2|2,0:0|0:0,0:0:0:0:
220,48,212325,1,0,0:0:0:0:
292,48,212439,1,0,0:0:0:0:
347,94,212553,2,0,P|410:109|437:167,1,132.5,8|0,0:1|0:0,0:0:0:0:
292,296,213007,5,0,3:0:0:0:
328,360,213121,1,2,0:0:0:0:
400,360,213234,1,2,0:0:0:0:
436,296,213348,1,2,0:0:0:0:
364,296,213462,2,0,P|348:252|268:228,1,132.5,8|0,0:1|0:0,0:0:0:0:
204,256,213803,1,2,0:0:0:0:
60,256,214030,1,2,0:0:0:0:
132,128,214257,1,0,0:0:0:0:
204,108,214371,2,0,B|180:56|132:56|132:56|84:56,1,132.5,8|0,0:1|3:0,0:0:0:0:
132,236,214825,5,0,3:0:0:0:
204,236,214939,1,2,0:0:0:0:
256,288,215052,1,2,0:0:0:0:
328,288,215166,1,2,0:0:0:0:
380,340,215280,2,0,L|512:340,1,132.5,8|0,0:1|0:0,0:0:0:0:
512,268,215621,2,0,L|360:268,2,132.5,2|2|2,0:0|0:0|0:0,0:0:0:0:
512,196,216189,2,0,L|380:196,1,132.5,8|0,0:1|3:0,0:0:0:0:
384,32,216643,5,2,3:1:0:0:
128,32,216871,1,2,0:0:0:0:
420,96,217098,5,10,0:1:0:0:
92,96,217326,1,2,0:0:0:0:
128,160,217439,5,2,0:1:0:0:
256,268,217666,1,2,0:1:0:0:
384,160,217893,1,2,0:1:0:0:
348,96,218007,5,8,3:1:0:0:
164,96,218234,1,0,3:0:0:0:
256,268,218461,5,4,1:2:0:0:
360,372,218689,1,0,0:0:0:0:
396,308,218802,1,0,0:0:0:0:
432,244,218916,2,0,L|500:124,1,132.5,2|0,0:0|0:0,0:0:0:0:
436,92,219257,2,0,L|368:212,2,132.5,2|2|2,0:0|0:0|0:3,0:0:0:0:
376,48,219825,2,0,P|316:24|256:48,1,132.5,2|2,0:3|0:3,0:0:0:0:
192,232,220280,6,0,L|192:100,1,132.5,2|0,1:3|0:0,0:0:0:0:
320,100,220734,2,0,L|320:232,1,132.5,2|0,0:0|0:0,0:0:0:0:
320,304,221075,2,0,P|256:320|192:304,1,132.5,2|2,0:0|0:0,0:0:0:0:
184,160,221530,1,2,0:3:0:0:
184,160,221643,1,2,0:3:0:0:
328,160,221870,1,2,0:3:0:0:
256,268,222098,5,2,1:3:0:0:
208,324,222211,1,0,0:0:0:0:
152,372,222325,1,0,0:0:0:0:
116,308,222438,1,0,0:0:0:0:
80,244,222552,2,0,L|12:124,1,132.5,2|0,0:0|0:0,0:0:0:0:
76,92,222893,2,0,L|144:212,2,132.5,2|2|2,0:0|0:0|0:3,0:0:0:0:
136,48,223461,2,0,P|196:24|256:48,1,132.5,2|2,0:3|0:3,0:0:0:0:
384,120,223916,5,8,0:3:0:0:
384,192,224030,1,2,0:3:0:0:
384,264,224143,1,2,0:3:0:0:
312,264,224257,5,8,0:3:0:0:
256,220,224370,1,2,0:3:0:0:
200,264,224484,1,2,0:3:0:0:
128,264,224598,5,8,0:3:0:0:
128,192,224712,1,2,0:3:0:0:
128,120,224825,1,2,0:3:0:0:
200,120,224939,5,8,0:3:0:0:
256,164,225052,1,2,0:3:0:0:
312,120,225166,1,2,0:3:0:0:
348,56,225280,5,8,0:3:0:0:
292,8,225393,1,2,0:3:0:0:
220,8,225507,1,8,0:3:0:0:
164,56,225620,1,8,0:3:0:0:
128,120,225734,6,0,P|128:180|184:220,1,132.5,4|0,3:2|0:0,0:0:0:0:
256,208,226075,1,0,0:0:0:0:
329,197,226189,2,0,P|382:233|384:296,1,132.5,8|0,3:1|0:0,0:0:0:0:
316,268,226529,2,0,B|256:296|256:296|196:268,2,132.5,2|2|0,0:0|0:0|0:0,0:0:0:0:
384,296,227098,2,0,L|424:164,1,132.5,8|0,3:1|0:0,0:0:0:0:
90,169,227552,6,0,L|128:296,1,132.5,0|0,3:0|0:0,0:0:0:0:
152,364,227893,1,0,0:0:0:0:
200,308,228007,2,0,P|256:276|312:308,1,132.5,8|0,3:1|0:0,0:0:0:0:
256,352,228348,1,2,0:0:0:0:
256,204,228575,1,2,0:0:0:0:
352,100,228802,1,2,0:0:0:0:
352,100,228916,1,8,3:1:0:0:
452,204,229143,1,0,0:0:0:0:
352,312,229370,5,0,3:0:0:0:
304,256,229484,1,0,0:0:0:0:
256,312,229598,1,0,0:0:0:0:
208,256,229711,1,0,0:0:0:0:
160,312,229825,2,0,P|136:264|172:192,1,132.5,8|0,3:1|0:0,0:0:0:0:
112,148,230166,1,2,0:0:0:0:
256,120,230393,1,2,0:0:0:0:
400,148,230620,1,2,0:0:0:0:
346,196,230734,2,0,P|377:252|352:312,1,132.5,8|0,3:1|0:0,0:0:0:0:
112,272,231189,5,4,3:2:0:0:
400,272,231644,1,4,3:2:0:0:
256,20,232098,5,4,3:2:0:0:
208,104,232250,5,4,3:2:0:0:
304,104,232401,5,4,3:2:0:0:
256,20,232553,5,4,3:2:0:0:
256,192,233007,12,0,237552,0:0:0:0:
