osu file format v14

[General]
AudioFilename: audio.mp3
AudioLeadIn: 0
PreviewTime: 54273
Countdown: 0
SampleSet: Soft
StackLeniency: 0.7
Mode: 0
LetterboxInBreaks: 0
WidescreenStoryboard: 0

[Editor]
DistanceSpacing: 2.1
BeatDivisor: 4
GridSize: 4
TimelineZoom: 2.799999

[Metadata]
Title:Spider Dance (J-Rock Cover)
TitleUnicode:Spider Dance (J-Rock Cover)
Artist:Thai Mcgrath
ArtistUnicode:Thai Mcgrath
Creator:Massive Wee Wee
Version:Dine and Die~
Source:
Tags:undertale toby fox video game jrock japanese anime cover deltarune
BeatmapID:4572327
BeatmapSetID:2167209

[Difficulty]
HPDrainRate:5
CircleSize:3.5
OverallDifficulty:8
ApproachRate:9.3
SliderMultiplier:1.8
SliderTickRate:1

[Events]
//Background and Video events
0,0,"b30ff64fdd1a31c7f7fddfef17c746b6.jpg",0,0
//Break Periods
//Storyboard Layer 0 (Background)
//Storyboard Layer 1 (Fail)
//Storyboard Layer 2 (Pass)
//Storyboard Layer 3 (Foreground)
//Storyboard Layer 4 (Overlay)
//Storyboard Sound Samples

[TimingPoints]
5131,285.714285714286,4,2,1,60,1,0
9702,-125,4,2,1,60,0,0
14273,-200,4,2,1,60,0,0
19988,-125,4,2,1,60,0,0
24559,-200,4,2,1,60,0,0
29131,-1000,4,2,1,60,0,0
35988,-100,4,2,1,60,0,0
54273,-166.666666666667,4,2,1,60,0,0
63416,-125,4,2,1,60,0,0
64559,-100,4,2,1,60,0,0
65702,-125,4,2,1,60,0,0
67988,-200,4,2,1,60,0,0
68059,-200,4,2,1,30,0,0
68273,-200,4,2,1,60,0,0
68345,-200,4,2,1,30,0,0
68559,-200,4,2,1,60,0,0
68631,-200,4,2,1,30,0,0
68845,-200,4,2,1,60,0,0
68916,-200,4,2,1,30,0,0
69131,-200,4,2,1,60,0,0
69202,-200,4,2,1,30,0,0
69416,-200,4,2,1,60,0,0
69488,-200,4,2,1,30,0,0
69702,-200,4,2,1,60,0,0
69773,-200,4,2,1,30,0,0
69988,-200,4,2,1,60,0,0
72559,-500,4,2,1,60,0,0
79416,-100,4,2,1,60,0,0

[Colours]
Combo1 : 255,0,0
Combo2 : 128,0,255

[HitObjects]
263,20,5130,5,6,3:0:0:0:
257,36,5988,5,6,3:0:0:0:
187,163,6273,1,6,3:0:0:0:
168,184,7131,5,6,3:0:0:0:
250,224,7273,1,2,3:0:0:0:
344,267,7416,1,6,3:0:0:0:
361,279,7988,5,6,3:0:0:0:
453,121,8273,1,8,0:0:0:0:
439,37,8416,1,0,3:0:0:0:
363,0,8559,2,0,P|312:10|282:37,1,90,4|0,3:0|0:0,0:0:0:0:
183,6,8845,2,0,P|167:55|176:94,1,90,4|0,3:0|0:0,0:0:0:0:
81,155,9131,2,0,P|106:189|126:201,1,45,2|0,3:0|0:0,0:0:0:0:
400,283,9702,5,6,3:0:0:0:
302,248,9845,1,2,0:0:0:0:
299,165,9988,1,10,3:0:0:0:
316,165,10059,1,2,0:0:0:0:
330,165,10131,2,2,L|376:163,1,36
443,138,10273,6,2,P|449:98|428:51,1,72,2|2,3:0|0:0,0:0:0:0:
431,61,10488,1,2,0:0:0:0:
414,64,10559,2,2,P|370:56|328:44,1,72,10|2,3:0|0:0,0:0:0:0:
34,185,10845,5,2,3:0:0:0:
90,93,10988,1,2,0:0:0:0:
228,188,11131,1,10,3:0:0:0:
226,200,11202,1,2,0:0:0:0:
225,211,11273,2,2,P|217:254|214:268,1,36
168,313,11416,6,2,B|198:337|198:337|253:327,1,72,2|2,3:0|0:0,0:0:0:0:
400,283,11702,1,10,3:0:0:0:
304,132,11845,1,2,0:0:0:0:
306,272,11988,2,2,P|317:223|323:207,1,36,2|2,3:0|0:0,0:0:0:0:
431,193,12131,6,2,L|414:106,1,72,2|10,0:0|3:0,0:0:0:0:
285,15,12416,1,2,0:0:0:0:
169,96,12559,2,2,L|101:78,1,36,2|2,3:0|0:0,0:0:0:0:
86,201,12702,2,2,L|29:212,1,36
145,298,12845,5,10,3:0:0:0:
138,315,12916,1,2,0:0:0:0:
132,330,12988,2,2,L|84:331,1,36
216,211,13131,1,2,3:0:0:0:
327,354,13273,1,10,0:0:0:0:
423,247,13416,1,10,3:0:0:0:
254,301,13559,6,2,P|291:258|299:226,1,72,2|2,0:0|3:0,0:0:0:0:
308,230,13773,1,2,0:0:0:0:
300,201,13845,2,2,P|295:152|293:111,1,72,2|10,0:0|3:0,0:0:0:0:
395,50,14131,2,2,P|396:88|400:106,1,36,2|2,3:0|0:0,0:0:0:0:
454,141,14273,6,0,P|416:164|363:159,1,90,6|10,3:0|0:0,0:0:0:0:
504,220,14702,1,0,3:0:0:0:
411,308,14845,6,0,P|367:297|333:256,1,90,2|10,3:0|3:0,0:0:0:0:
326,98,15273,5,0,3:0:0:0:
310,77,15345,1,0,3:0:0:0:
286,70,15416,6,0,P|253:100|242:143,1,90,6|10,3:0|0:0,0:0:0:0:
192,41,15845,1,0,3:0:0:0:
122,203,15988,6,0,P|132:228|154:243,1,45,2|8,3:0|0:0,0:0:0:0:
251,323,16273,2,0,P|214:311|196:313,1,45,10|0,0:0|3:0,0:0:0:0:
115,322,16488,1,2,3:0:0:0:
90,366,16559,6,0,P|117:341|120:332,1,45,6|0,3:0|3:0,3:0:0:0:
35,179,16845,2,0,P|45:153|67:139,1,45,10|0,0:0|3:0,0:0:0:0:
164,59,17131,6,0,P|127:71|109:69,1,45,6|0,3:0|0:0,0:0:0:0:
3,16,17416,2,0,P|30:41|33:50,1,45,10|0,0:0|3:0,0:0:0:0:
219,160,17702,6,0,P|208:185|187:200,1,45,6|8,3:0|0:0,0:0:0:0:
85,291,17916,1,8,0:0:0:0:
90,280,17988,2,0,P|127:268|145:270,1,45,6|0,0:0|3:0,0:0:0:0:
148,279,18202,1,0,3:0:0:0:
156,289,18273,2,0,L|212:299,1,45,6|8,0:0|0:0,0:0:0:0:
252,354,18488,1,8,0:0:0:0:
273,335,18559,2,0,P|295:326|306:322,2,22.5,0|0|0,3:0|3:0|3:0,3:0:0:0:
297,246,18773,2,0,P|275:237|264:233,1,22.5,0|0,3:0|0:0,0:0:0:0:
0,90,19988,6,0,P|41:70|88:72,1,72,4|0,3:0|0:0,0:0:0:0:
128,178,20273,2,0,P|184:193|223:194,1,72,10|0,0:0|3:0,0:0:0:0:
340,70,20559,5,0,0:0:0:0:
454,160,20702,2,0,P|443:164|396:166,1,36,2|0,3:0|0:0,0:0:0:0:
394,267,20845,2,0,P|346:245|324:224,2,72,10|0|2,0:0|0:0|3:0,0:0:0:0:
448,382,21273,5,0,3:0:0:0:
273,352,21416,2,0,P|207:354|177:368,1,72,10|0,0:0|0:0,0:0:0:0:
32,300,21702,1,2,3:0:0:0:
200,240,21845,1,2,3:0:0:0:
65,211,21988,1,8,0:0:0:0:
203,273,22131,1,0,3:0:0:0:
363,354,22273,1,4,3:0:0:0:
331,232,22416,5,0,0:0:0:0:
415,159,22559,1,8,0:0:0:0:
505,201,22702,1,0,3:0:0:0:
259,172,22845,5,2,3:0:0:0:
346,91,22988,1,0,0:0:0:0:
278,0,23131,1,8,0:0:0:0:
182,23,23273,1,0,3:0:0:0:
442,75,23416,5,2,3:0:0:0:
415,159,23559,1,0,0:0:0:0:
428,277,23702,1,10,0:0:0:0:
508,368,23845,2,0,P|480:380|454:381,1,36,0|0,3:0|0:0,0:0:0:0:
373,372,23988,2,0,P|336:354|286:337,1,72,2|0,3:0|0:0,0:0:0:0:
84,244,24273,2,0,P|165:229|185:219,1,72,10|0,3:0|3:0,3:0:0:0:
346,37,24559,6,2,P|306:54|256:64,1,90,6|10,0:0|0:0,0:0:0:0:
309,254,25131,6,2,P|349:237|399:227,1,90,2|10,3:0|0:0,0:0:0:0:
135,148,25702,6,2,P|152:188|162:238,1,90,6|10,0:0|0:0,0:0:0:0:
383,174,26273,6,2,P|366:134|347:82,1,90,2|10,3:0|0:0,0:0:0:0:
348,1,26702,1,2,3:0:0:0:
333,0,26773,1,2,3:0:0:0:
322,5,26845,6,2,P|301:12|282:26,1,45,6|2,3:0|0:0,0:0:0:0:
184,45,27131,2,2,P|191:65|205:84,1,45,2|2,3:0|0:0,0:0:0:0:
173,287,27416,6,2,P|193:279|212:265,1,45,2|2,3:0|0:0,0:0:0:0:
311,247,27702,2,2,P|303:226|289:207,1,45,2|2,3:0|0:0,0:0:0:0:
512,122,27988,6,2,P|491:129|472:143,1,45,2|10,3:0|0:0,0:0:0:0:
374,162,28274,2,2,P|381:182|395:201,1,45,2|10,3:0|0:0,0:0:0:0:
505,273,28559,1,10,3:0:0:0:
497,304,29131,6,2,L|507:322,1,18,6|10,3:0|0:0,0:0:0:0:
491,346,29488,1,10,0:0:0:0:
489,340,29559,1,10,0:0:0:0:
15,80,29702,6,2,L|5:62,1,18,6|2,3:0|3:0,0:0:0:0:
21,38,30059,1,2,3:0:0:0:
23,44,30130,1,2,3:0:0:0:
497,80,30273,6,2,L|500:71,1,9,6|10,3:0|0:0,0:0:0:0:
277,182,30559,1,10,0:0:0:0:
15,304,30845,6,2,L|5:322,1,18,6|2,3:0|3:0,0:0:0:0:
21,346,31202,1,2,3:0:0:0:
23,340,31273,1,2,3:0:0:0:
9,71,31416,6,2,L|5:62,1,9,6|10,3:0|0:0,0:0:0:0:
21,38,31631,1,10,0:0:0:0:
23,44,31702,1,2,3:0:0:0:
27,48,31773,1,2,3:0:0:0:
29,55,31845,1,2,3:0:0:0:
158,217,31988,5,6,3:0:0:0:
116,223,32059,1,10,0:0:0:0:
132,190,32131,2,10,L|129:184,1,4.5
208,151,32273,1,10,0:0:0:0:
233,119,32345,1,10,0:0:0:0:
194,113,32416,2,2,L|189:110,2,4.5,2|2|6,3:0|3:0|3:0,3:0:0:0:
416,311,32702,5,10,0:0:0:0:
405,298,32773,1,10,0:0:0:0:
411,283,32845,1,2,3:0:0:0:
419,289,32916,1,2,3:0:0:0:
423,300,32988,1,2,3:0:0:0:
421,313,33059,1,2,3:0:0:0:
421,313,33131,2,2,L|411:319,2,9,6|10|10,0:0|0:0|0:0,0:0:0:0:
333,343,33559,1,8,0:0:0:0:
338,375,33702,2,0,L|348:381,1,9,4|0,3:0|0:0,0:0:0:0:
64,338,34559,5,4,3:0:0:0:
232,117,34845,1,4,3:0:0:0:
232,117,35702,5,8,0:0:0:0:
208,130,35988,6,2,P|171:104|176:34,1,90,2|2,3:0|0:0,0:0:0:0:
187,45,36202,1,2,0:0:0:0:
166,18,36273,2,2,P|120:31|73:42,1,90,10|2,3:0|0:0,0:0:0:0:
28,200,36559,6,2,P|41:242|53:286,1,90,2|2,3:0|0:0,0:0:0:0:
239,303,36773,1,2,0:0:0:0:
268,314,36845,2,2,P|256:270|242:227,1,90,10|2,3:0|0:0,0:0:0:0:
439,67,37131,6,2,P|386:79|329:98,1,90,2|2,3:0|0:0,0:0:0:0:
347,59,37345,1,2,0:0:0:0:
315,68,37416,2,2,P|304:113|316:143,1,45,10|2,3:0|0:0,0:0:0:0:
367,170,37559,2,2,P|419:169|460:139,2,90,2|2|2,0:0|3:0|0:0,0:0:0:0:
207,84,37988,1,10,3:0:0:0:
94,214,38131,5,2,0:0:0:0:
94,214,38202,1,2,0:0:0:0:
94,214,38273,2,2,B|146:219|146:219|185:169,1,90,2|2,3:0|0:0,0:0:0:0:
171,156,38488,1,2,0:0:0:0:
154,151,38559,2,2,L|147:216,1,45,10|2,3:0|0:0,0:0:0:0:
232,240,38702,6,2,P|251:187|231:130,1,90,2|2,0:0|3:0,0:0:0:0:
435,217,38988,1,2,0:0:0:0:
435,217,39059,1,2,0:0:0:0:
435,217,39131,2,2,P|395:239|346:234,1,90,10|2,3:0|0:0,0:0:0:0:
348,219,39345,1,2,0:0:0:0:
317,218,39416,2,2,P|328:268|336:321,1,90,2|2,3:0|0:0,0:0:0:0:
500,322,39702,1,10,3:0:0:0:
405,111,39845,2,2,L|328:95,1,45
290,51,39988,6,2,P|243:69|193:89,1,90,2|10,3:0|0:0,0:0:0:0:
0,202,40273,1,10,3:0:0:0:
161,0,40416,1,10,0:0:0:0:
189,237,40559,6,2,P|134:200|124:161,1,90,2|2,3:0|0:0,0:0:0:0:
206,83,40845,2,2,P|177:99|145:108,1,45,10|2,3:0|0:0,0:0:0:0:
87,79,40988,2,2,P|44:64|0:59,2,90,2|2|2,0:0|3:0|0:0,0:0:0:0:
361,38,41416,2,2,P|429:59|450:180,1,180,10|2,3:0|3:0,0:0:0:0:
444,168,41773,5,2,0:0:0:0:
430,186,41845,2,2,P|392:184|376:185,1,45
194,200,41988,1,10,3:0:0:0:
320,313,42131,2,2,P|276:327|233:336,1,90,2|2,0:0|3:0,0:0:0:0:
85,281,42416,2,2,P|34:273|-23:259,1,90,2|10,0:0|3:0,0:0:0:0:
0,241,42631,1,2,0:0:0:0:
26,242,42702,2,2,P|39:202|48:170,1,45
128,183,42845,6,2,P|116:134|102:67,1,90,2|2,3:0|0:0,0:0:0:0:
416,43,43131,2,2,P|390:50|368:53,1,45,10|2,3:0|0:0,0:0:0:0:
279,234,43273,1,2,0:0:0:0:
309,193,43345,1,2,0:0:0:0:
364,202,43416,1,2,3:0:0:0:
356,229,43488,1,2,0:0:0:0:
369,239,43559,2,2,P|421:225|443:225,3,45,2|2|10|2,0:0|0:0|3:0|0:0,0:0:0:0:
475,162,43845,2,2,P|500:176|518:189,1,45
496,308,43988,5,2,3:0:0:0:
460,301,44059,1,2,0:0:0:0:
447,321,44131,2,2,P|403:330|358:337,1,90,2|10,0:0|3:0,0:0:0:0:
295,381,44345,1,2,0:0:0:0:
295,381,44416,2,2,B|280:330|246:354|247:270,1,90,2|2,0:0|3:0,0:0:0:0:
372,52,44702,5,10,0:0:0:0:
190,159,44845,1,10,3:0:0:0:
0,259,44988,1,2,0:0:0:0:
102,0,45131,6,0,P|137:47|130:96,1,90,6|2,3:0|0:0,0:0:0:0:
97,289,45416,2,0,P|136:296|189:304,1,90,10|2,3:0|0:0,0:0:0:0:
376,147,45702,2,0,P|332:155|288:162,1,90,2|2,3:0|0:0,0:0:0:0:
252,368,45988,2,0,P|284:345|304:289,1,90,10|2,3:0|0:0,0:0:0:0:
436,60,46274,6,0,P|469:89|484:132,1,90,2|2,3:0|0:0,0:0:0:0:
376,147,46559,1,10,3:0:0:0:
233,90,46702,2,0,B|170:105|170:105|140:135|140:135|63:153,1,180,2|2,0:0|0:0,0:0:0:0:
159,3,47131,2,0,P|89:28|34:34,1,90,10|2,3:0|0:0,0:0:0:0:
251,203,47416,6,0,P|186:194|143:183,1,90,2|2,3:0|0:0,0:0:0:0:
80,345,47702,1,10,3:0:0:0:
89,348,47773,1,2,0:0:0:0:
100,349,47845,2,0,P|99:326|91:305,1,45,2|0,0:0|0:0,0:0:0:0:
26,261,47988,2,0,P|49:213|55:156,1,90,2|2,3:0|0:0,0:0:0:0:
107,18,48273,2,0,P|161:35|200:68,1,90,10|2,3:0|0:0,0:0:0:0:
450,38,48559,5,2,3:0:0:0:
441,44,48631,1,2,0:0:0:0:
436,53,48702,2,0,P|436:75|444:96,1,45,2|0,0:0|0:0,0:0:0:0:
375,123,48845,2,0,P|440:134|479:167,1,90,8|0,3:0|0:0,0:0:0:0:
470,324,49131,5,2,3:0:0:0:
272,384,49273,1,10,0:0:0:0:
184,198,49416,1,10,3:0:0:0:
298,73,49559,1,10,0:0:0:0:
460,147,49702,6,2,P|461:205|468:254,1,90,6|2,3:0|0:0,0:0:0:0:
213,119,49988,2,2,P|217:74|217:29,1,90,10|2,3:0|0:0,0:0:0:0:
95,361,50273,2,2,P|37:362|-12:369,1,90,2|2,3:0|0:0,0:0:0:0:
123,114,50559,2,2,P|167:118|212:118,1,90,10|2,3:0|0:0,0:0:0:0:
0,267,50845,5,2,3:0:0:0:
204,239,50988,1,2,0:0:0:0:
399,211,51131,1,10,3:0:0:0:
346,377,51273,6,0,P|337:347|323:308,1,45,2|0,0:0|0:0,0:0:0:0:
429,375,51416,2,0,P|412:333|400:289,1,90,2|2,3:0|0:0,0:0:0:0:
311,66,51702,5,10,3:0:0:0:
417,120,51845,1,2,0:0:0:0:
189,215,51988,1,2,3:0:0:0:
143,115,52131,1,2,3:0:0:0:
154,110,52202,1,0,3:0:0:0:
159,107,52273,1,10,3:0:0:0:
308,44,52416,1,2,3:0:0:0:
399,211,52559,6,0,P|386:271|373:327,1,90,2|10,3:0|0:0,0:0:0:0:
301,156,52845,1,10,3:0:0:0:
301,162,52916,1,0,3:0:0:0:
300,171,52988,2,0,P|287:231|283:255,1,45,2|0,3:0|3:0,3:0:0:0:
225,281,53131,2,0,P|178:288|131:263,1,90,2|10,3:0|0:0,0:0:0:0:
141,183,53345,5,0,0:0:0:0:
174,132,53416,1,0,3:0:0:0:
154,91,53488,1,0,0:0:0:0:
107,82,53559,1,2,3:0:0:0:
80,110,53631,1,0,3:0:0:0:
80,110,53702,2,0,P|80:89|196:49,1,135,2|0,3:0|0:0,0:0:0:0:
290,54,53988,6,0,L|247:45,1,45,10|0,0:0|0:0,0:0:0:0:
98,309,54273,6,0,L|44:318,1,53.9999983520508,4|2,3:0|0:0,0:0:0:0:
30,323,54488,1,2,0:0:0:0:
42,327,54559,2,0,L|114:336,1,53.9999983520508,8|2,0:0|0:0,0:0:0:0:
217,226,54845,5,2,0:0:0:0:
217,234,54916,1,2,0:0:0:0:
216,244,54988,1,2,3:0:0:0:
331,301,55131,2,0,P|258:321|216:335,1,107.999996704102,2|2,0:0|3:0,0:0:0:0:
216,343,55559,1,2,0:0:0:0:
248,369,55631,1,2,0:0:0:0:
248,369,55702,2,0,L|174:390,1,53.9999983520508,10|2,0:0|0:0,0:0:0:0:
388,243,55988,6,0,P|380:223|359:189,1,53.9999983520508,10|2,0:0|0:0,0:0:0:0:
508,289,56273,2,0,P|515:262|527:234,1,53.9999983520508,2|2,0:0|0:0,0:0:0:0:
476,109,56559,1,2,0:0:0:0:
321,23,56702,1,2,3:0:0:0:
362,11,56773,1,2,0:0:0:0:
405,0,56845,1,2,3:0:0:0:
377,103,56988,1,2,0:0:0:0:
224,120,57131,5,10,0:0:0:0:
236,167,57202,2,2,L|226:125,1,26.9999991760254,2|2,0:0|3:0,0:0:0:0:
109,80,57416,1,2,0:0:0:0:
39,195,57559,1,2,3:0:0:0:
143,314,57702,6,0,P|156:261|156:217,1,80.9999975280763,2|2,3:0|0:0,0:0:0:0:
138,229,57988,2,0,P|127:263|125:309,1,80.9999975280763,2|2,0:0|0:0,0:0:0:0:
143,314,58273,2,0,P|156:261|156:217,1,80.9999975280763,8|0,0:0|0:0,0:0:0:0:
145,154,58559,5,2,0:0:0:0:
166,158,58631,1,2,0:0:0:0:
207,118,58702,1,2,3:0:0:0:
195,62,58773,1,2,3:0:0:0:
116,0,58845,6,0,P|135:54|152:119,1,107.999996704102,6|2,0:0|3:0,0:0:0:0:
24,81,59273,1,2,0:0:0:0:
60,254,59416,5,10,0:0:0:0:
27,247,59488,1,2,0:0:0:0:
27,247,59559,2,0,L|38:194,1,53.9999983520508,2|2,3:0|0:0,0:0:0:0:
157,234,59845,1,2,3:0:0:0:
278,307,59988,6,0,P|260:247|256:235,1,53.9999983520508,2|2,3:0|0:0,0:0:0:0:
337,169,60202,1,2,0:0:0:0:
344,157,60273,2,0,P|351:182|359:208,1,53.9999983520508,2|2,0:0|0:0,0:0:0:0:
512,239,60559,2,0,P|504:213|496:187,1,53.9999983520508,10|2,0:0|0:0,0:0:0:0:
398,77,60845,2,0,P|331:64|302:75,1,80.9999975280763,2|0,0:0|0:0,0:0:0:0:
317,78,61131,2,0,P|249:95|243:96,1,53.9999983520508,10|2,0:0|3:0,0:0:0:0:
62,41,61416,6,0,P|114:43|154:67,1,80.9999975280763,2|0,3:0|0:0,0:0:0:0:
146,67,61702,1,10,0:0:0:0:
129,92,61773,1,2,0:0:0:0:
129,92,61845,2,0,P|130:154|133:163,1,53.9999983520508,2|2,3:0|0:0,0:0:0:0:
217,28,62131,1,2,3:0:0:0:
108,230,62273,6,0,P|173:217|216:172,2,107.999996704102,2|2|10,3:0|0:0|0:0,0:0:0:0:
259,268,62988,1,2,0:0:0:0:
362,123,63131,5,2,0:0:0:0:
363,157,63202,1,2,0:0:0:0:
364,203,63273,2,0,P|365:216|365:229,1,26.9999991760254,0|0,3:0|3:0,3:0:0:0:
494,310,63416,6,0,P|458:303|402:298,1,72,4|0,3:0|3:0,0:0:0:0:
253,364,63702,2,0,P|287:351|320:336,1,72,8|0,0:0|3:0,0:0:0:0:
136,240,63988,5,0,3:0:0:0:
114,220,64059,1,0,3:0:0:0:
88,204,64131,1,0,3:0:0:0:
201,112,64273,2,0,P|239:106|271:96,1,72,8|0,0:0|3:0,0:0:0:0:
494,215,64488,5,0,3:0:0:0:
473,232,64559,2,0,B|443:196|443:196|459:136,1,90,4|0,3:0|3:0,0:0:0:0:
413,15,64845,2,0,B|382:74|382:74|453:194,1,180,8|0,0:0|3:0,0:0:0:0:
512,64,65273,1,0,3:0:0:0:
325,148,65416,2,0,P|245:140|209:113,1,90,8|0,0:0|3:0,0:0:0:0:
222,57,65631,1,0,3:0:0:0:
202,33,65702,2,0,P|143:92|136:104,1,72,4|0,3:0|3:0,3:0:0:0:
69,243,65988,5,8,0:0:0:0:
145,214,66131,1,0,3:0:0:0:
95,333,66273,2,0,P|145:309|171:302,1,72,0|0,3:0|3:0,3:0:0:0:
430,169,66559,1,8,0:0:0:0:
357,77,66702,1,0,3:0:0:0:
278,230,66845,2,0,P|324:240|358:246,1,72,4|0,3:0|3:0,0:0:0:0:
512,267,67131,1,8,0:0:0:0:
450,352,67273,5,0,3:0:0:0:
430,169,67416,2,0,P|426:132|415:82,1,72,8|8,0:0|0:0,0:0:0:0:
254,14,67702,1,8,0:0:0:0:
449,4,67845,1,8,0:0:0:0:
135,163,67988,5,0,3:0:0:0:
185,157,68059,1,8,0:0:0:0:
206,140,68131,1,8,0:0:0:0:
209,118,68202,1,8,0:0:0:0:
197,79,68273,2,0,L|174:76,3,22.5,8|8|8|8,0:0|0:0|0:0|0:0,0:0:0:0:
177,315,68559,5,0,3:0:0:0:
195,298,68631,1,8,0:0:0:0:
246,312,68702,1,8,0:0:0:0:
228,291,68773,1,8,0:0:0:0:
252,240,68845,1,8,0:0:0:0:
275,219,68916,1,8,0:0:0:0:
325,240,68988,1,8,0:0:0:0:
308,222,69059,1,8,0:0:0:0:
323,170,69131,5,4,3:0:0:0:
376,148,69202,1,8,0:0:0:0:
422,181,69273,2,8,P|433:197|440:218,1,22.5
451,299,69416,2,8,P|441:313|434:322,1,22.5
333,380,69559,2,8,P|322:375|312:371,1,22.5
81,333,69702,5,0,3:0:0:0:
47,305,69773,1,8,0:0:0:0:
61,283,69845,1,8,0:0:0:0:
80,277,69916,1,8,0:0:0:0:
66,254,69988,1,8,0:0:0:0:
48,249,70059,1,0,3:0:0:0:
51,230,70131,1,0,3:0:0:0:
66,223,70202,1,0,3:0:0:0:
38,182,70273,6,2,P|31:155|21:125,1,45,6|2,3:0|3:0,0:0:0:0:
180,18,70559,2,2,P|186:39|192:61,1,45,10|2,0:0|3:0,0:0:0:0:
329,97,70773,5,0,3:0:0:0:
318,119,70845,2,2,B|294:108|294:108|265:114,1,45,6|2,3:0|3:0,0:0:0:0:
0,40,71131,1,10,0:0:0:0:
181,160,71273,5,2,3:0:0:0:
155,141,71345,1,0,3:0:0:0:
175,132,71416,2,0,P|176:98|187:44,1,90,6|10,3:0|0:0,0:0:0:0:
248,0,71773,1,8,0:0:0:0:
248,0,71845,1,8,0:0:0:0:
479,115,71988,5,2,3:0:0:0:
441,135,72059,1,0,3:0:0:0:
465,176,72131,1,8,0:0:0:0:
383,330,72273,1,8,0:0:0:0:
403,323,72345,1,2,0:0:0:0:
419,318,72416,1,2,0:0:0:0:
221,329,72559,6,0,L|142:319,1,72,4|4,3:0|3:0,0:0:0:0:
149,319,73416,1,0,3:0:0:0:
184,284,73488,5,0,3:0:0:0:
152,239,73559,1,0,3:0:0:0:
129,234,73631,1,0,3:0:0:0:
153,183,73702,5,4,3:0:0:0:
89,61,73845,1,8,0:0:0:0:
89,61,73988,1,8,0:0:0:0:
89,61,74273,2,0,L|166:72,1,72,4|4,3:0|3:0,0:0:0:0:
316,102,74988,5,8,0:0:0:0:
379,283,75131,1,0,3:0:0:0:
359,253,75202,1,0,3:0:0:0:
365,219,75273,1,0,3:0:0:0:
512,248,75416,6,0,L|434:239,1,72,4|4,3:0|3:0,0:0:0:0:
273,215,76131,1,8,0:0:0:0:
412,128,76273,1,0,3:0:0:0:
406,91,76345,1,0,3:0:0:0:
378,66,76416,1,0,3:0:0:0:
73,20,76559,5,4,3:0:0:0:
73,20,76702,5,8,0:0:0:0:
2,115,76845,5,8,0:0:0:0:
24,216,76988,5,8,0:0:0:0:
189,124,77131,6,0,P|214:128|232:131,1,36,4|0,3:0|0:0,0:0:0:0:
487,352,77988,6,0,L|492:332,1,18,4|0,3:0|0:0,0:0:0:0:
401,349,78273,6,0,L|406:329,1,18,4|0,3:0|0:0,0:0:0:0:
232,267,79131,5,8,0:0:0:0:
208,254,79417,6,2,P|171:280|176:350,1,90,2|2,3:0|0:0,0:0:0:0:
187,339,79631,1,2,0:0:0:0:
166,366,79702,2,2,P|120:353|73:342,1,90,10|2,3:0|0:0,0:0:0:0:
28,184,79988,6,2,P|41:142|53:98,1,90,2|2,3:0|0:0,0:0:0:0:
239,81,80202,1,2,0:0:0:0:
268,70,80274,2,2,P|256:114|242:157,1,90,10|2,3:0|0:0,0:0:0:0:
439,317,80560,6,2,P|386:305|329:286,1,90,2|2,3:0|0:0,0:0:0:0:
347,325,80774,1,2,0:0:0:0:
315,316,80845,2,2,P|304:271|316:241,1,45,10|2,3:0|0:0,0:0:0:0:
367,214,80988,2,2,P|419:215|460:245,2,90,2|2|2,0:0|3:0|0:0,0:0:0:0:
207,300,81417,1,10,3:0:0:0:
94,170,81560,5,2,0:0:0:0:
94,170,81631,1,2,0:0:0:0:
94,170,81702,2,2,B|146:165|146:165|185:215,1,90,2|2,3:0|0:0,0:0:0:0:
171,228,81917,1,2,0:0:0:0:
154,233,81988,2,2,L|147:168,1,45,10|2,3:0|0:0,0:0:0:0:
232,144,82131,6,2,P|251:197|231:254,1,90,2|2,0:0|3:0,0:0:0:0:
435,167,82417,1,2,0:0:0:0:
435,167,82488,1,2,0:0:0:0:
435,167,82560,2,2,P|395:145|346:150,1,90,10|2,3:0|0:0,0:0:0:0:
348,165,82774,1,2,0:0:0:0:
317,166,82845,2,2,P|328:116|336:63,1,90,2|2,3:0|0:0,0:0:0:0:
500,62,83131,1,10,3:0:0:0:
405,273,83274,2,2,L|328:289,1,45
290,333,83417,6,2,P|243:315|193:295,1,90,2|10,3:0|0:0,0:0:0:0:
0,182,83702,1,10,3:0:0:0:
161,384,83845,1,10,0:0:0:0:
189,147,83988,6,2,P|134:184|124:223,1,90,2|2,3:0|0:0,0:0:0:0:
206,301,84274,2,2,P|177:285|145:276,1,45,10|2,3:0|0:0,0:0:0:0:
87,305,84417,2,2,P|44:320|0:325,2,90,2|2|2,0:0|3:0|0:0,0:0:0:0:
361,346,84845,2,2,P|429:325|450:204,1,180,10|2,3:0|3:0,0:0:0:0:
444,216,85202,5,2,0:0:0:0:
430,198,85274,2,2,P|392:200|376:199,1,45
194,184,85417,1,10,3:0:0:0:
320,71,85560,2,2,P|276:57|233:48,1,90,2|2,0:0|3:0,0:0:0:0:
85,103,85845,2,2,P|34:111|-23:125,1,90,2|10,0:0|3:0,0:0:0:0:
0,143,86060,1,2,0:0:0:0:
26,142,86131,2,2,P|39:182|48:214,1,45
128,201,86274,6,2,P|116:250|102:317,1,90,2|2,3:0|0:0,0:0:0:0:
416,341,86560,2,2,P|390:334|368:331,1,45,10|2,3:0|0:0,0:0:0:0:
279,150,86702,1,2,0:0:0:0:
309,191,86774,1,2,0:0:0:0:
364,182,86845,1,2,3:0:0:0:
356,155,86917,1,2,0:0:0:0:
369,145,86988,2,2,P|421:159|443:159,3,45,2|2|10|2,0:0|0:0|3:0|0:0,0:0:0:0:
475,222,87274,2,2,P|500:208|518:195,1,45
496,76,87417,5,2,3:0:0:0:
460,83,87488,1,2,0:0:0:0:
447,63,87560,2,2,P|403:54|358:47,1,90,2|10,0:0|3:0,0:0:0:0:
295,3,87774,1,2,0:0:0:0:
295,3,87845,2,2,B|280:54|246:30|247:114,1,90,2|2,0:0|3:0,0:0:0:0:
372,332,88131,5,10,0:0:0:0:
190,225,88274,1,10,3:0:0:0:
0,125,88417,1,2,0:0:0:0:
102,384,88560,6,0,P|137:337|130:288,1,90,6|2,3:0|0:0,0:0:0:0:
97,95,88845,2,0,P|136:88|189:80,1,90,10|2,3:0|0:0,0:0:0:0:
376,237,89131,2,0,P|332:229|288:222,1,90,2|2,3:0|0:0,0:0:0:0:
252,16,89417,2,0,P|284:39|304:95,1,90,10|2,3:0|0:0,0:0:0:0:
436,324,89703,6,0,P|469:295|484:252,1,90,2|2,3:0|0:0,0:0:0:0:
376,237,89988,1,10,3:0:0:0:
233,294,90131,2,0,B|170:279|170:279|140:249|140:249|63:231,1,180,2|2,0:0|0:0,0:0:0:0:
159,381,90560,2,0,P|89:356|34:350,1,90,10|2,3:0|0:0,0:0:0:0:
251,181,90845,6,0,P|186:190|143:201,1,90,2|2,3:0|0:0,0:0:0:0:
80,39,91131,1,10,3:0:0:0:
89,36,91202,1,2,0:0:0:0:
100,35,91274,2,0,P|99:58|91:79,1,45,2|0,0:0|0:0,0:0:0:0:
26,123,91417,2,0,P|49:171|55:228,1,90,2|2,3:0|0:0,0:0:0:0:
107,366,91702,2,0,P|161:349|200:316,1,90,10|2,3:0|0:0,0:0:0:0:
450,346,91988,5,2,3:0:0:0:
441,340,92060,1,2,0:0:0:0:
436,331,92131,2,0,P|436:309|444:288,1,45,2|0,0:0|0:0,0:0:0:0:
375,261,92274,2,0,P|440:250|479:217,1,90,8|0,3:0|0:0,0:0:0:0:
470,60,92560,5,2,3:0:0:0:
272,0,92702,1,10,0:0:0:0:
184,186,92845,1,10,3:0:0:0:
298,311,92988,1,10,0:0:0:0:
460,237,93131,6,2,P|461:179|468:130,1,90,6|2,3:0|0:0,0:0:0:0:
213,265,93417,2,2,P|217:310|217:355,1,90,10|2,3:0|0:0,0:0:0:0:
95,23,93702,2,2,P|37:22|-12:15,1,90,2|2,3:0|0:0,0:0:0:0:
123,270,93988,2,2,P|167:266|212:266,1,90,10|2,3:0|0:0,0:0:0:0:
0,117,94274,5,2,3:0:0:0:
204,145,94417,1,2,0:0:0:0:
399,173,94560,1,10,3:0:0:0:
346,7,94702,6,0,P|337:37|323:76,1,45,2|0,0:0|0:0,0:0:0:0:
429,9,94845,2,0,P|412:51|400:95,1,90,2|2,3:0|0:0,0:0:0:0:
311,318,95131,5,10,3:0:0:0:
417,264,95274,1,2,0:0:0:0:
189,169,95417,1,2,3:0:0:0:
143,269,95560,1,2,3:0:0:0:
154,274,95631,1,0,3:0:0:0:
159,277,95702,1,10,3:0:0:0:
308,340,95845,1,2,3:0:0:0:
399,173,95988,6,0,P|386:113|373:57,1,90,2|10,3:0|0:0,0:0:0:0:
301,228,96274,1,10,3:0:0:0:
301,222,96345,1,0,3:0:0:0:
300,213,96417,2,0,P|287:153|283:129,1,45,2|0,3:0|3:0,3:0:0:0:
225,103,96560,2,0,P|178:96|131:121,1,90,2|10,3:0|0:0,0:0:0:0:
141,201,96774,5,0,0:0:0:0:
174,252,96845,1,0,3:0:0:0:
154,293,96917,1,0,0:0:0:0:
107,302,96988,1,2,3:0:0:0:
80,274,97060,1,0,3:0:0:0:
80,274,97131,2,0,P|80:295|196:335,1,135,2|0,3:0|0:0,0:0:0:0:
290,330,97417,6,0,L|247:339,1,45,10|0,0:0|0:0,0:0:0:0:
