osu file format v14

[General]
AudioFilename: audio.mp3
AudioLeadIn: 0
PreviewTime: 63591
Countdown: 0
SampleSet: None
StackLeniency: 0.7
Mode: 2
LetterboxInBreaks: 0
WidescreenStoryboard: 1

[Editor]
Bookmarks: 14841,34433,52801,63821,83413,103005,117699
DistanceSpacing: 0.8
BeatDivisor: 6
GridSize: 32
TimelineZoom: 1.7

[Metadata]
Title:Yuujou
TitleUnicode:Yuujou
Artist:Thaehan
ArtistUnicode:Thaehan
Creator:Xetopia
Version:Rain
Source:
Tags:
BeatmapID:1924201
BeatmapSetID:921445

[Difficulty]
HPDrainRate:6
CircleSize:4
OverallDifficulty:9.2
ApproachRate:9.2
SliderMultiplier:1.86
SliderTickRate:2

[Events]
//Background and Video events
0,0,"60619514_p0.png",0,0
//Break Periods
//Storyboard Layer 0 (Background)
//Storyboard Layer 1 (Fail)
//Storyboard Layer 2 (Pass)
//Storyboard Layer 3 (Foreground)
//Storyboard Sound Samples

[TimingPoints]
148,306.122448979592,4,2,0,100,1,0
148,-100,4,2,0,15,0,0
9943,-100,4,2,0,40,0,0
13005,-83.3333333333333,4,2,0,45,0,0
13617,-100,4,2,0,55,0,0
14229,-100,4,2,0,65,0,0
14841,-100,4,2,0,70,0,0
34433,-100,4,2,0,60,0,0
52801,-125,4,2,0,70,0,0
54025,-111.111111111111,4,2,0,30,0,0
58923,-125,4,2,0,35,0,0
60148,-117.647058823529,4,2,0,45,0,0
61372,-105.263157894737,4,2,0,55,0,0
61984,-100,4,2,0,65,0,0
63821,-100,4,2,0,70,0,0
103005,-125,4,2,0,40,0,0
112801,-125,4,2,0,30,0,0
116474,-125,4,2,0,20,0,0

[Colours]
Combo1 : 201,168,244
Combo2 : 255,128,192
Combo3 : 255,91,91

[HitObjects]
75,47,148,6,0,L|68:141,1,93
278,174,607,2,0,P|192:208|141:285,1,186
132,346,1066,1,0,0:0:0:0:
357,323,1372,6,0,L|453:328,1,93
234,243,1831,2,0,P|148:209|97:132,1,186
88,71,2290,1,0,0:0:0:0:
312,50,2596,6,0,P|215:84|177:156,2,186
499,42,3515,1,0,0:0:0:0:
252,328,3821,5,0,0:0:0:0:
226,240,3974,1,0,0:0:0:0:
267,159,4127,1,0,0:0:0:0:
352,128,4280,1,0,0:0:0:0:
439,223,4433,5,0,0:0:0:0:
464,135,4586,1,0,0:0:0:0:
423,54,4739,1,0,0:0:0:0:
338,23,4892,1,0,0:0:0:0:
91,286,5045,6,0,L|82:194,1,93
177,184,5352,1,0,0:0:0:0:
314,257,5505,2,0,L|320:68,1,186
161,69,5964,1,0,0:0:0:0:
399,95,6270,6,0,P|403:147|291:217,1,186
184,320,6729,2,0,L|181:265,1,46.5
269,235,6882,1,0,0:0:0:0:
270,188,6958,1,0,0:0:0:0:
272,142,7035,1,0,0:0:0:0:
273,95,7111,1,0,0:0:0:0:
185,237,7188,1,0,0:0:0:0:
139,228,7264,1,0,0:0:0:0:
103,199,7341,1,0,0:0:0:0:
84,157,7417,1,0,0:0:0:0:
252,35,7494,6,0,P|297:54|244:145,1,186
122,264,7954,1,0,0:0:0:0:
129,294,8005,1,0,0:0:0:0:
155,312,8056,1,0,0:0:0:0:
188,323,8107,2,0,L|285:327,1,93
154,182,8413,2,0,L|51:177,1,93
296,46,8719,5,0,0:0:0:0:
398,107,8872,2,0,L|402:161,1,46.5
324,166,9025,2,0,L|321:217,1,46.5
406,124,9178,2,0,L|410:171,1,46.5
255,299,9331,6,0,L|208:301,2,46.5
387,214,9637,1,0,0:0:0:0:
388,167,9713,1,0,0:0:0:0:
390,121,9790,1,0,0:0:0:0:
145,47,9943,6,0,P|141:86|252:164,1,186
112,228,10403,1,0,0:0:0:0:
110,274,10479,1,0,0:0:0:0:
108,320,10556,1,0,0:0:0:0:
203,324,10709,1,0,0:0:0:0:
354,264,10862,2,0,L|359:125,1,139.5
149,43,11168,6,0,P|89:81|156:150,1,186
401,341,11780,2,0,L|307:338,1,93
162,298,12086,2,0,L|154:155,1,139.5
359,41,12392,6,0,P|415:69|358:154,1,186
232,192,12852,2,0,L|174:194,1,46.5
270,280,13005,1,0,0:0:0:0:
316,271,13081,1,0,0:0:0:0:
352,242,13158,1,0,0:0:0:0:
371,200,13234,1,0,0:0:0:0:
277,171,13311,1,0,0:0:0:0:
231,162,13387,1,0,0:0:0:0:
195,133,13464,1,0,0:0:0:0:
176,91,13540,1,0,0:0:0:0:
395,40,13617,5,0,0:0:0:0:
285,119,13770,2,0,L|277:171,1,46.5
364,180,13923,2,0,L|373:226,1,46.5
201,324,14076,2,0,L|150:327,1,46.5
339,244,14229,5,0,0:0:0:0:
425,179,14382,2,0,L|429:80,1,93
382,87,14611,1,0,0:0:0:0:
335,88,14688,1,0,0:0:0:0:
59,58,14841,6,0,L|162:57,2,93
277,332,15301,2,0,P|294:294|202:199,1,186
422,181,15760,2,0,L|427:86,1,93
168,40,16066,6,0,P|118:61|43:168,1,186
194,281,16525,2,0,L|196:228,1,46.5
284,224,16678,1,0,0:0:0:0:
256,186,16754,1,0,0:0:0:0:
216,163,16831,1,0,0:0:0:0:
171,156,16907,1,0,0:0:0:0:
24,122,16984,1,0,0:0:0:0:
52,84,17060,1,0,0:0:0:0:
92,61,17137,1,0,0:0:0:0:
137,54,17213,1,0,0:0:0:0:
399,292,17290,6,0,P|447:214|386:149,1,186
261,45,17750,2,0,L|222:46,2,31
323,46,17903,2,0,L|332:147,1,93
98,329,18209,2,0,L|195:326,2,93
335,293,18668,5,0,0:0:0:0:
375,270,18744,1,0,0:0:0:0:
398,231,18821,1,0,0:0:0:0:
398,185,18897,1,0,0:0:0:0:
374,145,18974,1,0,0:0:0:0:
333,124,19050,1,0,0:0:0:0:
145,74,19127,2,0,L|94:75,2,46.5
400,338,19433,1,0,0:0:0:0:
401,291,19509,1,0,0:0:0:0:
403,245,19586,1,0,0:0:0:0:
162,61,19739,6,0,P|103:76|26:185,1,186
174,194,20199,1,0,0:0:0:0:
175,240,20275,1,0,0:0:0:0:
176,286,20352,1,0,0:0:0:0:
283,292,20505,1,0,0:0:0:0:
129,293,20658,2,0,L|26:296,1,93
291,214,20964,5,0,0:0:0:0:
379,191,21117,1,0,0:0:0:0:
441,124,21270,1,0,0:0:0:0:
457,38,21423,1,0,0:0:0:0:
221,37,21576,2,0,L|119:40,1,93
277,129,21882,2,0,L|372:133,1,93
102,208,22188,6,0,P|52:244|106:340,1,186
218,342,22648,2,0,L|222:292,1,46.5
136,267,22801,1,0,0:0:0:0:
164,229,22877,1,0,0:0:0:0:
204,206,22954,1,0,0:0:0:0:
249,199,23030,1,0,0:0:0:0:
401,242,23107,1,0,0:0:0:0:
440,219,23183,1,0,0:0:0:0:
457,177,23260,1,0,0:0:0:0:
443,133,23336,1,0,0:0:0:0:
404,109,23413,1,0,0:0:0:0:
186,48,23566,6,0,L|140:50,1,46.5
226,106,23719,1,0,0:0:0:0:
271,110,23795,1,0,0:0:0:0:
311,134,23872,1,0,0:0:0:0:
336,172,23948,1,0,0:0:0:0:
47,343,24178,2,0,L|146:339,2,93
317,54,24637,5,0,0:0:0:0:
418,122,24790,2,0,L|426:220,1,93
208,330,25096,2,0,P|152:286|217:218,1,186
431,56,25556,2,0,L|339:54,1,93
82,195,25862,6,0,P|109:152|235:90,1,186
93,320,26321,2,0,L|90:267,1,46.5
244,244,26474,1,0,0:0:0:0:
290,235,26550,1,0,0:0:0:0:
326,206,26627,1,0,0:0:0:0:
345,164,26703,1,0,0:0:0:0:
211,132,26780,1,0,0:0:0:0:
165,123,26856,1,0,0:0:0:0:
129,94,26933,1,0,0:0:0:0:
110,52,27009,1,0,0:0:0:0:
367,26,27086,6,0,P|408:46|357:154,1,186
233,222,27545,1,0,0:0:0:0:
250,252,27596,1,0,0:0:0:0:
277,268,27648,1,0,0:0:0:0:
307,274,27699,2,0,L|405:273,1,93
164,137,28005,2,0,L|68:134,2,93
390,48,28464,5,0,0:0:0:0:
409,89,28540,1,0,0:0:0:0:
407,135,28617,1,0,0:0:0:0:
385,176,28693,1,0,0:0:0:0:
347,202,28770,1,0,0:0:0:0:
301,207,28846,1,0,0:0:0:0:
116,338,28923,2,0,L|66:340,2,46.5
332,111,29229,2,0,L|393:112,2,46.5
71,37,29535,6,0,P|81:84|193:146,1,186
337,282,29994,1,0,0:0:0:0:
337,235,30070,1,0,0:0:0:0:
338,189,30147,1,0,0:0:0:0:
223,189,30301,1,0,0:0:0:0:
360,134,30454,2,0,L|465:137,1,93
201,210,30760,5,0,0:0:0:0:
110,202,30913,1,0,0:0:0:0:
43,140,31066,1,0,0:0:0:0:
29,50,31219,1,0,0:0:0:0:
297,168,31372,6,0,L|301:71,1,93
158,258,31678,2,0,L|154:161,1,93
414,140,31984,6,0,P|461:161|406:256,1,186
292,283,32443,2,0,L|288:329,1,46.5
105,337,32596,1,0,0:0:0:0:
62,322,32673,1,0,0:0:0:0:
45,280,32750,1,0,0:0:0:0:
65,240,32826,1,0,0:0:0:0:
109,229,32903,2,0,L|171:227,2,46.5
304,45,33362,5,0,0:0:0:0:
323,86,33438,1,0,0:0:0:0:
318,131,33515,1,0,0:0:0:0:
288,166,33591,1,0,0:0:0:0:
244,179,33668,1,0,0:0:0:0:
146,187,33821,1,0,0:0:0:0:
357,332,33974,5,0,0:0:0:0:
463,282,34127,1,0,0:0:0:0:
463,235,34203,1,0,0:0:0:0:
464,189,34280,1,0,0:0:0:0:
465,142,34356,1,0,0:0:0:0:
209,53,34433,5,0,0:0:0:0:
183,140,34586,1,0,0:0:0:0:
226,220,34739,1,0,0:0:0:0:
312,248,34892,1,0,0:0:0:0:
166,146,35045,5,0,0:0:0:0:
191,233,35198,1,0,0:0:0:0:
148,313,35351,1,0,0:0:0:0:
62,341,35504,1,0,0:0:0:0:
298,343,35658,6,0,L|491:337,1,186
488,211,36117,1,0,0:0:0:0:
240,52,36270,2,0,L|139:55,1,93
291,155,36576,2,0,L|388:159,1,93
110,336,36882,6,0,P|61:300|119:209,1,186
269,262,37341,2,0,L|286:70,1,186
124,134,37801,2,0,L|115:40,1,93
361,45,38107,6,0,P|422:62|480:165,1,186
427,162,38489,1,0,0:0:0:0:
479,163,38566,1,0,0:0:0:0:
320,56,38719,1,0,0:0:0:0:
318,102,38795,1,0,0:0:0:0:
316,148,38872,1,0,0:0:0:0:
83,316,39025,2,0,L|31:318,2,46.5
353,349,39331,6,0,P|354:303|242:228,1,186
343,141,39790,1,0,0:0:0:0:
189,45,39943,2,0,L|178:142,1,93
401,255,40250,2,0,L|498:258,1,93
192,351,40556,6,0,P|126:333|55:236,1,186
204,156,41015,2,0,L|308:157,2,93
435,44,41474,2,0,L|442:138,1,93
161,327,41780,6,0,P|111:307|168:218,1,186
251,213,42239,1,0,0:0:0:0:
366,103,42392,2,0,L|269:106,1,93
106,43,42699,2,0,L|98:135,1,93
321,346,43005,5,0,0:0:0:0:
332,292,43081,1,0,0:0:0:0:
308,243,43158,1,0,0:0:0:0:
258,220,43234,1,0,0:0:0:0:
214,182,43311,1,0,0:0:0:0:
202,128,43387,1,0,0:0:0:0:
226,79,43464,1,0,0:0:0:0:
276,56,43540,1,0,0:0:0:0:
435,30,43617,5,0,0:0:0:0:
437,76,43693,1,0,0:0:0:0:
440,122,43770,1,0,0:0:0:0:
189,262,43923,2,0,L|134:264,1,46.5
76,334,44076,2,0,L|132:337,1,46.5
372,304,44229,6,0,L|379:207,1,93
236,110,44535,2,0,L|135:115,1,93
377,278,44841,2,0,L|479:283,1,93
325,277,45148,2,0,L|421:280,1,93
163,342,45454,6,0,P|121:304|179:207,1,186
270,202,45913,1,0,0:0:0:0:
53,55,46066,2,0,L|156:56,1,93
252,130,46372,2,0,L|156:132,1,93
390,194,46678,6,0,P|445:233|377:317,1,186
297,326,47137,1,0,0:0:0:0:
160,223,47290,2,0,L|260:221,1,93
110,166,47596,2,0,L|100:73,1,93
357,49,47903,6,0,P|419:95|352:155,1,186
295,157,48285,1,0,0:0:0:0:
289,199,48362,1,0,0:0:0:0:
434,224,48515,1,0,0:0:0:0:
439,270,48591,1,0,0:0:0:0:
444,316,48668,1,0,0:0:0:0:
193,333,48821,1,0,0:0:0:0:
146,334,48897,1,0,0:0:0:0:
100,335,48974,1,0,0:0:0:0:
383,174,49127,6,0,L|486:178,1,93
336,76,49433,2,0,L|237:79,1,93
28,290,49739,2,0,L|22:194,1,93
259,255,50045,2,0,L|363:260,1,93
77,49,50352,6,0,P|23:98|87:175,1,186
232,281,50811,1,0,0:0:0:0:
326,224,50964,2,0,L|334:128,1,93
115,69,51270,2,0,L|18:73,1,93
284,200,51576,6,0,L|478:208,1,186
478,301,52035,1,0,0:0:0:0:
319,320,52188,2,0,L|312:221,1,93
75,144,52494,2,0,L|68:45,1,93
328,52,52801,5,0,0:0:0:0:
433,127,52954,2,0,P|479:193|435:246,1,148.8
308,324,53413,1,0,0:0:0:0:
305,286,53489,1,0,0:0:0:0:
303,249,53566,1,0,0:0:0:0:
445,241,53719,1,0,0:0:0:0:
448,203,53795,1,0,0:0:0:0:
450,166,53872,1,0,0:0:0:0:
306,80,54025,6,0,L|215:82,2,83.6999974456788
164,168,54484,2,0,P|192:208|309:233,1,167.399994891358
437,231,54943,2,0,L|441:145,1,83.6999974456788
272,62,55250,6,0,P|192:76|151:146,1,167.399994891358
286,224,55709,2,0,L|333:227,1,41.8499987228394
250,276,55862,1,0,0:0:0:0:
248,234,55938,1,0,0:0:0:0:
246,192,56015,1,0,0:0:0:0:
244,150,56091,1,0,0:0:0:0:
327,169,56168,1,0,0:0:0:0:
328,127,56244,1,0,0:0:0:0:
330,85,56321,1,0,0:0:0:0:
332,43,56397,1,0,0:0:0:0:
239,38,56474,6,0,L|52:41,1,167.399994891358
217,149,56933,1,0,0:0:0:0:
244,150,56984,1,0,0:0:0:0:
272,151,57035,1,0,0:0:0:0:
302,149,57086,2,0,L|313:243,1,83.6999974456788
154,317,57392,6,0,P|108:282|162:200,1,167.399994891358
285,115,57852,2,0,L|230:115,1,41.8499987228394
169,128,58005,1,0,0:0:0:0:
187,164,58081,1,0,0:0:0:0:
222,187,58158,1,0,0:0:0:0:
263,188,58234,1,0,0:0:0:0:
344,204,58311,6,0,L|357:378,1,167.399994891358
457,358,58770,1,0,0:0:0:0:
322,292,58923,6,0,L|241:294,2,74.4
184,236,59382,1,0,0:0:0:0:
180,198,59458,1,0,0:0:0:0:
177,161,59535,1,0,0:0:0:0:
308,79,59688,2,0,L|228:80,2,74.4
163,154,60148,5,0,0:0:0:0:
134,225,60301,1,0,0:0:0:0:
166,295,60454,1,0,0:0:0:0:
239,319,60607,1,0,0:0:0:0:
390,234,60760,2,0,L|310:237,1,79.0500015077591
453,320,61066,2,0,L|368:325,1,79.0500015077591
94,336,61372,6,0,L|88:291,3,44.1749988204003
172,266,61678,2,0,L|178:221,3,44.1749988204003
25,168,61984,5,0,0:0:0:0:
54,132,62060,1,0,0:0:0:0:
93,107,62137,1,0,0:0:0:0:
138,97,62213,1,0,0:0:0:0:
306,187,62290,1,0,0:0:0:0:
308,140,62366,1,0,0:0:0:0:
311,94,62443,1,0,0:0:0:0:
313,47,62519,1,0,0:0:0:0:
315,7,62596,1,0,0:0:0:0:
136,37,62750,5,0,0:0:0:0:
91,50,62826,1,0,0:0:0:0:
59,82,62903,1,0,0:0:0:0:
46,126,62979,1,0,0:0:0:0:
56,171,63056,1,0,0:0:0:0:
86,206,63132,1,0,0:0:0:0:
129,222,63209,1,0,0:0:0:0:
223,227,63362,1,0,0:0:0:0:
449,335,63515,2,0,L|460:289,1,46.5
210,117,63668,2,0,L|199:71,1,46.5
457,34,63821,6,0,L|357:35,2,93
230,171,64280,2,0,P|171:224|226:295,1,186
450,226,64739,2,0,L|456:134,1,93
182,42,65045,6,0,P|112:58|40:148,1,186
188,186,65505,2,0,L|192:240,1,46.5
346,331,65658,1,0,0:0:0:0:
387,311,65734,1,0,0:0:0:0:
416,275,65811,1,0,0:0:0:0:
425,230,65887,1,0,0:0:0:0:
259,170,65964,1,0,0:0:0:0:
217,150,66040,1,0,0:0:0:0:
188,114,66117,1,0,0:0:0:0:
179,69,66193,1,0,0:0:0:0:
420,25,66270,6,0,P|460:50|413:157,1,186
266,216,66729,1,0,0:0:0:0:
284,191,66780,1,0,0:0:0:0:
312,177,66831,1,0,0:0:0:0:
343,175,66882,2,0,L|438:179,1,93
178,326,67188,2,0,L|76:331,2,93
422,273,67648,5,0,0:0:0:0:
451,237,67724,1,0,0:0:0:0:
460,192,67801,1,0,0:0:0:0:
447,148,67877,1,0,0:0:0:0:
414,115,67954,1,0,0:0:0:0:
371,101,68030,1,0,0:0:0:0:
144,38,68107,2,0,L|89:40,2,46.5
389,267,68413,2,0,L|447:271,2,46.5
78,342,68719,6,0,L|273:336,1,186
48,208,69178,1,0,0:0:0:0:
45,161,69254,1,0,0:0:0:0:
43,115,69331,1,0,0:0:0:0:
183,58,69484,2,0,L|89:57,2,93
428,135,69943,5,0,0:0:0:0:
369,206,70096,1,0,0:0:0:0:
288,251,70249,1,0,0:0:0:0:
197,262,70402,1,0,0:0:0:0:
427,343,70556,6,0,L|438:249,1,93
192,291,70862,2,0,L|85:293,1,93
379,35,71168,6,0,P|437:108|373:164,1,186
240,201,71627,2,0,L|231:261,1,46.5
374,322,71780,5,0,0:0:0:0:
419,314,71856,1,0,0:0:0:0:
456,287,71933,1,0,0:0:0:0:
476,245,72009,1,0,0:0:0:0:
302,39,72086,1,0,0:0:0:0:
258,51,72162,1,0,0:0:0:0:
239,92,72239,1,0,0:0:0:0:
257,134,72315,1,0,0:0:0:0:
300,147,72392,1,0,0:0:0:0:
69,347,72545,6,0,L|64:295,1,46.5
221,306,72699,1,0,0:0:0:0:
266,300,72775,1,0,0:0:0:0:
297,266,72852,1,0,0:0:0:0:
299,221,72928,1,0,0:0:0:0:
272,184,73005,1,0,0:0:0:0:
228,174,73081,1,0,0:0:0:0:
47,158,73158,6,0,L|149:154,1,93
189,37,73387,1,0,0:0:0:0:
190,83,73463,1,0,0:0:0:0:
191,129,73540,1,0,0:0:0:0:
423,327,73617,6,0,L|315:329,2,93
186,244,74076,2,0,P|221:205|347:164,1,186
116,85,74535,2,0,L|14:90,1,93
282,167,74841,6,0,P|337:195|271:272,1,186
139,319,75301,2,0,L|132:263,1,46.5
296,228,75454,1,0,0:0:0:0:
268,190,75530,1,0,0:0:0:0:
228,167,75607,1,0,0:0:0:0:
183,160,75683,1,0,0:0:0:0:
5,117,75760,1,0,0:0:0:0:
33,79,75836,1,0,0:0:0:0:
73,56,75913,1,0,0:0:0:0:
118,49,75989,1,0,0:0:0:0:
409,65,76066,6,0,P|381:96|245:137,1,186
384,286,76525,1,0,0:0:0:0:
414,285,76576,1,0,0:0:0:0:
445,284,76627,1,0,0:0:0:0:
477,282,76678,2,0,L|481:169,1,93
260,51,76984,1,0,0:0:0:0:
386,122,77137,2,0,L|394:219,1,93
152,333,77443,5,0,0:0:0:0:
107,325,77519,1,0,0:0:0:0:
77,291,77596,1,0,0:0:0:0:
76,245,77672,1,0,0:0:0:0:
105,210,77749,1,0,0:0:0:0:
150,202,77825,1,0,0:0:0:0:
347,125,77903,2,0,L|402:131,2,46.5
86,138,78209,1,0,0:0:0:0:
83,91,78285,1,0,0:0:0:0:
80,45,78362,1,0,0:0:0:0:
377,34,78515,6,0,L|177:38,1,186
335,154,78974,2,0,L|388:157,2,46.5
194,324,79280,1,0,0:0:0:0:
313,328,79433,2,0,L|321:236,1,93
35,165,79739,5,0,0:0:0:0:
110,110,79892,1,0,0:0:0:0:
194,72,80045,1,0,0:0:0:0:
285,52,80198,1,0,0:0:0:0:
62,213,80352,6,0,L|46:308,1,93
279,343,80658,2,0,L|381:346,1,93
103,249,80964,6,0,P|47:208|107:124,1,186
238,50,81423,2,0,L|241:102,1,46.5
76,345,81576,2,0,L|24:346,1,46.5
95,321,81729,2,0,L|151:325,1,46.5
225,277,81882,1,0,0:0:0:0:
227,230,81958,1,0,0:0:0:0:
229,184,82035,1,0,0:0:0:0:
231,137,82111,1,0,0:0:0:0:
411,35,82341,5,0,0:0:0:0:
454,47,82417,1,0,0:0:0:0:
472,88,82494,1,0,0:0:0:0:
453,128,82570,1,0,0:0:0:0:
409,140,82647,1,0,0:0:0:0:
184,226,82801,2,0,L|127:228,2,46.5
413,339,83107,1,0,0:0:0:0:
415,292,83183,1,0,0:0:0:0:
418,246,83260,1,0,0:0:0:0:
154,48,83413,6,0,P|93:120|178:52,1,372
154,48,84063,1,0,0:0:0:0:
336,40,84331,2,0,L|363:42,1,23.25
433,138,84484,2,0,L|395:140,1,23.25
186,302,84637,6,0,B|257:231|350:240|350:240|357:143,1,279
138,35,85250,6,0,B|230:33|230:33|39:36,1,279
287,148,85862,6,0,P|366:172|270:286,1,279
149,246,86474,2,0,L|96:247,2,46.5
288,149,86780,2,0,L|251:149,1,23.25
153,48,86933,2,0,L|188:46,1,23.25
407,144,87086,6,0,P|404:165|279:276,1,186
246,273,87469,2,0,L|242:217,1,46.5
394,208,87699,2,0,P|450:163|386:84,1,186
127,89,88311,6,0,L|323:87,1,186
90,200,88923,2,0,L|85:234,1,23.25
266,330,89229,2,0,L|301:332,1,23.25
370,267,89382,2,0,L|335:269,1,23.25
119,252,89535,6,0,P|58:209|122:141,1,186
329,56,90148,2,0,L|348:148,1,93
121,318,90454,2,0,L|21:324,1,93
279,226,90760,6,0,B|463:225|463:225|359:217,1,279
146,166,91372,2,0,L|98:169,2,46.5
274,99,91678,2,0,L|277:65,1,23.25
139,63,91831,2,0,L|136:29,1,23.25
348,46,91984,5,0,0:0:0:0:
393,53,92060,1,0,0:0:0:0:
433,76,92137,1,0,0:0:0:0:
461,113,92213,1,0,0:0:0:0:
363,141,92290,1,0,0:0:0:0:
317,148,92366,1,0,0:0:0:0:
277,171,92443,1,0,0:0:0:0:
249,208,92519,1,0,0:0:0:0:
324,240,92596,6,0,L|342:291,1,46.5
247,286,92750,2,0,L|229:337,1,46.5
350,347,92903,2,0,L|397:348,1,46.5
458,269,93056,2,0,L|403:268,1,46.5
132,202,93209,6,0,L|116:110,1,93
331,42,93515,2,0,L|434:45,1,93
196,305,93821,2,0,L|95:309,3,93
371,88,94433,6,0,P|421:116|360:203,1,186
462,258,94892,1,0,0:0:0:0:
212,334,95045,2,0,L|307:333,1,93
157,247,95352,2,0,L|55:245,1,93
327,46,95658,6,0,L|432:43,1,93
303,129,95964,2,0,L|402:128,1,93
185,46,96270,2,0,L|80:43,1,93
209,129,96576,2,0,L|110:128,1,93
399,322,96882,6,0,P|452:291|391:211,1,186
347,210,97264,1,0,0:0:0:0:
301,211,97341,1,0,0:0:0:0:
157,181,97494,2,0,L|147:84,1,93
375,46,97801,2,0,L|425:48,2,46.5
91,321,98107,6,0,P|134:286|266:255,1,186
352,257,98566,1,0,0:0:0:0:
128,175,98719,2,0,L|114:84,1,93
328,49,99025,1,0,0:0:0:0:
212,49,99178,1,0,0:0:0:0:
472,265,99331,6,0,L|487:170,1,93
260,309,99637,2,0,L|162:311,1,93
394,100,99943,2,0,L|488:102,1,93
254,53,100250,2,0,L|348:55,1,93
92,149,100556,6,0,P|47:172|87:278,1,186
174,286,101015,1,0,0:0:0:0:
320,318,101168,2,0,L|330:222,1,93
496,141,101474,2,0,L|397:144,1,93
161,67,101780,6,0,L|256:69,1,93
456,266,102239,1,0,0:0:0:0:
312,268,102392,2,0,L|257:268,2,46.5
175,190,102699,1,0,0:0:0:0:
174,143,102775,1,0,0:0:0:0:
172,97,102852,1,0,0:0:0:0:
329,46,103005,5,0,0:0:0:0:
399,66,103158,1,0,0:0:0:0:
447,121,103311,1,0,0:0:0:0:
458,194,103464,1,0,0:0:0:0:
228,254,103770,2,0,L|219:331,1,74.4
437,333,104229,6,0,P|416:288|328:241,1,148.8
186,224,104688,1,0,0:0:0:0:
153,192,104764,1,0,0:0:0:0:
148,147,104841,1,0,0:0:0:0:
173,109,104917,1,0,0:0:0:0:
217,97,104994,1,0,0:0:0:0:
258,115,105070,1,0,0:0:0:0:
278,156,105147,1,0,0:0:0:0:
267,200,105223,1,0,0:0:0:0:
229,227,105300,1,0,0:0:0:0:
184,233,105377,1,0,0:0:0:0:
93,316,105454,6,0,L|83:164,1,148.8
243,92,105913,2,0,L|249:125,3,24.8
98,52,106372,1,0,0:0:0:0:
287,52,106678,5,0,0:0:0:0:
381,114,106831,2,0,L|384:159,1,37.2
304,179,106984,1,0,0:0:0:0:
270,191,107060,1,0,0:0:0:0:
256,225,107137,1,0,0:0:0:0:
272,258,107213,1,0,0:0:0:0:
306,268,107290,1,0,0:0:0:0:
85,335,107903,5,0,0:0:0:0:
325,337,108362,2,0,L|379:337,2,37.2
180,335,108821,1,0,0:0:0:0:
404,203,109127,5,0,0:0:0:0:
88,44,109739,1,0,0:0:0:0:
241,44,110045,1,0,0:0:0:0:
88,44,110352,1,0,0:0:0:0:
315,131,110811,1,0,0:0:0:0:
209,131,110964,5,0,0:0:0:0:
173,141,111040,1,0,0:0:0:0:
143,162,111117,1,0,0:0:0:0:
122,193,111193,1,0,0:0:0:0:
212,218,111270,1,0,0:0:0:0:
246,226,111346,1,0,0:0:0:0:
263,258,111423,1,0,0:0:0:0:
250,292,111499,1,0,0:0:0:0:
216,304,111576,1,0,0:0:0:0:
63,339,111729,6,0,L|60:299,1,37.2
133,284,111882,1,0,0:0:0:0:
117,250,111958,1,0,0:0:0:0:
92,223,112035,1,0,0:0:0:0:
59,206,112111,1,0,0:0:0:0:
22,200,112188,1,0,0:0:0:0:
176,85,112341,2,0,L|336:88,1,148.8
481,192,112801,5,0,0:0:0:0:
365,213,112954,2,0,L|363:289,1,74.4
250,304,113260,1,0,0:0:0:0:
55,242,113566,2,0,L|137:239,1,74.4
344,224,114025,1,0,0:0:0:0:
166,116,114331,5,0,0:0:0:0:
281,37,114484,1,0,0:0:0:0:
317,39,114560,1,0,0:0:0:0:
351,54,114637,1,0,0:0:0:0:
376,81,114713,1,0,0:0:0:0:
390,115,114790,1,0,0:0:0:0:
389,152,114866,1,0,0:0:0:0:
375,187,114943,1,0,0:0:0:0:
349,213,115019,1,0,0:0:0:0:
315,228,115096,1,0,0:0:0:0:
278,229,115172,1,0,0:0:0:0:
191,226,115250,6,0,L|182:77,1,148.8
321,74,115709,2,0,L|326:34,3,24.8
470,73,116168,1,0,0:0:0:0:
257,271,116474,5,0,0:0:0:0:
148,331,116627,1,0,0:0:0:0:
111,326,116703,1,0,0:0:0:0:
83,302,116780,1,0,0:0:0:0:
72,267,116856,1,0,0:0:0:0:
83,232,116933,1,0,0:0:0:0:
110,208,117009,1,0,0:0:0:0:
147,203,117086,1,0,0:0:0:0:
448,200,117699,5,0,0:0:0:0:
