osu file format v14

[General]
AudioFilename: audio.mp3
AudioLeadIn: 0
PreviewTime: 14535
Countdown: 0
SampleSet: Soft
StackLeniency: 0.7
Mode: 2
LetterboxInBreaks: 0
WidescreenStoryboard: 0

[Editor]
Bookmarks: 35045,112801
DistanceSpacing: 0.8
BeatDivisor: 8
GridSize: 16
TimelineZoom: 2.699999

[Metadata]
Title:Yuujou
TitleUnicode:Yuujou
Artist:Thaehan
ArtistUnicode:Thaehan
Creator:Minato Yukina
Version:Rain
Source:osu!
Tags:Xetopia
BeatmapID:1926874
BeatmapSetID:922706

[Difficulty]
HPDrainRate:5
CircleSize:3.5
OverallDifficulty:9
ApproachRate:9
SliderMultiplier:1.44
SliderTickRate:2

[Events]
//Background and Video events
0,0,"BG.jpg",0,0
//Break Periods
//Storyboard Layer 0 (Background)
//Storyboard Layer 1 (Fail)
//Storyboard Layer 2 (Pass)
//Storyboard Layer 3 (Foreground)
//Storyboard Sound Samples

[TimingPoints]
148,306.122448979592,4,2,1,10,1,0
9331,-83.3333333333333,4,2,1,10,0,0
9943,-100,4,2,1,10,0,0
13005,-100,4,2,1,20,0,0
13311,-100,4,1,1,20,0,0
13617,-83.3333333333333,4,1,1,30,0,0
14076,-83.3333333333333,4,1,1,40,0,0
14841,-83.3333333333333,4,1,1,50,0,0
14918,-83.3333333333333,4,1,1,50,0,0
18056,-83.3333333333333,4,1,11,50,0,0
18132,-83.3333333333333,4,1,1,50,0,0
20505,-83.3333333333333,4,1,11,50,0,0
20581,-83.3333333333333,4,1,1,50,0,0
24637,-83.3333333333333,4,1,1,60,0,0
27852,-83.3333333333333,4,1,11,60,0,0
27928,-83.3333333333333,4,1,1,60,0,0
30301,-83.3333333333333,4,1,11,60,0,0
30377,-83.3333333333333,4,1,1,60,0,0
34433,-100,4,1,1,50,0,0
38336,-100,4,2,0,20,0,0
38413,-100,4,1,1,50,0,0
48132,-100,4,2,0,20,0,0
48209,-100,4,1,1,50,0,0
49586,-100,4,1,11,50,0,0
49739,-100,4,1,1,50,0,0
52801,-100,4,1,22,50,0,0
52877,-100,4,1,1,50,0,0
53872,-100,4,1,1,30,0,0
54025,-100,4,1,1,10,0,0
58923,-100,4,1,1,20,0,0
60148,-100,4,1,1,30,0,0
61372,-100,4,1,1,40,0,0
63209,-66.6666666666667,4,1,1,50,0,0
63515,-83.3333333333333,4,1,1,50,0,0
63821,-76.9230769230769,4,1,22,60,0,1
63898,-76.9230769230769,4,1,1,60,0,1
83413,-90.9090909090909,4,1,1,50,0,0
103005,-100,4,2,1,30,0,0
111576,-100,4,2,1,20,0,0
112188,-100,4,2,1,10,0,0
112341,-100,4,2,1,5,0,0

[Colours]
Combo1 : 128,128,255
Combo2 : 128,255,255
Combo3 : 0,255,128
Combo4 : 0,128,128

[HitObjects]
120,97,148,6,0,L|205:96,2,72,0|0|0,0:0|0:0|0:0,0:0:0:0:
255,95,607,2,0,P|310:104|298:186,1,144,0|0,0:0|0:0,0:0:0:0:
220,180,1066,1,0,0:0:0:0:
419,274,1372,6,0,L|334:275,2,72,0|0|0,0:0|0:0|0:0,0:0:0:0:
284,276,1831,2,0,P|229:267|241:185,1,144,0|0,0:0|0:0,0:0:0:0:
319,191,2290,1,0,0:0:0:0:
132,106,2596,6,0,L|219:106,1,72,0|0,0:0|0:0,0:0:0:0:
60,106,2903,2,0,L|147:106,1,72,0|0,0:0|0:0,0:0:0:0:
277,173,3209,2,0,L|190:173,1,72,0|0,0:0|0:0,0:0:0:0:
349,173,3515,2,0,L|262:173,1,72,0|0,0:0|0:0,0:0:0:0:
142,141,3821,5,0,0:0:0:0:
279,105,3974,1,0,0:0:0:0:
166,72,4127,2,0,L|76:72,1,72,0|0,0:0|0:0,0:0:0:0:
232,121,4433,1,0,0:0:0:0:
95,157,4586,1,0,0:0:0:0:
208,190,4739,2,0,L|298:190,1,72,0|0,0:0|0:0,0:0:0:0:
150,224,5045,6,0,L|75:224,1,72,2|0,0:0|0:0,0:0:0:0:
215,142,5352,1,8,0:0:0:0:
107,138,5505,2,0,P|47:177|87:235,1,144,0|2,0:0|0:0,0:0:0:0:
170,252,5964,1,8,0:0:0:0:
311,138,6270,6,0,L|151:138,1,144,2|8,0:0|0:0,0:0:0:0:
310,194,6729,2,0,L|352:194,1,36,0|0,0:0|0:0,0:0:0:0:
310,194,6882,1,2,0:0:0:0:
278,210,6959,1,0,0:0:0:0:
265,242,7035,1,2,0:0:0:0:
278,275,7112,1,0,0:0:0:0:
309,292,7188,1,8,0:0:0:0:
401,291,7341,1,0,0:0:0:0:
248,227,7494,6,0,L|100:226,1,144,2|8,0:0|0:0,0:0:0:0:
261,148,7954,2,0,L|303:149,3,24,0|0|0|0,0:0|0:0|0:0|0:0,0:0:0:0:
67,97,8413,1,8,0:0:0:0:
259,52,8719,6,0,L|158:50,1,72,2|0,0:0|0:0,0:0:0:0:
153,60,8949,1,0,0:0:0:0:
140,92,9025,1,8,0:0:0:0:
156,123,9102,1,0,0:0:0:0:
190,130,9178,1,0,0:0:0:0:
327,183,9331,2,0,L|361:232,2,43.1999986816407,2|2|2,0:0|0:0|0:0,0:0:0:0:
172,178,9637,2,0,L|108:177,2,43.1999986816407,8|8|8,0:0|0:0|0:0,0:0:0:0:
337,102,9943,6,0,L|172:102,1,144,2|8,0:0|0:0,0:0:0:0:
323,153,10403,2,0,L|379:154,1,36,0|0,0:0|0:0,0:0:0:0:
292,184,10556,2,0,L|193:184,2,72,0|2|8,0:0|0:0|0:0,0:0:0:0:
67,132,11168,6,0,P|37:171|77:257,1,144,2|8,0:0|0:0,0:0:0:0:
253,173,11780,1,2,0:0:0:0:
181,173,11933,1,2,0:0:0:0:
109,173,12086,1,8,0:0:0:0:
318,221,12392,6,0,P|348:182|308:96,1,144,2|8,0:0|0:0,0:0:0:0:
232,99,12852,1,0,0:0:0:0:
388,99,13005,1,0,0:0:0:0:
422,107,13081,1,0,0:0:0:0:
451,127,13158,1,2,0:0:0:0:
470,158,13234,1,0,0:0:0:0:
476,193,13311,1,8,0:0:0:0:
468,228,13387,1,0,0:0:0:0:
447,257,13464,1,0,0:0:0:0:
416,276,13540,1,0,0:0:0:0:
250,276,13617,5,8,0:0:0:0:
111,272,13770,1,2,0:0:0:0:
70,263,13846,1,0,0:0:0:0:
55,224,13923,1,0,0:0:0:0:
80,191,14000,1,0,0:0:0:0:
248,124,14076,1,2,0:0:0:0:
305,134,14153,1,2,0:0:0:0:
360,161,14229,1,2,0:0:0:0:
121,66,14382,1,8,0:0:0:0:
257,65,14535,2,0,L|330:66,1,43.1999986816407,2|2,0:0|0:0,0:0:0:0:
319,128,14688,2,0,L|275:127,1,43.1999986816407,2|2,0:0|0:0,0:0:0:0:
124,133,14841,6,0,L|17:131,1,86.3999973632813,6|0,0:0|0:0,0:0:0:0:
212,133,15148,1,8,0:0:0:0:
81,169,15301,2,0,P|32:199|94:276,1,172.799994726563,0|2,0:0|0:0,0:0:0:0:
211,274,15760,2,0,L|119:276,1,86.3999973632813,8|0,0:0|0:0,0:0:0:0:
350,275,16066,6,0,P|412:259|375:165,1,172.799994726563,2|8,0:0|0:0,0:0:0:0:
245,112,16525,2,0,L|190:112,1,43.1999986816407,0|0,0:0|0:0,0:0:0:0:
284,108,16678,1,2,0:0:0:0:
325,113,16755,1,0,0:0:0:0:
346,149,16831,1,2,0:0:0:0:
332,188,16908,1,0,0:0:0:0:
293,202,16984,1,8,0:0:0:0:
251,207,17061,1,0,0:0:0:0:
230,243,17137,1,0,0:0:0:0:
244,282,17214,1,0,0:0:0:0:
395,288,17290,6,0,P|433:265|361:194,1,172.799994726563,2|8,0:0|0:0,0:0:0:0:
228,153,17750,2,0,L|153:152,1,43.1999986816407,0|0,0:0|0:0,0:0:0:0:
349,98,17903,6,0,L|498:97,1,129.599996044922,0|0,0:0|0:0,0:0:0:0:
390,45,18209,2,0,L|288:43,1,86.3999973632813,8|0,0:0|0:0,0:0:0:0:
82,46,18515,5,2,0:0:0:0:
203,66,18668,1,0,0:0:0:0:
244,76,18744,1,0,0:0:0:0:
268,110,18821,1,8,0:0:0:0:
263,152,18898,1,0,0:0:0:0:
231,181,18974,1,0,0:0:0:0:
80,200,19127,6,0,L|35:248,2,43.1999986816407,2|2|2,0:0|0:0|0:0,0:0:0:0:
238,223,19433,1,8,0:0:0:0:
288,208,19510,1,8,0:0:0:0:
316,162,19586,1,8,0:0:0:0:
43,160,19739,6,0,P|47:219|144:269,1,172.799994726563,6|8,0:0|0:0,0:0:0:0:
288,237,20199,2,0,L|338:237,1,43.1999986816407,0|0,0:0|0:0,0:0:0:0:
252,168,20352,2,0,L|111:166,1,129.599996044922,0|0,0:0|0:0,0:0:0:0:
212,116,20658,2,0,L|301:116,1,86.3999973632813,8|0,0:0|0:0,0:0:0:0:
65,116,20964,6,0,P|25:148|78:216,1,129.599996044922,2|0,0:0|0:0,0:0:0:0:
138,254,21270,2,0,L|31:252,1,86.3999973632813,8|0,0:0|0:0,0:0:0:0:
212,160,21576,2,0,L|317:159,1,86.3999973632813,2|2,0:0|0:0,0:0:0:0:
139,159,21882,2,0,P|88:187|146:237,1,129.599996044922,8|0,0:0|0:0,0:0:0:0:
267,243,22188,6,0,L|450:239,1,172.799994726563,2|8,0:0|0:0,0:0:0:0:
352,183,22648,1,0,0:0:0:0:
192,180,22801,2,0,L|142:180,1,43.1999986816407,0|0,0:0|0:0,0:0:0:0:
226,113,22954,2,0,L|293:111,1,43.1999986816407,2|0,0:0|0:0,0:0:0:0:
184,111,23107,1,8,0:0:0:0:
147,129,23183,1,0,0:0:0:0:
141,170,23260,1,0,0:0:0:0:
173,196,23336,1,0,0:0:0:0:
322,203,23413,5,8,0:0:0:0:
195,202,23566,1,2,0:0:0:0:
158,220,23642,1,0,0:0:0:0:
152,261,23719,1,0,0:0:0:0:
184,287,23795,1,0,0:0:0:0:
268,283,23872,2,0,L|318:283,1,43.1999986816407,8|8,0:0|0:0,0:0:0:0:
336,229,24025,1,0,0:0:0:0:
180,224,24178,1,8,0:0:0:0:
290,192,24331,2,0,L|340:195,1,43.1999986816407,2|2,0:0|0:0,0:0:0:0:
343,137,24484,2,0,L|296:135,1,43.1999986816407,2|2,0:0|0:0,0:0:0:0:
110,73,24637,6,0,L|18:75,1,86.3999973632813,6|0,0:0|0:0,0:0:0:0:
185,100,24943,1,8,0:0:0:0:
326,95,25096,2,0,P|381:115|323:205,1,172.799994726563,0|2,0:0|0:0,0:0:0:0:
247,201,25556,2,0,L|153:203,1,86.3999973632813,8|0,0:0|0:0,0:0:0:0:
388,150,25862,6,0,P|398:188|277:251,1,172.799994726563,2|8,0:0|0:0,0:0:0:0:
158,263,26321,2,0,L|109:263,1,43.1999986816407,0|0,0:0|0:0,0:0:0:0:
195,242,26474,1,2,0:0:0:0:
232,224,26551,1,0,0:0:0:0:
238,183,26627,1,2,0:0:0:0:
206,157,26704,1,0,0:0:0:0:
120,150,26780,1,8,0:0:0:0:
83,132,26857,1,0,0:0:0:0:
77,91,26933,1,0,0:0:0:0:
109,65,27010,1,0,0:0:0:0:
271,88,27086,6,0,P|321:129|251:201,1,172.799994726563,2|8,0:0|0:0,0:0:0:0:
104,246,27545,2,0,L|157:245,1,43.1999986816407,0|0,0:0|0:0,0:0:0:0:
317,173,27699,6,0,P|366:188|431:258,1,129.599996044922,0|0,0:0|0:0,0:0:0:0:
331,241,28005,2,0,L|231:242,1,86.3999973632813,8|0,0:0|0:0,0:0:0:0:
477,279,28311,5,2,0:0:0:0:
332,275,28464,1,0,0:0:0:0:
295,257,28540,1,0,0:0:0:0:
289,216,28617,1,8,0:0:0:0:
321,190,28693,1,0,0:0:0:0:
361,178,28770,1,0,0:0:0:0:
255,110,28923,6,0,L|211:111,2,43.1999986816407,2|2|2,0:0|0:0|0:0,0:0:0:0:
417,110,29229,2,0,L|461:111,2,43.1999986816407,8|8|8,0:0|0:0|0:0,0:0:0:0:
176,233,29535,6,0,P|126:212|179:134,1,172.799994726563,6|8,0:0|0:0,0:0:0:0:
329,130,29994,2,0,L|386:129,1,43.1999986816407,0|0,0:0|0:0,0:0:0:0:
285,132,30148,2,0,L|111:133,1,172.799994726563,0|8,0:0|0:0,0:0:0:0:
201,184,30607,1,0,0:0:0:0:
442,178,30760,6,0,P|486:214|431:301,1,172.799994726563,2|8,0:0|0:0,0:0:0:0:
349,300,31219,1,0,0:0:0:0:
186,198,31372,2,0,L|100:198,1,86.3999973632813,2|2,0:0|0:0,0:0:0:0:
223,198,31678,2,0,L|309:198,1,86.3999973632813,8|0,0:0|0:0,0:0:0:0:
61,301,31984,6,0,P|26:270|72:205,1,129.599996044922,2|0,0:0|0:0,0:0:0:0:
148,158,32290,2,0,L|251:158,1,86.3999973632813,8|0,0:0|0:0,0:0:0:0:
75,158,32596,1,0,0:0:0:0:
36,171,32673,1,0,0:0:0:0:
26,211,32750,1,2,0:0:0:0:
54,241,32826,1,0,0:0:0:0:
147,258,32903,2,0,L|211:257,1,43.1999986816407,8|0,0:0|0:0,0:0:0:0:
107,305,33056,2,0,L|59:304,1,43.1999986816407,0|0,0:0|0:0,0:0:0:0:
293,125,33362,5,0,0:0:0:0:
333,140,33438,1,0,0:0:0:0:
354,177,33515,1,0,0:0:0:0:
349,219,33591,1,0,0:0:0:0:
319,249,33668,1,0,0:0:0:0:
152,296,33821,2,0,L|261:294,1,86.3999973632813,0|8,0:0|0:0,0:0:0:0:
485,253,34127,2,0,L|489:299,1,43.1999986816407,2|2,0:0|0:0,0:0:0:0:
418,304,34280,2,0,L|336:305,1,43.1999986816407,2|2,0:0|0:0,0:0:0:0:
206,127,34433,6,0,L|115:127,3,72,6|0|8|2,0:0|0:0|0:0|0:0,0:0:0:0:
283,158,35045,2,0,L|374:158,3,72,0|2|8|0,0:0|0:0|0:0|0:0,0:0:0:0:
210,172,35658,6,0,L|202:255,1,72,2|0,0:0|0:0,0:0:0:0:
292,245,35964,2,0,L|300:328,1,72,8|2,0:0|0:0,0:0:0:0:
150,316,36270,2,0,L|64:315,1,72,2|2,0:0|0:0,0:0:0:0:
167,267,36576,2,0,L|246:267,1,72,8|0,0:0|0:0,0:0:0:0:
101,261,36882,5,2,0:0:0:0:
37,236,37035,1,0,0:0:0:0:
24,168,37188,1,8,0:0:0:0:
75,122,37341,1,2,0:0:0:0:
226,86,37494,2,0,L|322:86,1,72,0|2,0:0|0:0,0:0:0:0:
205,136,37801,2,0,L|121:136,1,72,8|0,0:0|0:0,0:0:0:0:
279,139,38107,6,0,P|321:153|302:219,1,108,2|0,0:0|0:0,0:0:0:0:
235,216,38413,2,0,L|188:215,2,36,8|0|0,0:0|0:0|0:0,0:0:0:0:
381,217,38719,5,2,0:0:0:0:
401,246,38795,1,2,0:0:0:0:
401,281,38872,1,2,0:0:0:0:
244,316,39025,1,8,0:0:0:0:
209,316,39102,1,8,0:0:0:0:
180,296,39178,1,8,0:0:0:0:
402,97,39331,6,0,L|411:182,1,72,6|0,0:0|0:0,0:0:0:0:
318,164,39637,2,0,L|309:249,1,72,8|2,0:0|0:0,0:0:0:0:
471,292,39943,2,0,L|312:293,1,144,0|8,0:0|0:0,0:0:0:0:
397,245,40403,1,0,0:0:0:0:
261,243,40556,6,0,P|200:227|226:159,1,144,2|8,0:0|0:0,0:0:0:0:
303,156,41015,1,2,0:0:0:0:
149,153,41168,2,0,L|141:248,1,72,2|2,0:0|0:0,0:0:0:0:
229,227,41474,1,8,0:0:0:0:
71,230,41627,1,0,0:0:0:0:
209,279,41780,6,0,L|288:278,1,72,2|0,0:0|0:0,0:0:0:0:
196,234,42086,2,0,L|120:232,1,72,8|2,0:0|0:0,0:0:0:0:
266,164,42392,6,0,L|187:163,1,72,0|2,0:0|0:0,0:0:0:0:
279,119,42699,2,0,L|355:117,1,72,8|0,0:0|0:0,0:0:0:0:
196,234,43005,5,2,0:0:0:0:
164,222,43081,1,0,0:0:0:0:
153,189,43158,1,8,0:0:0:0:
173,160,43234,1,0,0:0:0:0:
253,155,43311,1,0,0:0:0:0:
285,143,43387,1,0,0:0:0:0:
296,110,43464,1,2,0:0:0:0:
276,82,43540,1,0,0:0:0:0:
126,68,43617,6,0,L|129:107,1,36,8|8,0:0|0:0,0:0:0:0:
202,107,43770,2,0,L|242:112,1,36,2|0,0:0|0:0,0:0:0:0:
90,115,43923,1,2,0:0:0:0:
74,124,43961,1,0,0:0:0:0:
63,138,44000,1,2,0:0:0:0:
56,154,44038,1,0,0:0:0:0:
54,172,44076,1,2,0:0:0:0:
58,190,44114,1,0,0:0:0:0:
67,205,44153,1,2,0:0:0:0:
225,239,44229,6,0,L|303:239,1,72,6|0,0:0|0:0,0:0:0:0:
165,167,44535,2,0,L|243:167,1,72,8|2,0:0|0:0,0:0:0:0:
394,156,44841,2,0,L|316:156,1,72,0|2,0:0|0:0,0:0:0:0:
454,84,45148,2,0,L|376:84,1,72,8|0,0:0|0:0,0:0:0:0:
159,81,45454,6,0,L|156:161,1,72,2|0,0:0|0:0,0:0:0:0:
283,199,45760,2,0,L|206:199,1,72,8|2,0:0|0:0,0:0:0:0:
356,126,46066,1,2,0:0:0:0:
211,125,46219,1,2,0:0:0:0:
327,162,46372,2,0,L|409:163,1,72,8|0,0:0|0:0,0:0:0:0:
267,221,46678,6,0,L|343:221,1,72,2|0,0:0|0:0,0:0:0:0:
221,179,46984,2,0,L|145:179,1,72,8|2,0:0|0:0,0:0:0:0:
267,116,47290,1,0,0:0:0:0:
99,119,47443,1,2,0:0:0:0:
226,63,47596,2,0,L|313:64,1,72,8|0,0:0|0:0,0:0:0:0:
66,67,47903,6,0,P|32:82|57:146,1,108,2|0,0:0|0:0,0:0:0:0:
132,148,48209,1,8,0:0:0:0:
167,147,48285,1,0,0:0:0:0:
194,125,48362,1,0,0:0:0:0:
68,43,48515,6,0,L|21:43,2,36,2|2|2,0:0|0:0|0:0,0:0:0:0:
221,53,48821,1,8,0:0:0:0:
194,75,48898,1,8,0:0:0:0:
159,76,48974,1,8,0:0:0:0:
380,132,49127,6,0,P|425:137|491:211,2,144,6|8|0,0:0|0:0|0:0,0:0:0:0:
225,134,49892,1,2,0:0:0:0:
348,187,50045,2,0,L|430:189,1,72,8|0,0:0|0:0,0:0:0:0:
195,188,50352,6,0,L|114:189,2,72,2|0|8,0:0|0:0|0:0,0:0:0:0:
352,121,50811,1,2,0:0:0:0:
224,114,50964,2,0,L|137:113,1,72,2|2,0:0|0:0,0:0:0:0:
275,58,51270,1,8,0:0:0:0:
111,55,51423,1,0,0:0:0:0:
341,107,51576,6,0,L|351:195,1,72,2|0,0:0|0:0,0:0:0:0:
241,183,51882,2,0,L|231:271,1,72,8|2,0:0|0:0,0:0:0:0:
392,288,52188,2,0,L|301:288,1,72,0|2,0:0|0:0,0:0:0:0:
216,230,52494,2,0,L|307:230,1,72,8|0,0:0|0:0,0:0:0:0:
148,159,52801,5,6,0:0:0:0:
380,159,52954,2,0,P|424:175|480:256,1,144,8|2,0:0|0:0,0:0:0:0:
252,265,53413,1,8,0:0:0:0:
203,255,53489,1,8,0:0:0:0:
182,210,53566,1,2,0:0:0:0:
312,192,53719,1,2,0:0:0:0:
349,174,53795,1,2,0:0:0:0:
355,133,53872,1,2,0:0:0:0:
323,107,53949,1,2,0:0:0:0:
161,190,54025,6,0,P|101:137|140:102,1,144,6|2,0:0|0:0,0:0:0:0:
329,35,54637,2,0,L|184:36,1,144,2|2,0:0|0:0,0:0:0:0:
351,190,55250,6,0,P|411:137|372:102,1,144,2|2,0:0|0:0,0:0:0:0:
183,35,55862,2,0,L|328:36,1,144,2|2,0:0|0:0,0:0:0:0:
161,91,56474,6,0,P|130:134|142:224,1,144,2|2,0:0|0:0,0:0:0:0:
351,91,57086,2,0,P|382:134|370:224,1,144,2|2,0:0|0:0,0:0:0:0:
128,128,57699,5,2,0:0:0:0:
256,160,58005,1,2,0:0:0:0:
384,128,58311,1,2,0:0:0:0:
126,196,58617,2,0,L|202:198,1,72,2|2,0:0|0:0,0:0:0:0:
352,133,58923,6,0,L|280:133,1,72,2|2,0:0|0:0,0:0:0:0:
413,130,59229,2,0,L|422:205,1,72,2|2,0:0|0:0,0:0:0:0:
288,196,59535,2,0,L|279:271,1,72,2|2,0:0|0:0,0:0:0:0:
436,262,59841,2,0,L|445:337,1,72,2|2,0:0|0:0,0:0:0:0:
294,330,60148,6,0,L|366:330,1,72,2|2,0:0|0:0,0:0:0:0:
233,333,60454,2,0,L|224:258,1,72,2|2,0:0|0:0,0:0:0:0:
358,267,60760,2,0,L|367:192,1,72,2|2,0:0|0:0,0:0:0:0:
210,201,61066,2,0,L|201:126,1,72,2|2,0:0|0:0,0:0:0:0:
361,222,61372,5,2,0:0:0:0:
396,216,61449,1,2,0:0:0:0:
423,194,61525,1,2,0:0:0:0:
437,160,61602,1,2,0:0:0:0:
432,125,61678,1,2,0:0:0:0:
410,97,61755,1,2,0:0:0:0:
378,83,61831,1,2,0:0:0:0:
151,222,61984,1,2,0:0:0:0:
115,216,62061,1,2,0:0:0:0:
88,194,62137,1,2,0:0:0:0:
74,160,62214,1,2,0:0:0:0:
79,125,62290,1,2,0:0:0:0:
101,97,62367,1,2,0:0:0:0:
133,83,62443,1,2,0:0:0:0:
369,84,62596,5,0,0:0:0:0:
238,100,62750,2,0,L|233:140,5,36,0|0|0|0|0|0,0:0|0:0|0:0|0:0|0:0|0:0,0:0:0:0:
383,175,63209,6,0,L|504:176,1,108.000004119873,0|0,0:0|0:0,0:0:0:0:
221,190,63515,2,0,L|155:189,1,43.1999986816407,8|2,0:0|0:0,0:0:0:0:
166,130,63668,2,0,L|216:131,1,43.1999986816407,2|2,0:0|0:0,0:0:0:0:
394,75,63821,6,0,L|521:75,2,93.5999957153322,6|0|8,0:0|0:0|0:0,0:0:0:0:
240,74,64280,2,0,P|173:91|216:184,1,187.199991430664,0|0,0:0|0:0,0:0:0:0:
322,190,64739,2,0,L|425:190,1,93.5999957153322,8|0,0:0|0:0,0:0:0:0:
194,308,65045,6,0,P|127:291|170:198,1,187.199991430664,2|8,0:0|0:0,0:0:0:0:
314,132,65505,2,0,L|369:132,1,46.7999978576661,0|0,0:0|0:0,0:0:0:0:
278,135,65658,1,2,0:0:0:0:
236,151,65734,1,0,0:0:0:0:
226,195,65811,1,0,0:0:0:0:
257,227,65887,1,0,0:0:0:0:
339,228,65964,1,8,0:0:0:0:
381,244,66040,1,0,0:0:0:0:
391,288,66117,1,0,0:0:0:0:
360,320,66193,1,0,0:0:0:0:
201,283,66270,6,0,P|134:250|181:155,1,187.199991430664,2|8,0:0|0:0,0:0:0:0:
321,129,66729,2,0,L|400:130,1,46.7999978576661,0|0,0:0|0:0,0:0:0:0:
178,102,66882,6,0,P|126:107|61:168,1,140.399993572998,2|0,0:0|0:0,0:0:0:0:
151,181,67188,2,0,L|253:180,1,93.5999957153322,8|0,0:0|0:0,0:0:0:0:
474,180,67494,5,2,0:0:0:0:
340,163,67648,2,0,L|285:164,1,46.7999978576661,0|0,0:0|0:0,0:0:0:0:
362,165,67801,1,8,0:0:0:0:
402,145,67877,1,0,0:0:0:0:
409,100,67954,1,0,0:0:0:0:
378,68,68030,1,0,0:0:0:0:
286,52,68107,2,0,L|142:52,1,140.399993572998,2|0,0:0|0:0,0:0:0:0:
234,93,68413,2,0,L|298:94,1,46.7999978576661,8|0,0:0|0:0,0:0:0:0:
305,153,68566,1,0,0:0:0:0:
51,152,68719,6,0,P|27:198|146:252,1,187.199991430664,6|8,0:0|0:0,0:0:0:0:
263,250,69178,2,0,L|336:249,1,46.7999978576661,0|0,0:0|0:0,0:0:0:0:
228,182,69331,2,0,L|109:178,1,93.5999957153322,2|0,0:0|0:0,0:0:0:0:
260,129,69637,2,0,P|318:197|282:231,1,140.399993572998,8|0,0:0|0:0,0:0:0:0:
137,226,69943,6,0,P|83:254|133:321,1,140.399993572998,2|0,0:0|0:0,0:0:0:0:
194,317,70250,2,0,L|296:319,1,93.5999957153322,8|0,0:0|0:0,0:0:0:0:
154,270,70556,2,0,L|145:157,1,93.5999957153322,2|0,0:0|0:0,0:0:0:0:
250,114,70862,2,0,L|148:116,1,93.5999957153322,8|0,0:0|0:0,0:0:0:0:
392,124,71168,6,0,P|446:141|419:250,1,187.199991430664,2|8,0:0|0:0,0:0:0:0:
328,252,71627,1,0,0:0:0:0:
172,192,71780,2,0,L|241:190,1,46.7999978576661,2|0,0:0|0:0,0:0:0:0:
282,148,71933,2,0,L|213:146,1,46.7999978576661,0|0,0:0|0:0,0:0:0:0:
171,144,72086,2,0,L|118:144,2,46.7999978576661,8|0|0,0:0|0:0|0:0,0:0:0:0:
336,72,72392,5,2,0:0:0:0:
111,73,72545,1,8,0:0:0:0:
69,91,72622,1,0,0:0:0:0:
52,133,72699,1,0,0:0:0:0:
69,175,72775,1,0,0:0:0:0:
111,192,72852,1,0,0:0:0:0:
260,184,73005,2,0,L|311:185,2,46.7999978576661,8|8|8,0:0|0:0|0:0,0:0:0:0:
127,218,73311,1,2,0:0:0:0:
86,237,73387,1,2,0:0:0:0:
79,282,73464,1,2,0:0:0:0:
111,313,73540,1,2,0:0:0:0:
262,257,73617,6,0,L|376:257,2,93.5999957153322,6|0|8,0:0|0:0|0:0,0:0:0:0:
411,295,74076,2,0,P|464:267|393:184,1,187.199991430664,0|0,0:0|0:0,0:0:0:0:
285,124,74535,2,0,L|391:124,1,93.5999957153322,8|0,0:0|0:0,0:0:0:0:
159,122,74841,6,0,P|104:152|150:216,1,140.399993572998,2|0,0:0|0:0,0:0:0:0:
214,209,75148,1,8,0:0:0:0:
371,203,75301,2,0,L|417:203,1,46.7999978576661,0|0,0:0|0:0,0:0:0:0:
341,203,75454,1,2,0:0:0:0:
297,196,75530,1,0,0:0:0:0:
282,154,75607,1,0,0:0:0:0:
314,123,75683,1,0,0:0:0:0:
385,76,75760,2,0,L|447:76,1,46.7999978576661,8|0,0:0|0:0,0:0:0:0:
347,101,75913,2,0,L|285:101,1,46.7999978576661,0|0,0:0|0:0,0:0:0:0:
145,97,76066,6,0,P|94:122|157:228,1,187.199991430664,2|8,0:0|0:0,0:0:0:0:
275,223,76525,2,0,L|326:222,1,46.7999978576661,0|0,0:0|0:0,0:0:0:0:
158,169,76678,6,0,P|91:180|21:228,1,140.399993572998,2|0,0:0|0:0,0:0:0:0:
119,239,76984,2,0,L|216:237,1,93.5999957153322,8|0,0:0|0:0,0:0:0:0:
454,168,77290,5,2,0:0:0:0:
326,166,77443,2,0,L|321:221,1,46.7999978576661,0|0,0:0|0:0,0:0:0:0:
404,221,77596,1,8,0:0:0:0:
446,208,77673,1,0,0:0:0:0:
456,165,77750,1,0,0:0:0:0:
422,136,77826,1,0,0:0:0:0:
326,100,77903,2,0,L|179:101,1,140.399993572998,2|0,0:0|0:0,0:0:0:0:
279,52,78209,1,8,0:0:0:0:
330,52,78285,1,8,0:0:0:0:
372,52,78362,1,8,0:0:0:0:
139,53,78515,6,0,P|91:73|129:188,1,187.199991430664,6|8,0:0|0:0,0:0:0:0:
261,186,78974,2,0,L|333:186,1,46.7999978576661,0|0,0:0|0:0,0:0:0:0:
221,226,79127,2,0,P|167:263|231:325,1,140.399993572998,2|0,0:0|0:0,0:0:0:0:
276,323,79433,2,0,L|374:324,1,93.5999957153322,8|0,0:0|0:0,0:0:0:0:
141,323,79739,6,0,P|76:293|126:222,1,140.399993572998,2|0,0:0|0:0,0:0:0:0:
181,205,80045,2,0,L|281:207,1,93.5999957153322,8|0,0:0|0:0,0:0:0:0:
121,205,80352,2,0,L|116:324,1,93.5999957153322,2|0,0:0|0:0,0:0:0:0:
239,334,80658,2,0,L|139:336,1,93.5999957153322,8|0,0:0|0:0,0:0:0:0:
371,327,80964,6,0,P|424:303|388:232,1,140.399993572998,2|0,0:0|0:0,0:0:0:0:
320,206,81270,2,0,L|218:205,1,93.5999957153322,8|0,0:0|0:0,0:0:0:0:
382,148,81576,1,2,0:0:0:0:
423,131,81653,1,0,0:0:0:0:
433,87,81729,1,0,0:0:0:0:
401,55,81806,1,0,0:0:0:0:
316,50,81882,2,0,L|266:50,1,46.7999978576661,8|0,0:0|0:0,0:0:0:0:
339,93,82035,2,0,L|395:92,1,46.7999978576661,0|0,0:0|0:0,0:0:0:0:
172,138,82341,6,0,L|159:207,4,46.7999978576661,0|0|0|0|0,0:0|0:0|0:0|0:0|0:0,0:0:0:0:
392,196,82801,2,0,L|459:196,1,46.7999978576661,8|8,0:0|0:0,0:0:0:0:
456,241,82954,1,8,0:0:0:0:
320,246,83107,1,2,0:0:0:0:
337,291,83183,2,0,L|383:291,1,46.7999978576661,2|2,0:0|0:0,0:0:0:0:
124,116,83413,6,0,P|70:139|117:292,1,237.600007250977,6|0,0:0|0:0,0:0:0:0:
324,200,84025,6,0,L|330:231,4,19.8000006042481,8|0|0|0|0,0:0|0:0|0:0|0:0|0:0,0:0:0:0:
186,155,84331,1,0,0:0:0:0:
326,133,84484,1,0,0:0:0:0:
187,78,84637,6,0,P|147:105|171:276,1,237.600007250977,2|0,0:0|0:0,0:0:0:0:
434,342,85250,5,8,0:0:0:0:
446,326,85288,1,0,0:0:0:0:
456,309,85326,1,0,0:0:0:0:
464,291,85364,1,0,0:0:0:0:
470,272,85403,1,0,0:0:0:0:
474,253,85441,1,0,0:0:0:0:
475,233,85479,1,0,0:0:0:0:
473,213,85517,1,0,0:0:0:0:
470,194,85556,1,0,0:0:0:0:
463,175,85594,1,0,0:0:0:0:
455,157,85632,1,0,0:0:0:0:
444,140,85670,1,0,0:0:0:0:
432,125,85709,1,2,0:0:0:0:
287,105,85862,6,0,P|252:172|255:344,1,237.600007250977,2|0,0:0|0:0,0:0:0:0:
477,225,86474,6,0,L|483:183,2,39.6000012084961,8|0|0,0:0|0:0|0:0,0:0:0:0:
352,167,86780,1,0,0:0:0:0:
476,226,86933,1,0,0:0:0:0:
355,217,87086,6,0,P|332:183|445:54,1,237.600007250977,2|2,0:0|0:0,0:0:0:0:
318,48,87699,2,0,L|233:48,1,79.2000024169923,8|0,0:0|0:0,0:0:0:0:
125,80,88005,2,0,L|121:168,1,79.2000024169923,0|0,0:0|0:0,0:0:0:0:
388,116,88311,6,0,P|442:139|395:292,1,237.600007250977,6|0,0:0|0:0,0:0:0:0:
188,200,88923,6,0,L|182:231,4,19.8000006042481,8|0|0|0|2,0:0|0:0|0:0|0:0|0:0,0:0:0:0:
326,155,89229,1,0,0:0:0:0:
186,133,89382,1,0,0:0:0:0:
325,78,89535,2,0,P|365:105|341:276,1,237.600007250977,2|0,0:0|0:0,0:0:0:0:
78,342,90148,5,8,0:0:0:0:
66,326,90186,1,0,0:0:0:0:
56,309,90224,1,0,0:0:0:0:
48,291,90262,1,0,0:0:0:0:
42,272,90301,1,0,0:0:0:0:
38,253,90339,1,0,0:0:0:0:
37,233,90377,1,0,0:0:0:0:
39,213,90415,1,0,0:0:0:0:
42,194,90454,1,2,0:0:0:0:
49,175,90492,1,0,0:0:0:0:
57,157,90530,1,0,0:0:0:0:
68,140,90568,1,0,0:0:0:0:
80,125,90607,1,2,0:0:0:0:
225,105,90760,6,0,P|260:172|257:344,1,237.600007250977,2|0,0:0|0:0,0:0:0:0:
35,225,91372,6,0,L|29:183,2,39.6000012084961,8|0|0,0:0|0:0|0:0,0:0:0:0:
160,167,91678,1,0,0:0:0:0:
36,226,91831,1,0,0:0:0:0:
261,228,91984,5,2,0:0:0:0:
297,218,92061,1,2,0:0:0:0:
305,181,92137,1,2,0:0:0:0:
275,158,92214,1,2,0:0:0:0:
189,141,92290,2,0,L|182:91,1,39.6000012084961,2|2,0:0|0:0,0:0:0:0:
262,60,92443,2,0,L|319:62,1,39.6000012084961,2|2,0:0|0:0,0:0:0:0:
144,64,92596,5,2,0:0:0:0:
108,74,92673,1,2,0:0:0:0:
100,111,92750,1,2,0:0:0:0:
130,134,92826,1,2,0:0:0:0:
290,137,92903,1,8,0:0:0:0:
306,147,92941,1,0,0:0:0:0:
317,163,92979,1,8,0:0:0:0:
321,183,93017,1,0,0:0:0:0:
317,202,93056,1,8,0:0:0:0:
306,218,93094,1,0,0:0:0:0:
290,229,93132,1,8,0:0:0:0:
127,231,93209,6,0,L|44:230,1,79.2000024169923,6|0,0:0|0:0,0:0:0:0:
175,175,93515,2,0,L|258:174,1,79.2000024169923,8|0,0:0|0:0,0:0:0:0:
110,112,93821,2,0,L|189:112,1,79.2000024169923,2|0,0:0|0:0,0:0:0:0:
317,56,94127,2,0,L|237:56,1,79.2000024169923,8|0,0:0|0:0,0:0:0:0:
456,61,94433,6,0,L|471:151,1,79.2000024169923,2|0,0:0|0:0,0:0:0:0:
342,154,94739,2,0,L|425:156,1,79.2000024169923,8|0,0:0|0:0,0:0:0:0:
300,192,95045,1,2,0:0:0:0:
455,200,95199,1,0,0:0:0:0:
335,234,95352,2,0,L|244:234,1,79.2000024169923,8|0,0:0|0:0,0:0:0:0:
473,43,95658,6,0,L|482:136,1,79.2000024169923,2|0,0:0|0:0,0:0:0:0:
347,102,95964,2,0,L|250:102,1,79.2000024169923,8|0,0:0|0:0,0:0:0:0:
144,107,96270,1,2,0:0:0:0:
299,162,96423,1,0,0:0:0:0:
169,169,96576,2,0,L|80:171,1,79.2000024169923,8|0,0:0|0:0,0:0:0:0:
326,116,96882,6,0,L|414:116,1,79.2000024169923,2|0,0:0|0:0,0:0:0:0:
262,134,97188,1,8,0:0:0:0:
248,170,97265,1,0,0:0:0:0:
249,209,97341,1,0,0:0:0:0:
397,228,97494,2,0,L|297:228,1,79.2000024169923,2|0,0:0|0:0,0:0:0:0:
163,227,97801,2,0,L|113:228,2,39.6000012084961,8|8|8,0:0|0:0|0:0,0:0:0:0:
392,127,98107,6,0,L|401:220,1,79.2000024169923,6|0,0:0|0:0,0:0:0:0:
270,216,98413,2,0,L|363:207,1,79.2000024169923,8|0,0:0|0:0,0:0:0:0:
188,246,98719,2,0,P|126:229|161:152,1,158.400004833985,2|8,0:0|0:0,0:0:0:0:
251,154,99178,1,0,0:0:0:0:
28,132,99331,6,0,L|22:212,1,79.2000024169923,2|0,0:0|0:0,0:0:0:0:
163,231,99637,2,0,L|83:225,1,79.2000024169923,8|0,0:0|0:0,0:0:0:0:
223,227,99943,2,0,L|229:307,1,79.2000024169923,2|0,0:0|0:0,0:0:0:0:
97,323,100250,1,8,0:0:0:0:
249,343,100403,1,0,0:0:0:0:
476,246,100556,6,0,L|485:328,1,79.2000024169923,2|0,0:0|0:0,0:0:0:0:
364,325,100862,2,0,P|316:323|275:325,1,79.2000024169923,8|0,0:0|0:0,0:0:0:0:
156,313,101168,2,0,L|165:231,1,79.2000024169923,2|0,0:0|0:0,0:0:0:0:
279,222,101474,2,0,L|368:222,1,79.2000024169923,8|0,0:0|0:0,0:0:0:0:
204,140,101780,5,2,0:0:0:0:
431,142,101933,2,0,P|476:165|446:260,1,158.400004833985,8|2,0:0|0:0,0:0:0:0:
226,255,102392,2,0,L|184:256,2,39.6000012084961,8|8|2,0:0|0:0|0:0,0:0:0:0:
340,215,102699,1,2,0:0:0:0:
377,197,102775,1,2,0:0:0:0:
383,156,102852,1,2,0:0:0:0:
351,130,102928,1,2,0:0:0:0:
161,97,103005,6,0,L|81:97,1,72,4|0,0:0|0:0,0:0:0:0:
214,135,103311,2,0,L|294:135,1,72,0|0,0:0|0:0,0:0:0:0:
76,171,103770,2,0,L|71:247,1,72,0|0,0:0|0:0,0:0:0:0:
238,266,104229,6,0,L|71:264,1,144,0|0,0:0|0:0,0:0:0:0:
243,174,104688,2,0,L|289:173,1,36,0|0,0:0|0:0,0:0:0:0:
243,174,104841,1,0,0:0:0:0:
210,162,104918,1,0,0:0:0:0:
186,136,104994,1,0,0:0:0:0:
177,101,105071,1,0,0:0:0:0:
185,66,105148,1,0,0:0:0:0:
209,40,105224,1,0,0:0:0:0:
243,28,105301,1,0,0:0:0:0:
363,31,105454,5,0,0:0:0:0:
161,157,105913,2,0,L|122:158,3,24,0|0|0|0,0:0|0:0|0:0|0:0,0:0:0:0:
324,158,106372,1,0,0:0:0:0:
159,232,106678,5,0,0:0:0:0:
286,232,106831,2,0,L|325:232,1,36,0|0,0:0|0:0,0:0:0:0:
286,232,106984,1,0,0:0:0:0:
251,230,107061,1,0,0:0:0:0:
219,214,107137,1,0,0:0:0:0:
198,186,107214,1,0,0:0:0:0:
190,151,107290,1,0,0:0:0:0:
403,149,107903,5,0,0:0:0:0:
204,74,108362,2,0,L|202:114,1,36,0|0,0:0|0:0,0:0:0:0:
274,125,108515,2,0,L|419:127,1,144,0|0,0:0|0:0,0:0:0:0:
184,173,109127,5,0,0:0:0:0:
364,238,109739,2,0,L|243:339,2,144,0|0|0,0:0|0:0|0:0,0:0:0:0:
143,103,110964,2,0,L|137:143,3,36,0|0|0|0,0:0|0:0|0:0|0:0,0:0:0:0:
230,157,111270,1,0,0:0:0:0:
263,164,111346,1,0,0:0:0:0:
271,197,111423,1,0,0:0:0:0:
246,219,111500,1,0,0:0:0:0:
181,222,111576,5,0,0:0:0:0:
325,272,111729,1,0,0:0:0:0:
357,258,111806,1,0,0:0:0:0:
380,230,111882,1,0,0:0:0:0:
388,195,111959,1,0,0:0:0:0:
378,161,112035,1,0,0:0:0:0:
354,135,112112,1,0,0:0:0:0:
321,122,112188,1,0,0:0:0:0:
205,48,112341,2,0,L|371:193,1,216,0|0,0:0|0:0,0:0:0:0:
