osu file format v14

[General]
AudioFilename: audio.mp3
AudioLeadIn: 0
PreviewTime:63744
Countdown: 0
SampleSet: Soft
StackLeniency: 0.7
Mode: 2
LetterboxInBreaks: 0
WidescreenStoryboard: 1

[Editor]
DistanceSpacing: 1.7
BeatDivisor: 4
GridSize: 32
TimelineZoom: 3.499999

[Metadata]
Title:Yuujou
TitleUnicode:Yuujou
Artist:Thaehan
ArtistUnicode:Thaehan
Creator:Ascendance
Version:Sinnoh's Rain
Source:osu!
Tags:mapping olympiad contest sinnoh instrumental electronic featured artist chiptune loki bwa mappers guild mpg fa
BeatmapID:2597839
BeatmapSetID:1249928

[Difficulty]
HPDrainRate:6
CircleSize:3.7
OverallDifficulty:9
ApproachRate:9
SliderMultiplier:2
SliderTickRate:2

[Events]
//Background and Video events
0,0,"ascendance please compress images -_-.jpg"
//Break Periods
//Storyboard Layer 0 (Background)
//Storyboard Layer 1 (Fail)
//Storyboard Layer 2 (Pass)
//Storyboard Layer 3 (Foreground)
//Storyboard Layer 4 (Overlay)
//Storyboard Sound Samples

[TimingPoints]
140,306.122448979592,4,2,61,20,1,0
5037,-100,4,2,61,40,0,0
13609,-100,4,2,61,50,0,0
14833,-100,4,2,61,70,0,0
33201,-100,4,2,61,50,0,0
34119,-100,4,2,61,60,0,0
44221,-100,4,2,61,70,0,0
52793,-100,4,2,61,60,0,0
53405,-100,4,2,61,50,0,0
53711,-100,4,2,61,40,0,0
54017,-100,4,2,0,40,0,0
54553,-100,4,2,66,40,0,0
54706,-100,4,2,0,40,0,0
58915,-100,4,2,0,30,0,0
59527,-100,4,2,0,40,0,0
60140,-100,4,2,0,50,0,0
60752,-100,4,2,0,60,0,0
63507,-100,4,2,61,80,0,0
63813,-100,4,2,61,80,0,1
64349,-100,4,2,64,80,0,1
64502,-100,4,2,61,80,0,1
74221,-100,4,2,64,80,0,1
74374,-100,4,2,61,80,0,1
82180,-100,4,2,61,50,0,0
83099,-100,4,2,61,70,0,0
83405,-66.6666666666667,4,2,61,80,0,0
83443,-66.6666666666667,4,2,61,60,0,0
84017,-100,4,2,11,80,0,0
84170,-100,4,2,64,80,0,0
84322,-100,4,2,11,80,0,0
84629,-100,4,2,61,80,0,0
84668,-100,4,2,61,60,0,0
85242,-100,4,2,0,80,0,0
85280,-100,4,2,61,60,0,0
85854,-66.6666666666667,4,2,61,80,0,0
86466,-100,4,2,12,80,0,0
87078,-100,4,2,13,80,0,0
87308,-100,4,2,13,5,0,0
87384,-66.6666666666667,4,2,13,80,0,0
87537,-66.6666666666667,4,2,64,80,0,0
87614,-66.6666666666667,4,2,13,5,0,0
87691,-66.6666666666667,4,2,13,80,0,0
87920,-66.6666666666667,4,2,13,5,0,0
87997,-66.6666666666667,4,2,13,80,0,0
88226,-66.6666666666667,4,2,61,5,0,0
88303,-66.6666666666667,4,2,61,80,0,0
88341,-66.6666666666667,4,2,61,60,0,0
88915,-100,4,2,11,80,0,0
89068,-100,4,2,64,80,0,0
89145,-100,4,2,11,80,0,0
89527,-100,4,2,61,80,0,0
89566,-100,4,2,61,60,0,0
90140,-100,4,2,0,80,0,0
90178,-100,4,2,61,60,0,0
90752,-66.6666666666667,4,2,61,80,0,0
91364,-100,4,2,12,80,0,0
91976,-100,4,2,61,50,0,0
92282,-100,4,2,61,60,0,0
92588,-100,4,2,61,70,0,0
92895,-100,4,2,61,80,0,0
101772,-100,4,2,61,70,0,0
103150,-100,4,2,61,50,0,0
111721,-100,4,2,61,35,0,0
112333,-100,4,2,61,25,0,0

[Colours]
Combo1 : 255,226,140
Combo2 : 255,157,206
Combo3 : 125,184,255
Combo4 : 125,255,125

[HitObjects]
397,297,140,5,2,0:0:0:0:
443,212,293,1,0,0:0:0:0:
399,127,446,1,0,0:0:0:0:
304,115,599,1,2,0:0:0:0:
158,161,904,2,0,L|172:57,1,100
397,297,1365,5,2,0:0:0:0:
443,212,1518,1,0,0:0:0:0:
399,127,1671,1,0,0:0:0:0:
304,115,1824,1,2,0:0:0:0:
158,161,2130,2,0,L|172:57,1,100
389,315,2588,5,2,0:0:0:0:
372,231,2742,1,0,0:0:0:0:
261,270,2895,1,2,0:0:0:0:
244,186,3049,1,0,0:0:0:0:
389,315,3201,1,2,0:0:0:0:
372,231,3355,1,0,0:0:0:0:
261,270,3508,1,0,0:0:0:0:
244,186,3660,1,0,0:0:0:0:
116,309,3813,5,2,0:0:0:0:
124,209,3966,1,2,0:0:0:0:
132,109,4119,1,2,0:0:0:0:
140,10,4272,1,2,0:0:0:0:
257,320,4425,1,2,0:0:0:0:
265,220,4578,1,2,0:0:0:0:
273,120,4731,1,2,0:0:0:0:
281,21,4884,1,2,0:0:0:0:
430,225,5038,5,4,0:3:0:0:
250,304,5344,1,8,0:3:0:0:
178,266,5497,2,0,P|150:195|249:114,1,200,2|4,0:0|0:3,0:0:0:0:
343,119,5955,1,8,0:3:0:0:
148,308,6262,6,0,L|137:96,1,200,4|8,0:3|0:3,0:0:0:0:
253,283,6721,2,0,L|331:283,1,50
364,284,6874,1,4,0:3:0:0:
390,241,6950,1,0,0:0:0:0:
397,192,7027,1,4,0:3:0:0:
384,144,7103,1,0,0:0:0:0:
353,105,7180,1,8,0:3:0:0:
309,82,7256,1,0,0:0:0:0:
259,78,7333,1,0,0:0:0:0:
202,81,7410,1,0,0:0:0:0:
147,216,7486,6,0,P|137:135|240:69,1,200,4|8,0:3|0:3,0:0:0:0:
333,223,7946,1,0,0:0:0:0:
330,189,7997,1,0,0:0:0:0:
304,165,8048,1,0,0:0:0:0:
270,149,8099,2,0,L|167:113,1,100,2|4,0:0|0:3,0:0:0:0:
48,134,8404,1,8,0:3:0:0:
297,266,8711,5,4,0:3:0:0:
408,203,8864,2,0,L|344:192,1,50
294,216,9017,1,8,0:3:0:0:
252,191,9093,1,0,0:0:0:0:
238,144,9170,1,0,0:0:0:0:
259,100,9246,1,0,0:0:0:0:
304,82,9323,2,0,L|331:6,2,50,4|4|4,0:3|0:3|0:3,0:0:0:0:
188,92,9629,2,0,L|113:94,2,50,8|8|8,0:3|0:3|0:3,0:0:0:0:
355,285,9935,6,0,P|408:240|312:178,1,200,4|8,0:3|0:3,0:0:0:0:
213,205,10395,2,0,L|170:146,1,50
169,104,10548,2,0,L|181:0,1,100,0|4,0:0|0:3,0:0:0:0:
315,145,10854,2,0,L|331:1,1,100,8|0,0:3|0:0,0:0:0:0:
184,265,11160,6,0,P|105:197|173:127,1,200,4|8,0:3|0:3,0:0:0:0:
384,192,11772,2,0,L|376:80,1,100,4|4,0:3|0:3,0:0:0:0:
271,201,12078,2,0,L|78:117,1,200,8|4,0:3|0:3,0:0:0:0:
296,288,12691,2,0,L|273:157,1,100,8|0,0:3|0:0,0:0:0:0:
165,245,12997,5,0,0:0:0:0:
134,185,13073,1,0,0:0:0:0:
145,122,13150,1,4,0:3:0:0:
198,75,13226,1,0,0:0:0:0:
240,224,13303,1,8,0:3:0:0:
269,164,13379,1,0,0:0:0:0:
257,101,13456,1,0,0:0:0:0:
204,55,13532,1,0,0:0:0:0:
123,170,13609,5,8,0:3:0:0:
383,269,13762,1,4,0:3:0:0:
403,224,13838,1,0,0:0:0:0:
392,176,13915,1,0,0:0:0:0:
355,143,13991,1,0,0:0:0:0:
213,131,14068,2,0,L|124:108,1,50,8|8,0:3|0:3,0:0:0:0:
337,252,14221,1,4,0:3:0:0:
426,170,14374,1,10,0:3:0:0:
211,237,14527,2,0,L|174:186,1,50,4|8,0:3|0:3,0:0:0:0:
227,178,14680,2,0,L|287:156,1,50,4|4,0:3|0:3,0:0:0:0:
116,119,14833,6,0,L|15:93,2,100,6|0|8,3:2|0:0|0:0,0:0:0:0:
262,276,15293,2,0,P|340:230|317:107,1,200,2|0,0:2|3:0,0:0:0:0:
222,133,15752,2,0,L|122:99,1,100,8|0,0:0|0:0,0:0:0:0:
402,255,16058,6,0,L|414:124,1,100,2|0,3:2|0:0,0:0:0:0:
289,157,16364,1,8,0:0:0:0:
184,134,16517,2,0,L|250:113,1,50
374,288,16670,1,0,3:2:0:0:
397,244,16746,1,0,0:0:0:0:
397,195,16823,1,0,3:0:0:0:
372,152,16899,1,0,0:0:0:0:
323,121,16976,2,0,L|271:105,1,50,8|0,0:0|0:0,0:0:0:0:
210,92,17130,2,0,L|304:63,1,50
429,248,17282,6,0,P|466:164|349:114,1,200,0|8,3:0|0:0,0:0:0:0:
139,211,17742,1,0,0:0:0:0:
136,177,17793,1,0,0:0:0:0:
145,145,17844,1,0,0:0:0:0:
163,118,17895,2,0,L|286:108,1,100,2|0,0:0|3:0,0:0:0:0:
414,121,18201,2,0,L|299:94,1,100,10|0,0:2|0:0,0:0:0:0:
167,243,18507,5,0,3:0:0:0:
284,239,18660,2,0,L|275:166,1,50
207,186,18813,1,10,0:0:0:0:
160,173,18889,1,0,0:0:0:0:
144,128,18966,1,0,0:0:0:0:
171,88,19042,1,0,0:0:0:0:
336,170,19120,2,0,L|409:166,2,50,0|0|0,3:0|3:0|3:0,0:0:0:0:
107,179,19425,2,0,L|34:175,2,50,8|8|8,3:3|3:3|3:3,0:0:0:0:
434,261,19731,6,0,P|429:198|300:149,1,200,6|8,3:2|0:0,0:0:0:0:
191,113,20191,2,0,L|282:91,1,50
300,205,20344,2,0,L|303:80,1,100,2|0,0:0|3:0,0:0:0:0:
164,150,20650,2,0,L|65:116,1,100,10|0,0:0|0:0,0:0:0:0:
354,306,20956,6,0,P|405:264|321:184,1,200,2|8,3:2|0:0,0:0:0:0:
225,175,21415,1,0,0:0:0:0:
124,124,21568,2,0,L|249:97,1,100,2|0,3:2|3:0,0:0:0:0:
352,91,21874,2,0,L|230:71,1,100,10|0,0:2|0:0,0:0:0:0:
30,232,22180,6,0,P|26:152|141:88,1,200,2|8,3:2|0:0,0:0:0:0:
224,176,22640,1,0,0:0:0:0:
460,224,22793,1,2,0:2:0:0:
475,177,22869,1,0,0:0:0:0:
458,131,22946,1,0,3:0:0:0:
415,107,23022,1,0,0:0:0:0:
365,100,23099,2,0,L|297:76,1,50,10|0,0:2|0:0,0:0:0:0:
367,46,23252,2,0,L|309:26,1,50
176,287,23405,5,8,0:0:0:0:
94,197,23558,1,2,3:2:0:0:
143,197,23634,1,0,0:0:0:0:
193,197,23711,1,0,0:0:0:0:
243,197,23787,1,0,0:0:0:0:
406,201,23864,2,8,L|374:138,1,50
231,127,24170,1,8,0:0:0:0:
343,141,24323,2,0,L|400:107,1,50,0|0,3:0|3:0,0:0:0:0:
204,123,24476,2,0,L|149:94,1,50,0|0,3:0|3:0,0:0:0:0:
344,214,24629,6,0,L|460:191,2,100,6|0|8,3:2|0:0|0:0,0:0:0:0:
207,272,25088,2,0,P|143:222|217:143,1,200,2|0,0:0|3:0,0:0:0:0:
313,127,25548,2,0,L|444:88,1,100,10|0,0:0|0:0,0:0:0:0:
152,248,25854,2,0,L|152:135,1,100,2|0,3:2|0:0,0:0:0:0:
266,122,26160,1,8,0:0:0:0:
155,87,26313,2,0,L|94:38,1,50
321,261,26466,1,0,3:0:0:0:
350,221,26542,1,0,0:0:0:0:
342,173,26619,1,0,3:0:0:0:
303,145,26695,1,0,0:0:0:0:
158,162,26772,2,0,L|162:103,1,50,8|0,0:0|0:0,0:0:0:0:
224,79,26926,2,0,L|296:65,1,50
85,270,27078,6,0,P|43:246|131:144,1,200,2|8,3:2|0:0,0:0:0:0:
342,266,27537,1,0,0:0:0:0:
342,232,27588,1,0,0:0:0:0:
335,200,27639,1,0,0:0:0:0:
319,164,27691,2,0,L|220:112,1,100,2|0,0:0|3:0,0:0:0:0:
98,121,27997,2,0,L|207:106,1,100,10|0,0:0|0:0,0:0:0:0:
338,75,28303,5,0,3:0:0:0:
231,246,28455,2,0,L|175:217,1,50
351,222,28609,1,10,0:2:0:0:
362,174,28685,1,0,0:0:0:0:
340,130,28762,1,0,0:0:0:0:
294,112,28838,1,0,0:0:0:0:
141,174,28915,6,0,L|121:89,2,50,0|0|0,3:0|3:0|3:0,0:0:0:0:
355,88,29221,2,0,L|416:80,2,50,8|8|8,3:0|3:0|3:0,0:0:0:0:
116,197,29528,6,0,L|331:188,1,200,6|8,3:2|0:0,0:0:0:0:
219,273,29986,2,0,L|161:254,1,50
235,225,30140,2,0,L|348:193,1,100,2|0,0:0|3:0,0:0:0:0:
208,134,30446,2,0,L|202:21,1,100,10|0,0:0|0:0,0:0:0:0:
451,224,30752,6,0,P|458:140|345:94,1,200,2|8,3:2|0:0,0:0:0:0:
250,149,31211,1,0,0:0:0:0:
373,210,31364,2,0,L|378:105,1,100,2|0,3:2|3:0,0:0:0:0:
228,195,31670,2,0,L|224:92,1,100,10|0,0:2|0:0,0:0:0:0:
455,172,31976,6,0,L|231:151,1,200,2|8,3:2|0:0,0:0:0:0:
139,148,32435,1,0,0:0:0:0:
374,298,32588,1,2,0:0:0:0:
418,277,32664,1,0,0:0:0:0:
442,234,32741,1,0,3:0:0:0:
437,185,32817,1,0,0:0:0:0:
276,152,32895,2,0,L|211:116,1,50,10|0,0:0|0:0,0:0:0:0:
283,101,33048,2,0,L|358:78,1,50
184,331,33354,5,2,0:0:0:0:
154,291,33430,1,0,0:0:0:0:
144,242,33507,1,0,0:0:0:0:
155,194,33583,1,0,0:0:0:0:
186,154,33660,1,0,0:0:0:0:
230,131,33736,1,0,0:0:0:0:
282,114,33813,2,0,L|383:81,1,100,2|8,0:0|0:0,0:0:0:0:
139,194,34119,2,0,L|138:115,1,50,0|8,3:0|0:0,0:0:0:0:
288,118,34272,2,0,L|362:103,1,50,0|0,3:0|3:0,0:0:0:0:
147,320,34425,5,6,3:2:0:0:
63,275,34578,1,0,0:0:0:0:
66,180,34731,1,8,0:0:0:0:
152,141,34884,1,0,3:0:0:0:
279,216,35037,2,0,L|280:96,1,100,0|0,0:0|3:0,0:0:0:0:
161,124,35344,2,0,L|47:88,1,100,8|0,0:0|0:0,0:0:0:0:
342,285,35650,6,0,P|419:225|402:114,1,200,2|8,3:2|0:0,0:0:0:0:
315,84,36109,1,0,0:0:0:0:
85,206,36262,2,0,L|92:88,1,100,2|0,3:2|3:0,0:0:0:0:
218,108,36568,2,0,L|339:79,1,100,10|0,0:2|0:0,0:0:0:0:
360,119,36798,1,0,0:0:0:0:
198,258,36874,6,0,P|141:220|224:135,1,200,0|8,3:0|0:0,0:0:0:0:
314,258,37333,2,0,P|371:220|288:135,1,200,0|0,3:0|3:0,0:0:0:0:
200,130,37793,2,0,L|86:99,1,100,8|0,0:0|0:0,0:0:0:0:
390,293,38099,6,0,L|394:176,1,100,2|0,3:2|0:0,0:0:0:0:
272,171,38405,1,10,0:0:0:0:
224,156,38481,1,0,0:0:0:0:
176,141,38558,1,0,0:0:0:0:
297,275,38711,2,0,L|307:207,2,50,2|0|0,3:2|3:0|3:0,0:0:0:0:
82,163,39017,2,0,L|2:137,2,50,8|8|8,3:0|3:0|3:0,0:0:0:0:
335,252,39323,6,0,L|444:198,1,100,6|0,3:2|0:0,0:0:0:0:
296,159,39629,2,0,L|185:110,1,100,10|0,0:2|3:0,0:0:0:0:
464,266,39935,2,0,P|460:180|347:130,1,200,2|8,0:0|0:0,0:0:0:0:
265,190,40395,1,0,0:0:0:0:
375,268,40548,6,0,P|428:227|328:148,1,200,2|8,3:2|0:0,0:0:0:0:
258,187,41007,1,0,3:0:0:0:
142,226,41160,2,0,L|151:114,1,100,0|0,3:0|3:0,0:0:0:0:
257,107,41466,2,0,L|367:66,1,100,10|0,0:2|0:0,0:0:0:0:
393,52,41696,1,0,0:0:0:0:
230,310,41772,6,0,P|180:292|174:151,1,200,2|8,3:2|0:0,0:0:0:0:
282,310,42231,2,0,P|332:292|338:151,1,200,0|0,3:0|3:0,0:0:0:0:
235,152,42691,2,0,L|133:107,1,100,8|0,0:0|0:0,0:0:0:0:
432,280,42997,6,0,L|424:208,1,50,2|0,3:2|0:0,0:0:0:0:
369,209,43150,2,0,L|283:190,1,50,8|0,0:0|0:0,0:0:0:0:
265,180,43303,2,0,L|273:108,1,50
328,109,43456,2,0,L|414:90,1,50,0|0,3:0|0:0,0:0:0:0:
188,182,43609,2,0,L|116:165,2,50,8|8|0,0:0|0:0|3:0,0:0:0:0:
322,174,43915,2,0,L|386:167,1,50,0|0,3:0|3:0,0:0:0:0:
219,115,44068,2,0,L|139:102,1,50,0|0,3:0|3:0,0:0:0:0:
387,280,44221,5,6,3:2:0:0:
471,237,44374,1,0,0:0:0:0:
465,143,44527,1,8,0:0:0:0:
376,112,44680,1,0,3:0:0:0:
130,221,44833,2,0,L|135:101,1,100,0|0,0:0|3:0,0:0:0:0:
247,105,45140,2,0,L|357:64,1,100,8|0,0:0|0:0,0:0:0:0:
88,307,45446,5,2,3:2:0:0:
79,209,45599,1,0,0:0:0:0:
133,127,45752,1,8,0:0:0:0:
226,97,45905,1,0,3:0:0:0:
462,182,46058,2,0,L|452:63,1,100,2|0,3:2|3:0,0:0:0:0:
336,142,46364,2,0,L|328:31,1,100,8|0,0:0|0:0,0:0:0:0:
268,40,46594,1,0,0:0:0:0:
93,278,46670,6,0,P|61:198|168:141,1,200,2|8,3:2|0:0,0:0:0:0:
256,240,47129,2,0,P|317:209|327:73,1,200,0|0,3:0|3:0,0:0:0:0:
236,75,47588,2,0,L|120:37,1,100,8|0,0:0|0:0,0:0:0:0:
401,280,47895,6,0,L|396:164,1,100,2|0,3:2|0:0,0:0:0:0:
256,194,48201,1,10,0:2:0:0:
207,183,48277,1,0,0:0:0:0:
158,173,48354,1,0,0:0:0:0:
293,152,48507,2,0,L|306:75,2,50,2|0|0,3:2|3:0|3:0,0:0:0:0:
72,199,48813,2,0,L|-5:186,2,50,8|8|8,3:0|3:0|3:0,0:0:0:0:
305,187,49119,6,0,L|430:159,1,100,6|0,3:2|0:0,0:0:0:0:
273,123,49425,2,0,L|174:93,1,100,10|0,0:0|3:0,0:0:0:0:
472,260,49731,2,0,P|473:195|453:142,1,100,2|0,0:0|3:0,0:0:0:0:
337,160,50037,1,10,0:0:0:0:
211,141,50191,1,0,0:0:0:0:
459,304,50344,6,0,P|454:213|340:179,1,200,2|8,3:2|0:0,0:0:0:0:
269,303,50803,1,0,3:0:0:0:
141,213,50956,2,0,L|251:176,1,100,0|0,3:0|3:0,0:0:0:0:
362,175,51262,2,0,L|350:43,1,100,10|0,0:2|0:0,0:0:0:0:
285,75,51492,1,0,0:0:0:0:
125,300,51568,6,0,P|64:268|139:181,1,200,2|8,3:2|0:0,0:0:0:0:
236,168,52027,2,0,P|314:146|320:3,1,200,0|0,3:0|3:0,0:0:0:0:
256,222,52486,2,0,L|156:188,1,100,8|0,0:0|0:0,0:0:0:0:
386,253,52793,5,2,3:2:0:0:
462,208,52946,2,0,P|469:126|339:83,1,200,8|0,0:0|0:0,0:0:0:0:
265,174,53405,2,0,L|198:154,2,50,8|8|8,0:0|0:0|0:0,0:0:0:0:
374,153,53711,2,0,L|394:86,2,50,0|0|0,3:0|3:0|3:0,0:0:0:0:
251,301,54017,5,4,0:3:0:0:
166,254,54170,1,0,0:0:0:0:
156,159,54323,1,4,0:3:0:0:
229,161,54476,2,0,L|390:26,1,200
280,239,54935,6,0,L|96:122,1,200,4|4,0:3|0:3,0:0:0:0:
298,186,55548,1,4,0:3:0:0:
204,216,55701,2,0,L|217:131,1,50
281,306,55854,1,4,0:3:0:0:
323,280,55930,1,0,0:0:0:0:
351,239,56007,1,0,0:0:0:0:
357,190,56083,1,0,0:0:0:0:
342,143,56160,1,4,0:3:0:0:
307,107,56236,1,0,0:0:0:0:
261,90,56313,1,0,0:0:0:0:
210,88,56390,1,0,0:0:0:0:
147,168,56466,6,0,L|339:67,1,200,4|4,0:3|0:3,0:0:0:0:
239,275,56925,1,0,0:0:0:0:
207,265,56976,1,0,0:0:0:0:
183,242,57027,1,0,0:0:0:0:
171,211,57078,2,0,L|167:106,1,100,4|0,0:3|0:0,0:0:0:0:
285,198,57384,6,0,L|447:78,1,200,4|4,0:3|0:3,0:0:0:0:
351,258,57844,2,0,L|263:245,1,50
346,206,57997,1,4,0:3:0:0:
361,160,58073,1,0,0:0:0:0:
335,119,58150,1,0,0:0:0:0:
288,114,58226,1,0,0:0:0:0:
237,308,58303,2,0,P|199:268|281:178,1,200,4|4,0:3|0:3,0:0:0:0:
387,186,58762,1,4,0:3:0:0:
128,273,58915,6,0,L|113:170,1,100,4|4,0:3|0:3,0:0:0:0:
243,203,59221,2,0,L|236:72,1,100,4|4,0:3|0:3,0:0:0:0:
401,217,59527,2,0,L|411:93,1,100,4|4,0:3|0:3,0:0:0:0:
244,254,59833,2,0,L|238:128,1,100,4|4,0:3|0:3,0:0:0:0:
117,161,60140,6,0,L|220:123,1,100,4|4,0:3|0:3,0:0:0:0:
331,139,60445,2,0,L|229:103,1,100,4|4,0:3|0:3,0:0:0:0:
102,200,60752,2,0,L|207:150,1,100,4|4,0:3|0:3,0:0:0:0:
335,194,61058,2,0,L|233:158,1,100,4|4,0:3|0:3,0:0:0:0:
479,297,61364,5,4,0:3:0:0:
491,248,61440,1,4,0:3:0:0:
489,198,61517,1,4,0:3:0:0:
472,151,61593,1,4,0:3:0:0:
443,111,61670,1,4,0:3:0:0:
404,80,61746,1,4,0:3:0:0:
358,62,61823,1,4,0:3:0:0:
308,58,61899,1,4,0:3:0:0:
166,234,61976,6,0,L|175:144,1,50,4|4,0:3|0:3,0:0:0:0:
220,167,62129,2,0,L|298:156,1,50,4|4,0:3|0:3,0:0:0:0:
206,157,62282,1,4,0:3:0:0:
177,117,62358,1,4,0:3:0:0:
183,69,62435,1,4,0:3:0:0:
221,38,62511,1,0,0:0:0:0:
284,28,62588,1,0,0:0:0:0:
63,298,62742,5,2,0:0:0:0:
48,250,62818,1,0,0:0:0:0:
55,201,62895,1,0,0:0:0:0:
83,160,62971,1,0,0:0:0:0:
126,136,63048,1,0,0:0:0:0:
176,132,63124,1,0,0:0:0:0:
235,128,63201,2,0,L|372:102,1,100
222,151,63507,2,0,L|171:130,1,50,8|0,3:2|3:0,0:0:0:0:
355,73,63660,2,0,L|420:45,1,50,0|0,3:0|3:0,0:0:0:0:
155,228,63813,6,0,L|41:194,2,100,6|0|8,3:2|0:0|0:0,0:0:0:0:
383,270,64272,2,0,P|454:208|407:123,1,200,2|0,0:0|0:0,0:0:0:0:
295,128,64731,2,0,L|170:92,1,100,10|0,0:0|0:0,0:0:0:0:
455,279,65037,6,0,L|458:160,1,100,2|0,3:2|0:0,0:0:0:0:
337,221,65344,2,0,L|333:92,1,100,8|0,0:0|0:0,0:0:0:0:
270,115,65573,1,0,0:0:0:0:
214,267,65650,5,0,3:0:0:0:
169,250,65726,1,0,0:0:0:0:
148,206,65803,1,0,0:0:0:0:
164,161,65879,1,0,0:0:0:0:
209,140,65956,2,0,L|274:120,1,50,8|0,0:0|0:0,0:0:0:0:
205,81,66109,2,0,L|140:60,1,50
332,253,66262,6,0,P|409:206|388:98,1,200,2|8,3:2|0:0,0:0:0:0:
116,187,66721,1,0,0:0:0:0:
111,154,66772,1,0,0:0:0:0:
113,120,66823,1,0,0:0:0:0:
121,88,66874,2,0,L|228:57,1,100,2|0,3:2|0:0,0:0:0:0:
328,182,67180,2,0,L|322:78,1,100,10|0,0:0|0:0,0:0:0:0:
207,118,67486,5,0,3:0:0:0:
320,118,67640,2,0,L|405:93,1,50
196,273,67793,1,10,0:2:0:0:
165,234,67869,1,0,0:0:0:0:
159,185,67946,1,0,0:0:0:0:
179,140,68022,1,0,0:0:0:0:
221,113,68099,2,0,L|340:83,1,100,2|0,3:2|0:0,0:0:0:0:
98,84,68405,2,0,L|23:65,2,50,8|0|0,3:3|3:0|3:0,0:0:0:0:
429,260,68711,6,0,P|431:221|309:142,1,200,6|8,3:2|0:0,0:0:0:0:
182,143,69170,2,0,L|194:68,1,50
250,88,69323,2,0,L|373:42,1,100,2|0,3:2|0:0,0:0:0:0:
237,237,69629,2,0,L|116:199,1,100,10|0,0:2|0:0,0:0:0:0:
400,255,69935,6,0,P|449:207|342:144,1,200,2|8,3:2|0:0,0:0:0:0:
269,145,70395,1,0,0:0:0:0:
56,200,70548,2,0,L|68:73,1,100,2|0,3:2|0:0,0:0:0:0:
192,95,70854,2,0,L|304:58,1,100,10|0,0:2|0:0,0:0:0:0:
52,260,71160,6,0,P|37:197|173:140,1,200,2|8,3:2|0:0,0:0:0:0:
232,201,71619,1,0,0:0:0:0:
139,231,71772,1,2,3:2:0:0:
119,186,71848,1,0,0:0:0:0:
133,139,71925,1,0,0:0:0:0:
174,113,72001,1,0,0:0:0:0:
223,120,72078,2,0,L|292:95,1,50,10|0,0:2|0:0,0:0:0:0:
207,72,72231,2,0,L|152:47,1,50
94,144,72384,5,0,3:0:0:0:
362,257,72537,1,10,0:0:0:0:
390,216,72613,1,0,0:0:0:0:
396,167,72690,1,0,0:0:0:0:
378,121,72766,1,0,0:0:0:0:
341,89,72843,1,0,3:0:0:0:
292,79,72919,1,0,0:0:0:0:
123,127,72997,2,0,L|38:109,2,50,8|8|8,3:3|3:3|3:3,0:0:0:0:
239,221,73303,2,0,L|233:157,1,50,0|0,3:0|3:0,0:0:0:0:
158,167,73456,2,0,L|163:100,1,50,0|0,3:0|3:0,0:0:0:0:
323,94,73609,6,0,L|420:72,2,100,6|0|8,3:2|0:0|0:0,0:0:0:0:
104,256,74068,2,0,P|50:182|118:121,1,200,2|0,0:2|0:0,0:0:0:0:
233,113,74527,2,0,L|352:68,1,100,10|0,0:2|0:0,0:0:0:0:
104,256,74833,2,0,L|98:144,1,100,2|0,3:2|0:0,0:0:0:0:
232,184,75140,2,0,L|234:80,1,100,8|2,0:0|0:2,0:0:0:0:
175,75,75369,1,0,0:0:0:0:
117,234,75446,5,0,3:0:0:0:
83,197,75522,1,0,0:0:0:0:
79,148,75599,1,0,0:0:0:0:
105,107,75675,1,0,0:0:0:0:
151,89,75752,2,0,L|208:66,1,50,8|0,0:0|0:0,0:0:0:0:
133,50,75905,2,0,L|83:27,1,50
267,249,76058,6,0,P|287:190|176:106,1,200,2|8,3:2|0:0,0:0:0:0:
443,209,76517,1,0,0:0:0:0:
450,176,76568,1,0,0:0:0:0:
442,144,76619,1,0,0:0:0:0:
421,118,76670,2,0,L|306:84,1,100,2|0,3:2|0:0,0:0:0:0:
198,165,76976,2,0,L|87:129,1,100,10|0,0:0|0:0,0:0:0:0:
229,260,77282,5,0,3:0:0:0:
333,207,77435,2,0,L|399:165,1,50
197,198,77588,1,10,0:2:0:0:
169,157,77664,1,0,0:0:0:0:
177,109,77741,1,0,0:0:0:0:
215,78,77817,1,0,0:0:0:0:
276,68,77895,2,0,L|387:41,1,100,2|0,3:2|0:0,0:0:0:0:
156,181,78201,2,0,L|94:168,2,50,8|0|8,3:0|3:0|3:0,0:0:0:0:
431,235,78507,6,0,P|435:157|325:109,1,200,6|8,3:2|0:0,0:0:0:0:
217,164,78966,2,0,L|134:144,1,50
235,111,79119,2,0,L|342:83,1,100,2|0,3:2|0:0,0:0:0:0:
218,221,79425,2,0,L|117:189,1,100,10|0,0:2|0:0,0:0:0:0:
375,254,79731,6,0,P|440:206|339:148,1,200,2|8,3:2|0:0,0:0:0:0:
266,130,80191,1,0,0:0:0:0:
377,157,80344,2,0,B|388:105|388:105|348:62,1,100,2|0,3:2|0:0,0:0:0:0:
245,141,80650,2,0,L|137:101,1,100,10|0,0:2|0:0,0:0:0:0:
264,226,80956,6,0,L|487:157,1,200,0|8,3:0|0:0,0:0:0:0:
340,110,81415,1,0,0:0:0:0:
248,294,81568,1,2,3:2:0:0:
212,260,81644,1,0,0:0:0:0:
218,213,81721,1,0,0:0:0:0:
259,188,81797,1,0,0:0:0:0:
304,187,81874,1,8,0:0:0:0:
345,162,81950,1,0,0:0:0:0:
351,114,82027,1,0,0:0:0:0:
315,81,82103,1,0,0:0:0:0:
263,71,82180,5,2,0:0:0:0:
156,264,82333,1,2,0:0:0:0:
125,225,82409,1,0,0:0:0:0:
116,176,82486,1,0,0:0:0:0:
131,129,82562,1,0,0:0:0:0:
167,95,82639,1,0,0:0:0:0:
214,81,82715,1,0,0:0:0:0:
373,58,82793,6,0,L|464:50,2,50,8|8|0,3:0|3:0|3:0,0:0:0:0:
156,222,83098,2,0,L|132:146,2,50,0|0|0,3:0|3:0|3:0,0:0:0:0:
417,259,83405,6,0,L|443:228,14,37.5000014305115,6|0|0|0|0|0|0|0|0|0|0|0|0|0|0,3:1|0:0|0:0|0:0|0:0|0:0|0:0|0:0|0:0|0:0|0:0|0:0|0:0|0:0|0:0,0:0:0:0:
272,226,84017,2,0,L|128:149,1,150,10|0,0:0|0:0,0:0:0:0:
214,156,84323,2,0,L|230:129,1,25,2|0,0:0|0:0,0:0:0:0:
301,185,84476,2,0,L|287:164,1,25,2|0,0:0|0:0,0:0:0:0:
108,361,84629,5,2,3:1:0:0:
88,344,84667,1,0,0:0:0:0:
72,324,84705,1,0,0:0:0:0:
59,303,84743,1,0,0:0:0:0:
50,279,84782,1,0,0:0:0:0:
45,255,84820,1,0,0:0:0:0:
46,231,84858,1,0,0:0:0:0:
49,206,84896,1,0,0:0:0:0:
57,181,84935,1,0,0:0:0:0:
69,159,84973,1,0,0:0:0:0:
84,140,85011,1,0,0:0:0:0:
102,123,85049,1,0,0:0:0:0:
123,110,85088,1,0,0:0:0:0:
146,100,85126,1,0,0:0:0:0:
170,94,85164,1,0,0:0:0:0:
365,374,85242,5,6,0:1:0:0:
400,364,85280,1,0,0:0:0:0:
363,324,85318,1,0,0:0:0:0:
398,314,85356,1,0,0:0:0:0:
361,274,85395,1,0,0:0:0:0:
396,264,85433,1,0,0:0:0:0:
359,224,85471,1,0,0:0:0:0:
393,214,85509,1,0,0:0:0:0:
357,174,85548,1,0,0:0:0:0:
390,164,85586,1,0,0:0:0:0:
356,124,85624,1,0,0:0:0:0:
388,114,85662,1,0,0:0:0:0:
354,74,85701,1,0,3:0:0:0:
383,64,85739,1,0,0:0:0:0:
352,24,85777,1,0,0:0:0:0:
200,310,85854,6,0,B|48:311|48:311|52:226|52:226|51:166|51:166|130:160|235:163,1,450.000017166138,8|0,3:1|0:0,0:0:0:0:
470,133,86466,1,10,0:0:0:0:
421,122,86542,1,2,0:0:0:0:
372,112,86619,1,2,0:0:0:0:
256,144,86772,1,2,0:0:0:0:
375,211,86925,1,2,0:0:0:0:
247,316,87078,6,0,P|187:292|163:172,1,187.5,2|0,3:2|0:0,0:0:0:0:
169,168,87384,2,0,L|434:37,1,281.250010728837
421,43,87691,2,0,L|168:167,1,281.250010728837,10|0,0:0|0:0,0:0:0:0:
169,168,87997,2,0,L|451:84,1,281.250010728837,4|0,0:0|0:0,0:0:0:0:
448,243,88303,6,0,L|474:212,14,37.5000014305115,6|0|0|0|0|0|0|0|0|0|0|0|0|0|0,3:1|0:0|0:0|0:0|0:0|0:0|0:0|0:0|0:0|0:0|0:0|0:0|0:0|0:0|0:0,0:0:0:0:
306,234,88915,6,0,L|173:141,1,150,10|0,0:0|0:0,0:0:0:0:
249,118,89221,2,0,L|265:91,1,25,2|0,0:0|0:0,0:0:0:0:
336,147,89374,2,0,L|322:126,1,25,2|0,0:0|0:0,0:0:0:0:
119,315,89527,5,2,3:1:0:0:
111,291,89565,1,0,0:0:0:0:
106,266,89603,1,0,0:0:0:0:
104,241,89641,1,0,0:0:0:0:
106,216,89680,1,0,0:0:0:0:
111,192,89718,1,0,0:0:0:0:
119,168,89756,1,0,0:0:0:0:
130,146,89794,1,0,0:0:0:0:
144,125,89833,1,0,0:0:0:0:
161,106,89871,1,0,0:0:0:0:
179,90,89909,1,0,0:0:0:0:
200,76,89947,1,0,0:0:0:0:
223,65,89986,1,0,0:0:0:0:
246,57,90024,1,0,0:0:0:0:
271,52,90062,1,0,0:0:0:0:
85,365,90140,5,6,0:1:0:0:
51,355,90178,1,0,0:0:0:0:
87,315,90216,1,0,0:0:0:0:
53,305,90254,1,0,0:0:0:0:
89,265,90293,1,0,0:0:0:0:
55,255,90331,1,0,0:0:0:0:
91,215,90369,1,0,0:0:0:0:
58,205,90407,1,0,0:0:0:0:
93,165,90446,1,0,3:0:0:0:
60,155,90484,1,0,0:0:0:0:
94,115,90522,1,0,0:0:0:0:
62,105,90560,1,0,0:0:0:0:
96,65,90599,1,0,3:0:0:0:
66,55,90637,1,0,0:0:0:0:
98,15,90675,1,0,0:0:0:0:
251,311,90752,6,0,B|403:312|403:312|399:227|399:227|400:167|400:167|321:161|216:164,1,450.000017166138,8|0,3:1|0:0,0:0:0:0:
484,125,91364,1,10,0:0:0:0:
434,120,91440,1,2,0:0:0:0:
384,116,91517,1,2,0:0:0:0:
271,164,91671,1,2,0:0:0:0:
383,209,91823,1,2,0:0:0:0:
159,273,91976,5,0,3:0:0:0:
143,226,92052,1,0,3:0:0:0:
158,179,92129,1,0,3:0:0:0:
197,150,92205,1,0,3:0:0:0:
250,147,92282,1,0,3:0:0:0:
297,133,92358,1,0,3:0:0:0:
326,93,92435,1,0,3:0:0:0:
326,44,92511,1,0,3:0:0:0:
168,246,92588,6,0,L|171:169,1,50,0|0,3:0|3:0,0:0:0:0:
224,182,92742,2,0,L|303:164,1,50,0|0,3:0|3:0,0:0:0:0:
447,220,92895,2,0,L|444:143,1,50,0|0,3:0|3:0,0:0:0:0:
391,156,93048,2,0,L|312:138,1,50,0|0,3:0|3:0,0:0:0:0:
175,303,93201,5,6,3:2:0:0:
90,257,93354,1,0,0:0:0:0:
83,161,93507,1,8,0:0:0:0:
161,105,93660,1,0,0:0:0:0:
408,258,93814,2,0,L|401:142,1,100,0|0,3:0|0:0,0:0:0:0:
271,137,94119,2,0,L|171:103,1,100,8|0,0:0|0:0,0:0:0:0:
432,240,94425,2,0,L|440:128,1,100,2|0,3:2|0:0,0:0:0:0:
312,200,94731,2,0,L|304:80,1,100,8|0,0:0|0:0,0:0:0:0:
85,326,95037,5,2,3:2:0:0:
70,229,95190,1,0,0:0:0:0:
123,147,95343,1,8,0:0:0:0:
218,122,95496,1,0,0:0:0:0:
466,146,95650,6,0,L|348:114,1,100,2|0,3:2|0:0,0:0:0:0:
249,271,95956,2,0,L|238:152,1,100,8|0,0:0|0:0,0:0:0:0:
370,148,96262,2,0,L|473:101,1,100,0|0,3:0|0:0,0:0:0:0:
359,289,96568,2,0,L|353:154,1,100,8|0,0:0|0:0,0:0:0:0:
112,222,96875,6,0,L|123:114,1,100,2|0,3:2|0:0,0:0:0:0:
243,116,97180,1,10,0:2:0:0:
292,109,97256,1,0,0:0:0:0:
342,103,97333,1,0,0:0:0:0:
225,207,97486,2,0,L|100:171,1,100,2|0,3:2|0:0,0:0:0:0:
252,116,97793,2,0,L|315:114,2,50,8|8|8,3:0|3:0|3:0,0:0:0:0:
33,257,98099,6,0,L|38:131,1,100,6|0,3:2|0:0,0:0:0:0:
151,137,98405,2,0,L|262:97,1,100,10|0,0:0|0:0,0:0:0:0:
475,209,98711,2,0,P|464:109|351:86,1,200,2|10,3:2|0:2,0:0:0:0:
276,228,99170,1,0,0:2:0:0:
144,329,99323,5,2,3:2:0:0:
96,243,99476,1,0,0:0:0:0:
113,146,99629,1,8,0:0:0:0:
187,82,99782,1,0,0:0:0:0:
304,179,99935,2,0,L|415:151,1,100,0|0,3:0|0:0,0:0:0:0:
302,245,100242,2,0,L|191:273,1,100,10|0,0:2|0:0,0:0:0:0:
425,327,100548,5,2,3:2:0:0:
447,231,100701,1,0,0:0:0:0:
400,146,100854,1,8,0:0:0:0:
307,115,101007,1,0,0:0:0:0:
218,154,101160,1,0,3:0:0:0:
179,244,101313,1,0,0:0:0:0:
210,336,101466,1,8,0:0:0:0:
292,381,101620,1,0,0:0:0:0:
71,327,101772,5,2,3:2:0:0:
177,330,101925,2,0,P|232:287|169:192,1,200,8|0,0:0|3:0,0:0:0:0:
56,180,102384,1,8,3:2:0:0:
60,130,102460,1,8,3:2:0:0:
89,84,102537,1,8,3:2:0:0:
233,251,102691,1,0,3:0:0:0:
293,244,102767,1,0,3:0:0:0:
335,208,102844,1,0,3:0:0:0:
349,150,102920,1,0,3:0:0:0:
190,118,102997,6,0,L|85:91,2,100,6|0|0,0:2|0:0|0:0,0:0:0:0:
292,264,103456,2,0,P|377:168|310:116,1,200,2|0,0:0|0:0,0:0:0:0:
229,318,103915,6,0,L|212:93,1,200,0|2,0:0|0:0,0:0:0:0:
364,123,104527,1,0,0:0:0:0:
259,312,104680,2,0,L|236:259,1,50,2|0,0:0|0:0,0:0:0:0:
293,251,104833,5,2,0:0:0:0:
333,222,104909,1,0,0:0:0:0:
355,178,104986,1,0,0:0:0:0:
355,128,105062,1,0,0:0:0:0:
332,84,105139,1,0,0:0:0:0:
292,56,105215,1,0,0:0:0:0:
243,49,105293,2,0,L|177:61,1,50
256,182,105446,6,0,L|457:217,1,200,2|0,0:0|0:0,0:0:0:0:
352,321,105905,1,0,0:0:0:0:
319,314,105956,1,0,0:0:0:0:
286,308,106007,1,0,0:0:0:0:
253,301,106058,2,0,L|239:190,1,100,2|0,0:0|0:0,0:0:0:0:
356,216,106364,2,0,L|332:3,1,200,0|2,0:0|0:0,0:0:0:0:
229,311,106823,2,0,L|163:290,1,50
254,259,106976,1,0,0:0:0:0:
283,219,107052,1,0,0:0:0:0:
283,170,107129,1,0,0:0:0:0:
254,130,107205,1,0,0:0:0:0:
206,23,107282,6,0,P|116:62|224:288,1,400,2|2,0:0|0:0,0:0:0:0:
446,265,108354,2,0,L|454:206,2,50,2|0|0,0:0|0:0|0:0,0:0:0:0:
264,246,108813,1,0,0:0:0:0:
436,318,109119,2,0,P|484:216|255:72,1,400,2|2,0:0|0:0,0:0:0:0:
120,163,110037,1,0,0:0:0:0:
312,342,110344,6,0,L|317:33,1,300,2|2,0:0|0:0,0:0:0:0:
203,313,110956,1,2,0:0:0:0:
163,282,111032,1,0,0:0:0:0:
137,240,111109,1,0,0:0:0:0:
128,191,111185,1,0,0:0:0:0:
138,142,111262,1,0,0:0:0:0:
164,100,111338,1,0,0:0:0:0:
204,70,111415,1,0,0:0:0:0:
252,56,111491,1,0,0:0:0:0:
301,61,111568,1,2,0:0:0:0:
192,321,111721,5,2,0:0:0:0:
150,293,111797,1,0,0:0:0:0:
122,252,111874,1,0,0:0:0:0:
111,204,111950,1,0,0:0:0:0:
120,155,112027,1,0,0:0:0:0:
146,113,112103,1,0,0:0:0:0:
187,84,112180,1,2,0:0:0:0:
312,270,112333,6,0,P|350:216|207:66,1,300,2|2,0:0|0:0,0:0:0:0:
256,192,112946,12,0,117691,0:0:0:0:
