osu file format v14

[General]
AudioFilename: audio.mp3
AudioLeadIn: 0
PreviewTime:63744
Countdown: 0
SampleSet: Soft
StackLeniency: 0.7
Mode: 2
LetterboxInBreaks: 0
WidescreenStoryboard: 1

[Editor]
DistanceSpacing: 1.7
BeatDivisor: 4
GridSize: 32
TimelineZoom: 3.499999

[Metadata]
Title:Yuujou
TitleUnicode:Yuujou
Artist:Thaehan
ArtistUnicode:Thaehan
Creator:Ascendance
Version:Sinnoh's Platter
Source:osu!
Tags:mapping olympiad contest sinnoh instrumental electronic featured artist chiptune loki bwa mappers guild mpg fa
BeatmapID:2597838
BeatmapSetID:1249928

[Difficulty]
HPDrainRate:5
CircleSize:3.5
OverallDifficulty:8
ApproachRate:8
SliderMultiplier:1.7
SliderTickRate:2

[Events]
//Background and Video events
0,0,"ascendance please compress images -_-.jpg"
//Break Periods
2,54217,58165
//Storyboard Layer 0 (Background)
//Storyboard Layer 1 (Fail)
//Storyboard Layer 2 (Pass)
//Storyboard Layer 3 (Foreground)
//Storyboard Layer 4 (Overlay)
//Storyboard Sound Samples

[TimingPoints]
140,306.122448979592,4,2,61,20,1,0
5037,-100,4,2,61,40,0,0
13609,-100,4,2,61,50,0,0
14833,-100,4,2,61,70,0,0
33201,-100,4,2,61,50,0,0
34119,-100,4,2,61,60,0,0
44221,-100,4,2,61,70,0,0
52793,-100,4,2,61,60,0,0
53405,-100,4,2,61,50,0,0
53711,-100,4,2,61,40,0,0
54017,-100,4,2,0,40,0,0
54553,-100,4,2,66,40,0,0
54706,-100,4,2,0,40,0,0
58915,-100,4,2,0,30,0,0
59527,-100,4,2,0,40,0,0
60140,-100,4,2,0,50,0,0
60752,-100,4,2,0,60,0,0
63507,-100,4,2,61,80,0,0
63813,-100,4,2,61,80,0,1
64349,-100,4,2,64,80,0,1
64502,-100,4,2,61,80,0,1
74221,-100,4,2,64,80,0,1
74374,-100,4,2,61,80,0,1
82180,-100,4,2,61,50,0,0
83099,-100,4,2,61,70,0,0
83405,-66.6666666666667,4,2,61,80,0,0
84017,-100,4,2,11,80,0,0
84170,-100,4,2,64,80,0,0
84322,-100,4,2,11,80,0,0
84629,-66.6666666666667,4,2,61,80,0,0
85242,-66.6666666666667,4,2,0,80,0,0
85318,-66.6666666666667,4,2,61,80,0,0
85854,-66.6666666666667,4,2,61,80,0,0
86466,-100,4,2,12,80,0,0
87078,-100,4,2,13,80,0,0
87308,-100,4,2,13,5,0,0
87384,-100,4,2,13,80,0,0
87537,-100,4,2,64,80,0,0
87614,-100,4,2,13,5,0,0
87691,-100,4,2,13,80,0,0
87920,-100,4,2,13,5,0,0
87997,-100,4,2,13,80,0,0
88226,-100,4,2,61,5,0,0
88303,-66.6666666666667,4,2,61,80,0,0
88915,-100,4,2,11,80,0,0
89068,-100,4,2,64,80,0,0
89145,-100,4,2,11,80,0,0
89527,-66.6666666666667,4,2,61,80,0,0
90140,-100,4,2,0,80,0,0
90216,-100,4,2,61,80,0,0
90752,-100,4,2,61,80,0,0
91364,-100,4,2,12,80,0,0
91976,-100,4,2,61,50,0,0
92282,-100,4,2,61,60,0,0
92588,-100,4,2,61,70,0,0
92895,-100,4,2,61,80,0,0
101772,-100,4,2,61,70,0,0
103150,-100,4,2,61,50,0,0
111721,-100,4,2,61,35,0,0
112333,-100,4,2,61,25,0,0

[Colours]
Combo1 : 255,226,140
Combo2 : 255,157,206
Combo3 : 125,184,255
Combo4 : 125,255,125

[HitObjects]
349,301,140,6,0,L|333:117,1,170,2|0,0:0|0:0,0:0:0:0:
231,255,599,2,0,L|215:71,1,170,2|0,0:0|0:0,0:0:0:0:
316,60,1058,1,0,0:0:0:0:
163,301,1364,6,0,L|179:117,1,170,2|0,0:0|0:0,0:0:0:0:
281,255,1823,2,0,L|297:71,1,170,2|0,0:0|0:0,0:0:0:0:
196,60,2282,1,0,0:0:0:0:
371,281,2588,6,0,L|360:180,1,85,2|0,0:0|0:0,0:0:0:0:
258,268,2894,2,0,L|247:167,1,85,2|0,0:0|0:0,0:0:0:0:
354,130,3201,2,0,L|343:29,1,85,2|0,0:0|0:0,0:0:0:0:
241,117,3507,2,0,L|230:16,1,85,2|0,0:0|0:0,0:0:0:0:
119,314,3814,5,2,0:0:0:0:
123,229,3967,1,2,0:0:0:0:
128,144,4120,1,2,0:0:0:0:
132,59,4273,1,2,0:0:0:0:
239,309,4425,1,2,0:0:0:0:
243,224,4578,1,2,0:0:0:0:
248,139,4731,1,2,0:0:0:0:
252,54,4884,1,2,0:0:0:0:
367,94,5037,5,4,0:3:0:0:
215,255,5344,1,8,0:3:0:0:
143,216,5497,2,0,P|129:171|215:85,1,170,2|4,0:0|0:3,0:0:0:0:
287,94,5956,1,8,0:3:0:0:
122,356,6262,6,0,L|112:161,1,170,4|8,0:3|0:3,0:0:0:0:
207,164,6721,1,0,0:0:0:0:
295,132,6874,2,0,L|349:100,2,42.5,4|0|4,0:3|0:0|0:3,0:0:0:0:
208,279,7180,1,8,0:3:0:0:
181,246,7256,1,0,0:0:0:0:
176,204,7333,1,0,0:0:0:0:
195,167,7409,1,0,0:0:0:0:
231,145,7486,6,0,P|283:92|220:41,1,170,4|8,0:3|0:3,0:0:0:0:
57,232,7946,1,0,0:0:0:0:
33,207,7997,1,0,0:0:0:0:
31,171,8048,1,0,0:0:0:0:
49,285,8099,2,0,L|97:183,1,85,2|4,0:0|0:3,0:0:0:0:
178,169,8405,6,0,L|363:109,1,170,8|4,0:3|0:3,0:0:0:0:
358,251,8864,1,0,0:0:0:0:
246,284,9017,1,8,0:3:0:0:
247,241,9093,1,0,0:0:0:0:
248,199,9170,1,0,0:0:0:0:
356,187,9323,2,0,L|379:114,2,42.5,4|4|4,0:3|0:3|0:3,0:0:0:0:
228,178,9629,2,0,L|155:155,2,42.5,8|8|8,0:3|0:3|0:3,0:0:0:0:
416,231,9935,6,0,P|405:119|355:105,1,170,4|8,0:3|0:3,0:0:0:0:
269,252,10395,1,0,0:0:0:0:
166,254,10548,2,0,L|155:148,1,85,0|4,0:0|0:3,0:0:0:0:
245,145,10854,6,0,L|438:85,1,170,8|4,0:3|0:3,0:0:0:0:
251,262,11466,1,8,0:3:0:0:
423,251,11772,2,0,L|419:141,1,85,4|4,0:3|0:3,0:0:0:0:
325,167,12078,6,0,L|140:101,1,170,8|4,0:3|0:3,0:0:0:0:
338,270,12690,1,8,0:3:0:0:
168,268,12997,1,0,0:0:0:0:
172,225,13073,1,0,0:0:0:0:
177,183,13150,1,4,0:3:0:0:
278,174,13303,1,8,0:3:0:0:
282,131,13379,1,0,0:0:0:0:
287,89,13456,1,0,0:0:0:0:
203,106,13609,5,8,0:3:0:0:
304,280,13762,1,4,0:3:0:0:
336,253,13838,1,0,0:0:0:0:
344,212,13915,1,0,0:0:0:0:
327,174,13991,1,0,0:0:0:0:
289,156,14068,2,0,L|219:156,2,42.5,8|8|4,0:3|0:3|0:3,0:0:0:0:
413,197,14374,2,0,L|417:99,1,85,10|4,0:3|0:3,0:0:0:0:
373,100,14604,1,8,0:3:0:0:
326,91,14681,1,4,0:3:0:0:
104,174,14834,6,0,L|14:142,2,85,6|0|8,3:2|0:0|0:0,0:0:0:0:
267,253,15293,2,0,P|336:208|312:125,1,170,2|0,0:2|3:0,0:0:0:0:
224,104,15752,2,0,L|117:73,1,85,8|0,0:0|0:0,0:0:0:0:
299,214,16058,6,0,L|482:170,1,170,2|8,3:2|0:0,0:0:0:0:
380,112,16518,1,0,0:0:0:0:
291,156,16670,2,0,L|283:111,2,42.5,0|0|0,3:2|0:0|3:0,0:0:0:0:
377,168,16976,2,0,L|385:123,2,42.5,8|0|0,0:0|0:0|0:0,0:0:0:0:
204,259,17282,6,0,P|144:234|137:131,1,170,0|8,3:0|0:0,0:0:0:0:
361,209,17742,1,0,0:0:0:0:
372,183,17793,1,0,0:0:0:0:
374,155,17844,1,0,0:0:0:0:
368,127,17895,2,0,L|276:78,1,85,2|0,0:0|3:0,0:0:0:0:
196,180,18201,2,0,L|203:69,1,85,10|0,0:2|0:0,0:0:0:0:
293,87,18507,5,0,3:0:0:0:
404,134,18659,1,0,0:0:0:0:
290,229,18813,1,10,0:0:0:0:
247,232,18889,1,0,0:0:0:0:
205,235,18966,1,0,0:0:0:0:
297,165,19119,2,0,L|305:114,2,42.5,0|0|0,3:0|3:0|3:0,0:0:0:0:
191,160,19425,2,0,L|140:152,2,42.5,8|8|8,3:3|3:3|3:3,0:0:0:0:
437,257,19731,6,0,P|479:180|392:168,1,170,6|8,3:2|0:0,0:0:0:0:
315,159,20191,2,0,L|242:150,1,42.5
228,146,20344,2,0,L|121:124,1,85,2|0,0:0|3:0,0:0:0:0:
245,79,20650,2,0,L|357:46,1,85,10|0,0:0|0:0,0:0:0:0:
143,244,20956,6,0,P|92:205|158:128,1,170,2|8,3:2|0:0,0:0:0:0:
224,118,21416,1,0,0:0:0:0:
310,152,21568,2,0,L|300:58,1,85,2|0,3:2|3:0,0:0:0:0:
205,63,21874,1,10,0:2:0:0:
481,237,22180,6,0,P|474:164|374:131,1,170,2|8,3:2|0:0,0:0:0:0:
292,191,22639,1,0,0:0:0:0:
401,191,22793,1,2,0:2:0:0:
394,149,22869,1,0,0:0:0:0:
387,107,22946,1,0,3:0:0:0:
276,119,23099,1,10,0:2:0:0:
233,114,23175,1,0,0:0:0:0:
191,109,23252,1,0,0:0:0:0:
107,100,23405,5,8,0:0:0:0:
352,303,23558,1,2,3:2:0:0:
370,265,23634,1,0,0:0:0:0:
372,223,23711,1,0,0:0:0:0:
356,183,23787,1,0,0:0:0:0:
326,154,23864,2,8,L|275:157,1,42.5
144,130,24170,1,8,0:0:0:0:
250,75,24323,1,0,3:0:0:0:
208,68,24399,1,0,3:0:0:0:
166,61,24476,1,0,3:0:0:0:
398,177,24630,6,0,L|511:160,2,85,6|0|8,3:2|0:0|0:0,0:0:0:0:
237,242,25088,2,0,P|184:211|212:105,1,170,2|0,0:0|3:0,0:0:0:0:
298,97,25548,1,10,0:0:0:0:
456,128,25854,2,0,L|272:96,1,170,2|8,3:2|0:0,0:0:0:0:
192,200,26313,1,0,0:0:0:0:
296,208,26466,1,0,3:0:0:0:
315,170,26542,1,0,0:0:0:0:
309,129,26619,1,0,3:0:0:0:
280,99,26695,1,0,0:0:0:0:
238,92,26772,2,0,L|169:89,2,42.5,8|0|0,0:0|0:0|0:0,0:0:0:0:
345,219,27078,6,0,P|412:163|378:97,1,170,2|8,3:2|0:0,0:0:0:0:
165,180,27537,1,0,0:0:0:0:
155,153,27588,1,0,0:0:0:0:
157,125,27639,1,0,0:0:0:0:
171,100,27691,2,0,L|259:51,1,85,2|0,0:0|3:0,0:0:0:0:
333,159,27997,2,0,L|328:64,1,85,10|0,0:0|0:0,0:0:0:0:
218,151,28303,5,0,3:0:0:0:
334,153,28456,1,0,0:0:0:0:
376,153,28532,1,0,0:0:0:0:
419,153,28609,1,10,0:2:0:0:
319,88,28761,1,0,0:0:0:0:
233,88,28915,2,0,L|219:27,2,42.5,0|0|0,3:0|3:0|3:0,0:0:0:0:
346,96,29221,2,0,L|407:82,2,42.5,8|8|8,3:0|3:0|3:0,0:0:0:0:
110,218,29528,6,0,P|96:136|177:101,1,170,6|8,3:2|0:0,0:0:0:0:
270,131,29986,2,0,L|262:66,1,42.5
206,74,30140,2,0,L|113:49,1,85,2|0,0:0|3:0,0:0:0:0:
221,166,30446,2,0,L|322:134,1,85,10|0,0:0|0:0,0:0:0:0:
125,223,30752,6,0,P|78:187|148:114,1,170,2|8,3:2|0:0,0:0:0:0:
226,110,31211,1,0,0:0:0:0:
328,183,31364,2,0,L|335:72,1,85,2|0,3:2|3:0,0:0:0:0:
223,128,31670,2,0,L|241:22,1,85,10|0,0:2|0:0,0:0:0:0:
411,217,31976,6,0,P|417:160|324:99,1,170,2|8,3:2|0:0,0:0:0:0:
237,183,32435,1,0,0:0:0:0:
136,179,32588,1,2,0:0:0:0:
139,136,32664,1,0,0:0:0:0:
142,94,32741,1,0,3:0:0:0:
250,70,32895,1,10,0:0:0:0:
291,60,32971,1,0,0:0:0:0:
332,50,33048,1,0,0:0:0:0:
155,262,33354,5,2,0:0:0:0:
124,233,33430,1,0,0:0:0:0:
112,193,33507,1,0,0:0:0:0:
124,153,33583,1,0,0:0:0:0:
155,124,33660,1,0,0:0:0:0:
262,129,33813,2,0,L|248:43,1,85,2|8,0:0|0:0,0:0:0:0:
139,81,34119,2,0,L|89:71,2,42.5,0|8|0,3:0|0:0|3:0,0:0:0:0:
387,244,34425,6,0,P|427:192|342:140,1,170,6|8,3:2|0:0,0:0:0:0:
268,193,34884,2,0,P|218:148|283:74,1,170,0|0,3:0|3:0,0:0:0:0:
355,96,35344,2,0,L|337:-5,1,85,8|0,0:0|0:0,0:0:0:0:
161,232,35650,6,0,P|92:186|127:104,1,170,2|8,3:2|0:0,0:0:0:0:
204,94,36109,1,0,0:0:0:0:
438,210,36262,2,0,L|446:110,1,85,2|0,3:2|3:0,0:0:0:0:
350,110,36568,1,10,0:2:0:0:
108,231,36874,6,0,P|89:146|159:112,1,170,0|8,3:0|0:0,0:0:0:0:
234,158,37333,2,0,L|399:101,1,170,0|0,3:0|3:0,0:0:0:0:
306,78,37793,1,8,0:0:0:0:
80,223,38099,2,0,L|89:132,1,85,2|0,3:2|0:0,0:0:0:0:
189,131,38405,1,10,0:0:0:0:
230,123,38481,1,0,0:0:0:0:
272,116,38558,1,0,0:0:0:0:
171,200,38711,2,0,L|164:157,2,42.5,2|0|0,3:2|3:0|3:0,0:0:0:0:
285,195,39017,2,0,L|340:180,2,42.5,8|8|8,3:0|3:0|3:0,0:0:0:0:
51,263,39323,6,0,P|23:218|104:134,1,170,6|10,3:2|0:2,0:0:0:0:
173,129,39782,1,0,3:0:0:0:
281,237,39935,2,0,L|284:132,1,85,2|0,0:0|3:0,0:0:0:0:
171,117,40242,1,8,0:0:0:0:
276,81,40395,1,0,0:0:0:0:
436,251,40548,6,0,P|489:203|410:129,1,170,2|8,3:2|0:0,0:0:0:0:
329,138,41007,1,0,3:0:0:0:
231,162,41159,1,0,3:0:0:0:
333,227,41313,1,0,3:0:0:0:
426,203,41466,2,0,B|449:172|449:172|391:140,1,85,10|0,0:2|0:0,0:0:0:0:
246,264,41772,6,0,P|187:230|186:125,1,170,2|8,3:2|0:0,0:0:0:0:
275,175,42231,2,0,P|306:110|233:58,1,170,0|0,3:0|3:0,0:0:0:0:
139,169,42691,2,0,B|111:128|111:128|156:109,1,85,8|0,0:0|0:0,0:0:0:0:
318,216,42997,5,2,3:2:0:0:
396,177,43150,2,0,P|408:99|317:64,1,170,8|0,0:0|3:0,0:0:0:0:
243,169,43609,2,0,L|220:118,2,42.5,8|8|0,0:0|0:0|3:0,0:0:0:0:
356,127,43915,2,0,L|407:104,2,42.5,0|0|0,3:0|3:0|3:0,0:0:0:0:
136,202,44221,6,0,L|40:176,2,85,6|0|8,3:2|0:0|0:0,0:0:0:0:
244,227,44680,2,0,P|299:176|215:130,1,170,0|0,3:0|3:0,0:0:0:0:
140,115,45140,2,0,L|152:20,1,85,8|0,0:0|0:0,0:0:0:0:
336,344,45446,5,2,3:2:0:0:
412,308,45599,1,0,0:0:0:0:
441,231,45752,1,8,0:0:0:0:
406,155,45905,1,0,3:0:0:0:
272,163,46058,2,0,L|269:62,1,85,2|0,3:2|3:0,0:0:0:0:
399,101,46364,2,0,L|391:4,1,85,8|0,0:0|0:0,0:0:0:0:
165,258,46670,6,0,P|95:223|138:128,1,170,2|8,3:2|0:0,0:0:0:0:
211,141,47129,2,0,P|290:92|285:4,1,170,0|0,3:0|3:0,0:0:0:0:
187,56,47588,2,0,L|79:9,1,85,8|0,0:0|0:0,0:0:0:0:
344,252,47895,6,0,L|350:140,1,85,2|0,3:2|0:0,0:0:0:0:
239,166,48201,1,10,0:2:0:0:
246,124,48277,1,0,0:0:0:0:
287,107,48354,1,0,0:0:0:0:
401,94,48507,2,0,L|454:84,2,42.5,2|0|0,3:2|3:0|3:0,0:0:0:0:
292,113,48813,2,0,L|288:57,2,42.5,8|8|8,3:0|3:0|3:0,0:0:0:0:
75,218,49119,6,0,P|56:157|45:116,1,85,6|0,3:2|0:0,0:0:0:0:
156,142,49425,2,0,L|176:32,1,85,8|0,0:0|3:0,0:0:0:0:
287,136,49731,2,0,L|333:65,1,85,0|0,0:0|3:0,0:0:0:0:
222,72,50037,1,8,0:0:0:0:
134,73,50191,1,0,0:0:0:0:
292,220,50344,6,0,L|472:177,1,170,2|8,3:2|0:0,0:0:0:0:
357,137,50803,1,0,3:0:0:0:
259,146,50956,2,0,L|252:54,1,85,0|0,3:0|3:0,0:0:0:0:
356,62,51262,2,0,L|246:43,1,85,10|0,0:2|0:0,0:0:0:0:
118,259,51568,6,0,P|66:222|145:159,1,170,2|8,3:2|0:0,0:0:0:0:
213,203,52027,2,0,P|290:163|275:86,1,170,0|0,3:0|3:0,0:0:0:0:
177,122,52486,2,0,L|166:17,1,85,8|0,0:0|0:0,0:0:0:0:
330,204,52793,5,2,3:2:0:0:
407,153,52946,2,0,P|410:94|316:37,1,170,8|0,0:0|0:0,0:0:0:0:
219,141,53405,2,0,L|152:122,2,42.5,8|8|8,0:0|0:0|0:0,0:0:0:0:
326,167,53710,2,0,L|332:109,2,42.5,0|0|0,3:0|3:0|3:0,0:0:0:0:
147,257,54017,5,4,0:3:0:0:
256,192,58915,12,4,61058,0:3:0:0:
336,326,61364,5,4,0:3:0:0:
371,302,61440,1,4,0:3:0:0:
392,266,61517,1,4,0:3:0:0:
395,224,61593,1,4,0:3:0:0:
380,185,61670,1,4,0:3:0:0:
348,157,61746,1,4,0:3:0:0:
308,145,61823,1,4,0:3:0:0:
266,152,61899,1,4,0:3:0:0:
215,212,61976,6,0,L|207:152,1,42.5,4|4,0:3|0:3,0:0:0:0:
257,149,62129,2,0,L|324:123,1,42.5,4|4,0:3|0:3,0:0:0:0:
338,128,62282,1,4,0:3:0:0:
350,88,62358,1,4,0:3:0:0:
332,51,62435,1,4,0:3:0:0:
292,38,62511,1,0,0:0:0:0:
137,240,62742,5,2,0:0:0:0:
124,199,62818,1,0,0:0:0:0:
129,157,62895,1,0,0:0:0:0:
151,121,62971,1,0,0:0:0:0:
185,98,63048,1,0,0:0:0:0:
289,125,63201,2,0,L|306:3,1,85
64,209,63507,1,8,0:0:0:0:
69,166,63583,1,0,3:0:0:0:
74,124,63660,1,0,3:0:0:0:
312,137,63814,6,0,L|431:110,2,85,6|0|8,3:2|0:0|0:0,0:0:0:0:
159,251,64272,2,0,P|109:218|178:150,1,170,2|0,0:0|0:0,0:0:0:0:
272,119,64731,2,0,L|369:72,1,85,10|0,0:0|0:0,0:0:0:0:
188,269,65037,6,0,L|184:163,1,85,2|0,3:2|0:0,0:0:0:0:
275,174,65343,1,8,0:0:0:0:
167,215,65497,1,0,0:0:0:0:
134,189,65573,1,0,0:0:0:0:
128,148,65650,1,0,3:0:0:0:
151,114,65726,1,0,0:0:0:0:
191,104,65803,1,0,0:0:0:0:
305,123,65956,1,8,0:0:0:0:
301,80,66032,1,0,0:0:0:0:
297,38,66109,1,0,0:0:0:0:
175,136,66262,6,0,P|121:123|86:13,1,170,2|8,3:2|0:0,0:0:0:0:
352,227,66721,1,0,0:0:0:0:
362,200,66772,1,0,0:0:0:0:
366,172,66823,1,0,0:0:0:0:
361,142,66874,2,0,L|273:120,1,85,2|0,3:2|0:0,0:0:0:0:
184,80,67180,2,0,L|285:60,1,85,10|0,0:0|0:0,0:0:0:0:
374,62,67486,5,0,3:0:0:0:
456,227,67640,1,0,0:0:0:0:
458,185,67716,1,0,0:0:0:0:
436,149,67793,1,10,0:2:0:0:
332,142,67946,2,0,L|268:135,1,42.5
237,172,68099,2,0,L|230:67,1,85,2|0,3:2|0:0,0:0:0:0:
354,77,68404,2,0,L|395:64,2,42.5,8|0|0,3:3|3:0|3:0,0:0:0:0:
117,264,68711,6,0,P|89:229|181:157,1,170,6|8,3:2|0:0,0:0:0:0:
252,148,69170,2,0,L|295:119,1,42.5
234,127,69323,2,0,L|137:92,1,85,2|0,3:2|0:0,0:0:0:0:
243,222,69629,2,0,L|254:123,1,85,10|0,0:2|0:0,0:0:0:0:
90,196,69935,6,0,P|46:159|127:88,1,170,2|8,3:2|0:0,0:0:0:0:
190,99,70395,1,0,0:0:0:0:
279,155,70548,2,0,L|286:43,1,85,2|0,3:2|0:0,0:0:0:0:
179,114,70854,2,0,B|157:79|157:79|200:37,1,85,10|0,0:2|0:0,0:0:0:0:
368,216,71160,6,0,P|432:175|393:99,1,170,2|8,3:2|0:0,0:0:0:0:
307,98,71619,1,0,0:0:0:0:
197,198,71772,1,2,3:2:0:0:
199,155,71848,1,0,0:0:0:0:
201,113,71925,1,0,0:0:0:0:
312,166,72078,1,10,0:2:0:0:
327,127,72154,1,0,0:0:0:0:
318,86,72231,1,0,0:0:0:0:
287,58,72307,1,0,0:0:0:0:
246,52,72384,1,0,3:0:0:0:
71,214,72537,5,10,0:0:0:0:
57,174,72613,1,0,0:0:0:0:
63,132,72690,1,0,0:0:0:0:
88,98,72766,1,0,0:0:0:0:
126,80,72843,1,0,3:0:0:0:
239,87,72997,2,0,L|318:78,2,42.5,8|8|8,3:3|3:3|3:3,0:0:0:0:
132,194,73303,2,0,L|123:115,2,42.5,0|0|0,3:0|3:0|3:0,0:0:0:0:
377,155,73609,6,0,L|491:143,2,85,6|0|8,3:2|0:0|0:0,0:0:0:0:
220,270,74068,2,0,P|174:251|169:143,1,170,2|0,0:2|0:0,0:0:0:0:
250,86,74527,2,0,L|331:156,1,85,10|0,0:2|0:0,0:0:0:0:
211,237,74833,6,0,L|192:140,1,85,2|0,3:2|0:0,0:0:0:0:
289,106,75140,1,8,0:0:0:0:
393,199,75293,1,2,0:2:0:0:
401,157,75369,1,0,0:0:0:0:
387,117,75446,1,0,3:0:0:0:
356,89,75522,1,0,0:0:0:0:
315,80,75599,1,0,0:0:0:0:
213,103,75752,1,8,0:0:0:0:
172,90,75828,1,0,0:0:0:0:
131,78,75905,1,0,0:0:0:0:
289,283,76058,6,0,P|364:249|391:167,1,170,2|8,3:2|0:0,0:0:0:0:
168,232,76517,1,0,0:0:0:0:
146,213,76568,1,0,0:0:0:0:
134,188,76619,1,0,0:0:0:0:
131,158,76670,2,0,L|156:60,1,85,2|0,3:2|0:0,0:0:0:0:
255,88,76976,2,0,L|350:40,1,85,10|0,0:0|0:0,0:0:0:0:
248,190,77282,5,0,3:0:0:0:
361,192,77435,1,0,0:0:0:0:
365,150,77512,1,0,0:0:0:0:
369,107,77588,1,10,0:2:0:0:
258,195,77742,1,0,0:0:0:0:
216,187,77818,1,0,0:0:0:0:
182,158,77895,2,0,L|199:51,1,85,2|0,3:2|0:0,0:0:0:0:
311,104,78201,2,0,L|319:40,2,42.5,8|0|8,3:0|3:0|3:0,0:0:0:0:
72,257,78507,6,0,P|52:203|148:132,1,170,6|8,3:2|0:0,0:0:0:0:
231,124,78966,2,0,L|303:108,1,42.5
334,119,79119,2,0,L|344:3,1,85,2|0,3:2|0:0,0:0:0:0:
220,272,79425,2,0,L|211:165,1,85,10|0,0:2|0:0,0:0:0:0:
388,210,79731,6,0,P|436:164|371:107,1,170,2|8,3:2|0:0,0:0:0:0:
291,118,80191,1,0,0:0:0:0:
199,206,80344,2,0,L|207:99,1,85,2|0,3:2|0:0,0:0:0:0:
303,149,80650,2,0,L|314:38,1,85,10|0,0:2|0:0,0:0:0:0:
198,218,80956,6,0,P|91:191|69:103,1,170,0|8,3:0|0:0,0:0:0:0:
145,115,81416,1,0,0:0:0:0:
241,148,81568,1,2,3:2:0:0:
247,105,81644,1,0,0:0:0:0:
253,63,81721,1,0,0:0:0:0:
127,160,81874,1,8,0:0:0:0:
112,120,81950,1,0,0:0:0:0:
123,80,82027,1,0,0:0:0:0:
156,55,82103,1,0,0:0:0:0:
197,54,82180,1,2,0:0:0:0:
302,262,82333,5,2,0:0:0:0:
314,221,82409,1,0,0:0:0:0:
305,180,82486,1,0,0:0:0:0:
278,148,82562,1,0,0:0:0:0:
238,134,82639,1,0,0:0:0:0:
88,129,82793,2,0,L|38:125,2,42.5,8|8|0,3:0|3:0|3:0,0:0:0:0:
189,124,83099,2,0,L|193:55,2,42.5,0|0|0,3:0|3:0|3:0,0:0:0:0:
424,264,83405,6,0,P|454:166|238:135,1,382.500014591218,6|0,3:1|0:0,0:0:0:0:
153,198,84017,2,0,L|234:144,1,85,10|0,0:0|0:0,0:0:0:0:
313,181,84323,1,2,0:0:0:0:
411,141,84476,1,2,0:0:0:0:
276,312,84629,2,0,B|231:358|29:266|127:40,1,382.500014591218,2|0,3:1|0:0,0:0:0:0:
357,152,85242,6,0,L|389:95,6,63.7500024318696,6|0|0|0|0|0|0,0:1|0:0|0:0|0:0|0:0|0:0|3:0,0:0:0:0:
241,165,85854,6,0,L|236:96,6,63.7500024318696,8|0|0|0|0|0|0,3:1|0:0|0:0|0:0|0:0|0:0|0:0,0:0:0:0:
351,168,86466,1,10,0:0:0:0:
337,116,86543,1,2,0:0:0:0:
259,109,86620,1,2,0:0:0:0:
158,157,86772,1,2,0:0:0:0:
175,82,86925,1,2,0:0:0:0:
449,249,87078,6,0,L|443:138,1,85,2|0,3:2|0:0,0:0:0:0:
340,154,87384,1,0,0:0:0:0:
298,143,87460,1,0,0:0:0:0:
257,132,87537,1,0,0:0:0:0:
355,97,87691,2,0,L|347:-13,1,85,10|0,0:0|0:0,0:0:0:0:
180,112,87997,2,0,L|92:51,1,85,4|0,0:0|0:0,0:0:0:0:
359,272,88303,6,0,P|462:230|375:20,1,382.500014591218,6|0,3:1|0:0,0:0:0:0:
295,153,88915,2,0,L|194:135,1,85,10|0,0:0|0:0,0:0:0:0:
299,90,89221,1,2,0:0:0:0:
385,72,89374,1,2,0:0:0:0:
230,305,89527,2,0,P|112:267|179:63,1,382.500014591218,2|0,3:1|0:0,0:0:0:0:
403,169,90140,6,0,L|444:119,6,42.5,6|0|0|0|0|0|0,0:1|0:0|0:0|0:0|3:0|0:0|3:0,0:0:0:0:
308,175,90752,6,0,L|304:104,6,42.5,8|0|0|0|0|0|0,3:1|0:0|0:0|0:0|0:0|0:0|0:0,0:0:0:0:
203,118,91364,1,10,0:0:0:0:
161,109,91440,1,2,0:0:0:0:
119,100,91517,1,2,0:0:0:0:
208,210,91670,1,2,0:0:0:0:
291,177,91823,1,2,0:0:0:0:
134,288,91976,5,0,3:0:0:0:
95,270,92052,1,0,3:0:0:0:
66,239,92129,1,0,3:0:0:0:
53,200,92205,1,0,3:0:0:0:
56,157,92282,1,0,3:0:0:0:
76,120,92358,1,0,3:0:0:0:
109,94,92435,1,0,3:0:0:0:
280,137,92589,2,0,L|371:90,1,85,0|0,3:0|3:0,0:0:0:0:
183,83,92895,2,0,L|95:52,1,85,0|0,3:0|3:0,0:0:0:0:
356,300,93201,6,0,P|409:245|323:214,1,170,6|8,3:2|0:0,0:0:0:0:
242,185,93660,1,0,0:0:0:0:
143,168,93812,2,0,L|165:50,1,85,0|0,3:0|0:0,0:0:0:0:
264,77,94119,2,0,L|363:39,1,85,8|0,0:0|0:0,0:0:0:0:
166,291,94425,6,0,P|116:237|191:177,1,170,2|8,3:2|0:0,0:0:0:0:
267,174,94884,1,0,0:0:0:0:
432,185,95037,2,0,P|448:126|351:63,1,170,2|8,3:2|0:0,0:0:0:0:
272,123,95497,1,0,0:0:0:0:
142,272,95650,5,2,3:2:0:0:
80,214,95803,1,0,0:0:0:0:
80,132,95956,1,8,0:0:0:0:
138,73,96109,1,0,0:0:0:0:
262,199,96262,2,0,L|266:89,1,85,0|0,3:0|0:0,0:0:0:0:
143,168,96568,2,0,L|130:60,1,85,8|0,0:0|0:0,0:0:0:0:
380,224,96874,6,0,L|388:131,1,85,2|0,3:2|0:0,0:0:0:0:
276,136,97180,1,10,0:2:0:0:
233,133,97256,1,0,0:0:0:0:
191,130,97333,1,0,0:0:0:0:
287,114,97486,2,0,L|272:15,1,85,2|0,3:2|0:0,0:0:0:0:
169,42,97793,2,0,L|105:33,2,42.5,8|8|8,3:0|3:0|3:0,0:0:0:0:
455,231,98099,6,0,L|457:140,1,85,6|0,3:2|0:0,0:0:0:0:
337,185,98405,2,0,L|331:92,1,85,10|0,0:0|0:0,0:0:0:0:
220,121,98711,2,0,L|117:88,1,85,2|0,3:2|0:0,0:0:0:0:
235,195,99017,1,10,0:2:0:0:
332,154,99170,1,0,0:2:0:0:
173,284,99323,6,0,P|89:220|113:164,1,170,2|8,3:2|0:0,0:0:0:0:
195,162,99782,1,0,0:0:0:0:
289,191,99935,2,0,P|298:113|201:76,1,170,0|10,3:0|0:2,0:0:0:0:
137,159,100394,1,0,0:0:0:0:
288,266,100548,6,0,P|351:239|348:118,1,170,2|8,3:2|0:0,0:0:0:0:
295,115,101007,1,0,0:0:0:0:
206,224,101160,2,0,P|148:176|219:115,1,170,0|8,3:0|0:0,0:0:0:0:
289,88,101619,1,0,0:0:0:0:
418,181,101772,1,2,3:2:0:0:
438,109,101925,1,8,0:0:0:0:
242,238,102231,1,0,3:0:0:0:
157,218,102384,2,0,L|101:204,2,42.5,8|8|8,3:2|3:2|3:2,0:0:0:0:
259,175,102691,2,0,L|274:116,2,42.5,0|0|0,3:0|3:0|3:0,0:0:0:0:
102,271,102997,6,0,P|78:232|152:126,1,170,6|0,0:2|0:0,0:0:0:0:
222,224,103456,2,0,P|303:162|298:80,1,170,2|0,0:0|0:0,0:0:0:0:
251,70,103915,1,0,0:0:0:0:
105,243,104221,6,0,L|119:64,1,170,2|0,0:0|0:0,0:0:0:0:
295,258,104833,1,2,0:0:0:0:
328,232,104909,1,0,0:0:0:0:
350,196,104986,1,0,0:0:0:0:
359,154,105062,1,0,0:0:0:0:
352,113,105139,1,0,0:0:0:0:
331,76,105215,1,0,0:0:0:0:
298,49,105292,1,0,0:0:0:0:
258,35,105368,1,0,0:0:0:0:
216,36,105446,6,0,P|178:77|229:186,1,170,2|0,0:0|0:0,0:0:0:0:
322,325,105905,1,0,0:0:0:0:
333,299,105956,1,0,0:0:0:0:
339,271,106007,1,0,0:0:0:0:
337,242,106058,2,0,L|305:62,1,170,2|0,0:0|0:0,0:0:0:0:
141,130,106670,5,2,0:0:0:0:
229,173,106824,2,0,L|286:156,2,42.5
129,178,107130,2,0,L|137:113,1,42.5
165,260,107283,6,0,L|464:80,1,340,2|2,0:0|0:0,0:0:0:0:
250,224,108354,2,0,L|237:165,2,42.5,2|0|0,0:0|0:0|0:0,0:0:0:0:
391,208,108812,1,0,0:0:0:0:
237,338,109119,6,0,P|153:284|276:108,1,340,2|2,0:0|0:0,0:0:0:0:
406,244,110037,1,0,0:0:0:0:
236,351,110344,6,0,L|230:85,1,255,2|2,0:0|0:0,0:0:0:0:
346,262,110956,1,2,0:0:0:0:
364,224,111032,1,0,0:0:0:0:
373,182,111109,1,0,0:0:0:0:
371,140,111185,1,0,0:0:0:0:
358,99,111262,1,0,0:0:0:0:
335,64,111338,1,0,0:0:0:0:
304,35,111415,1,0,0:0:0:0:
267,14,111491,1,0,0:0:0:0:
226,5,111568,1,2,0:0:0:0:
122,233,111721,5,2,0:0:0:0:
109,192,111797,1,0,0:0:0:0:
110,150,111874,1,0,0:0:0:0:
126,111,111950,1,0,0:0:0:0:
155,79,112027,1,0,0:0:0:0:
323,268,112333,2,0,P|357:207|228:69,1,255,2|2,0:0|0:0,0:0:0:0:
256,192,113098,12,2,117691,0:0:0:0:
