osu file format v14

[General]
AudioFilename: audio.mp3
AudioLeadIn: 0
PreviewTime:63744
Countdown: 0
SampleSet: Soft
StackLeniency: 0.7
Mode: 2
LetterboxInBreaks: 0
WidescreenStoryboard: 1

[Editor]
DistanceSpacing: 1.7
BeatDivisor: 4
GridSize: 32
TimelineZoom: 2.2

[Metadata]
Title:Yuujou
TitleUnicode:Yuujou
Artist:Thaehan
ArtistUnicode:Thaehan
Creator:Ascendance
Version:Salad
Source:osu!
Tags:mapping olympiad contest sinnoh instrumental electronic featured artist chiptune loki bwa mappers guild mpg fa
BeatmapID:2597835
BeatmapSetID:1249928

[Difficulty]
HPDrainRate:4
CircleSize:3
OverallDifficulty:7
ApproachRate:7
SliderMultiplier:1.3
SliderTickRate:1

[Events]
//Background and Video events
0,0,"ascendance please compress images -_-.jpg"
//Break Periods
2,54217,58015
//Storyboard Layer 0 (Background)
//Storyboard Layer 1 (Fail)
//Storyboard Layer 2 (Pass)
//Storyboard Layer 3 (Foreground)
//Storyboard Layer 4 (Overlay)
//Storyboard Sound Samples

[TimingPoints]
140,306.122448979592,4,2,1,30,1,0
5037,-125,4,2,1,30,0,0
9935,-125,4,2,1,40,0,0
12384,-111.111111111111,4,2,1,50,0,0
13609,-100,4,2,1,60,0,0
14068,-100,4,2,2,60,0,0
14374,-100,4,2,1,60,0,0
14833,-100,4,2,1,70,0,0
15599,-100,4,2,2,70,0,0
15752,-100,4,2,1,70,0,0
16823,-100,4,2,2,70,0,0
16976,-100,4,2,1,70,0,0
17129,-100,4,2,2,70,0,0
17282,-100,4,2,1,70,0,0
17895,-100,4,2,2,70,0,0
18201,-100,4,2,1,70,0,0
18966,-100,4,2,2,70,0,0
19119,-100,4,2,1,70,0,0
20344,-100,4,2,2,70,0,0
20650,-100,4,2,1,70,0,0
21568,-100,4,2,2,70,0,0
21874,-100,4,2,1,70,0,0
23099,-100,4,2,2,70,0,0
23558,-100,4,2,1,70,0,0
23864,-100,4,2,2,70,0,0
24629,-100,4,2,1,70,0,0
25395,-100,4,2,2,70,0,0
25548,-100,4,2,1,70,0,0
26619,-100,4,2,2,70,0,0
26925,-100,4,2,1,70,0,0
27691,-100,4,2,2,70,0,0
27997,-100,4,2,1,70,0,0
28762,-100,4,2,2,70,0,0
28915,-100,4,2,1,70,0,0
30140,-100,4,2,2,70,0,0
30446,-100,4,2,1,70,0,0
31364,-100,4,2,2,70,0,0
31670,-100,4,2,1,70,0,0
33813,-100,4,2,2,70,0,0
34425,-100,4,1,1,60,0,0
36874,-100,4,1,2,60,0,0
37027,-100,4,1,1,60,0,0
39017,-100,4,1,2,60,0,0
39323,-100,4,1,1,80,0,0
39476,-100,4,1,1,60,0,0
46670,-100,4,1,2,60,0,0
46823,-100,4,1,1,60,0,0
48813,-100,4,1,2,60,0,0
49119,-100,4,1,1,80,0,0
49272,-100,4,1,1,60,0,0
50344,-100,4,1,2,60,0,0
50497,-100,4,1,1,60,0,0
54017,-100,4,2,1,50,0,0
62742,-100,4,1,1,60,0,0
63201,-100,4,2,1,20,0,0
63354,-100,4,2,1,60,0,0
63507,-100,4,2,2,60,0,0
63813,-90.9090909090909,4,2,1,70,0,1
64578,-90.9090909090909,4,2,2,70,0,1
64731,-90.9090909090909,4,2,1,70,0,1
65803,-90.9090909090909,4,2,2,70,0,1
65956,-90.9090909090909,4,2,1,70,0,1
66109,-90.9090909090909,4,2,2,70,0,1
66262,-90.9090909090909,4,2,1,70,0,1
66874,-90.9090909090909,4,2,2,70,0,1
67180,-90.9090909090909,4,2,1,70,0,1
67946,-90.9090909090909,4,2,2,70,0,1
68099,-90.9090909090909,4,2,1,70,0,1
69170,-90.9090909090909,4,2,2,70,0,1
69323,-90.9090909090909,4,2,1,70,0,1
70548,-90.9090909090909,4,2,2,70,0,1
70854,-90.9090909090909,4,2,1,70,0,1
72384,-90.9090909090909,4,2,2,70,0,1
72537,-90.9090909090909,4,2,1,70,0,1
72691,-90.9090909090909,4,2,2,70,0,1
72997,-90.9090909090909,4,2,1,70,0,1
73150,-90.9090909090909,4,2,2,70,0,0
73303,-90.9090909090909,4,2,1,70,0,0
73609,-90.9090909090909,4,2,1,70,0,1
74374,-90.9090909090909,4,2,2,70,0,1
74527,-90.9090909090909,4,2,1,70,0,1
75599,-90.9090909090909,4,2,2,70,0,1
75752,-90.9090909090909,4,2,1,70,0,1
75905,-90.9090909090909,4,2,2,70,0,1
76058,-90.9090909090909,4,2,1,70,0,1
76670,-90.9090909090909,4,2,2,70,0,1
76976,-90.9090909090909,4,2,1,70,0,1
77742,-90.9090909090909,4,2,2,70,0,1
77895,-90.9090909090909,4,2,1,70,0,1
78966,-90.9090909090909,4,2,2,70,0,1
79119,-90.9090909090909,4,2,1,70,0,1
80344,-90.9090909090909,4,2,2,70,0,1
80650,-90.9090909090909,4,2,1,70,0,1
82180,-90.9090909090909,4,2,1,60,0,0
82793,-90.9090909090909,4,2,2,60,0,0
83405,-90.9090909090909,4,1,4,60,0,0
93201,-90.9090909090909,4,1,1,60,0,0
97793,-90.9090909090909,4,1,2,60,0,0
98099,-90.9090909090909,4,1,1,60,0,0
102997,-90.9090909090909,4,2,1,40,0,0
104221,-111.111111111111,4,2,1,40,0,0

[Colours]
Combo1 : 255,226,140
Combo2 : 255,157,206
Combo3 : 125,184,255
Combo4 : 125,255,125

[HitObjects]
118,327,5037,6,0,P|79:258|91:217,1,104,4|8,0:3|0:0,0:0:0:0:
220,169,5803,2,0,L|293:159,1,52,4|8,0:3|0:0,0:0:0:0:
420,156,6262,6,0,L|200:131,2,208,4|4|4,0:3|0:3|0:3,0:0:0:0:
296,200,7793,1,8,0:0:0:0:
458,279,8252,2,0,L|459:207,1,52,4|8,0:3|0:0,0:0:0:0:
316,314,8711,6,0,P|255:308|198:305,1,104,4|8,0:3|0:0,0:0:0:0:
318,217,9323,2,0,P|401:231|443:232,1,104,4|8,0:3|0:0,0:0:0:0:
264,139,9935,5,4,0:3:0:0:
89,260,10395,2,0,L|86:187,1,52
211,142,10854,1,8,0:0:0:0:
41,76,11160,6,0,L|163:69,1,104,4|8,0:3|0:0,0:0:0:0:
313,154,11772,2,0,L|187:165,1,104,4|8,0:3|0:0,0:0:0:0:
49,183,12384,5,4,0:3:0:0:
181,251,12691,1,8,0:0:0:0:
318,195,12997,2,0,L|321:60,1,116.999996429443,8|8,0:0|0:0,0:0:0:0:
195,113,13609,5,4,0:0:0:0:
320,202,13915,2,0,L|455:190,2,130,8|8|0,0:0|0:0|0:0,0:0:0:0:
222,214,14680,1,8,0:0:0:0:
38,275,14833,6,0,P|12:217|61:144,1,130,4|8,0:0|0:0,0:0:0:0:
131,135,15293,1,0,0:0:0:0:
299,223,15599,2,0,L|304:136,1,65,8|8,0:0|0:0,0:0:0:0:
171,312,16058,6,0,L|323:293,1,130,4|8,0:0|0:0,0:0:0:0:
422,187,16670,2,0,L|268:206,1,130,8|8,0:0|0:0,0:0:0:0:
167,213,17282,6,0,P|125:121|193:64,1,195,4|2,0:0|0:0,0:0:0:0:
350,29,17895,2,0,L|347:190,1,130,8|8,0:0|0:0,0:0:0:0:
190,278,18507,6,0,L|343:267,1,130,4|8,0:0|0:0,0:0:0:0:
319,268,18966,1,8,0:0:0:0:
319,268,19119,1,8,0:0:0:0:
183,202,19425,2,0,L|143:142,1,65,8|8,0:0|0:0,0:0:0:0:
314,79,19731,5,4,0:0:0:0:
462,198,20037,2,0,L|465:109,2,65,8|0|8,0:0|0:0|0:0,0:0:0:0:
350,242,20650,1,8,0:0:0:0:
223,277,20956,6,0,L|90:279,1,130,0|8,0:0|0:0,0:0:0:0:
275,205,21568,2,0,L|412:205,1,130,8|8,0:0|0:0,0:0:0:0:
162,178,22180,6,0,P|103:112|182:30,1,195,4|0,0:0|0:0,0:0:0:0:
280,28,22793,2,0,L|327:29,2,32.5,8|8|8,0:0|0:0|0:0,0:0:0:0:
180,121,23099,2,0,L|181:30,1,65,8|8,0:0|0:0,0:0:0:0:
345,155,23558,6,0,L|393:155,2,32.5,8|8|8,0:0|0:0|0:0,0:0:0:0:
244,214,23864,2,0,L|244:134,1,65,8|8,0:0|0:0,0:0:0:0:
421,259,24170,1,4,0:0:0:0:
276,307,24476,1,8,0:0:0:0:
98,267,24629,6,0,P|78:206|134:137,1,130,4|8,0:0|0:0,0:0:0:0:
208,133,25088,1,0,0:0:0:0:
354,132,25395,2,0,L|274:132,1,65,8|8,0:0|0:0,0:0:0:0:
131,52,25854,2,0,L|272:52,1,130,4|8,0:0|0:0,0:0:0:0:
389,57,26466,2,0,P|432:104|402:180,1,130,8|8,0:0|0:0,0:0:0:0:
247,277,27078,6,0,P|149:254|143:152,1,195,4|2,0:0|0:0,0:0:0:0:
328,129,27691,2,0,L|467:122,1,130,8|8,0:0|0:0,0:0:0:0:
282,37,28303,6,0,L|137:24,1,130,4|8,0:0|0:0,0:0:0:0:
157,29,28762,1,8,0:0:0:0:
157,29,28915,1,8,0:0:0:0:
301,165,29221,2,0,L|304:86,1,65,8|8,0:0|0:0,0:0:0:0:
107,199,29527,5,4,0:0:0:0:
247,278,29833,2,0,L|329:263,2,65,8|0|8,0:0|0:0|0:0,0:0:0:0:
107,199,30446,1,8,0:0:0:0:
256,182,30752,6,0,P|284:123|278:53,1,130,4|8,0:0|0:0,0:0:0:0:
130,189,31364,2,0,P|102:248|108:318,1,130,8|8,0:0|0:0,0:0:0:0:
266,359,31976,6,0,P|367:348|392:247,1,195
288,230,32588,2,0,L|237:222,2,32.5,8|8|0,0:0|0:0|0:0,0:0:0:0:
389,106,32895,2,0,L|388:187,1,65,8|8,0:0|0:0,0:0:0:0:
196,130,33354,6,0,L|147:129,2,32.5,2|0|2,0:0|0:0|0:0,0:0:0:0:
291,132,33660,1,2,0:0:0:0:
389,132,33813,2,0,L|389:272,1,130,8|8,0:0|0:0,0:0:0:0:
116,345,34425,6,0,P|37:255|138:159,1,260
259,157,35344,1,8,0:0:0:0:
119,31,35650,2,0,L|118:164,1,130,0|8,0:0|0:0,0:0:0:0:
256,212,36262,2,0,L|105:212,1,130,0|8,0:0|0:0,0:0:0:0:
256,214,36874,6,0,P|326:116|233:34,1,260,4|0,0:0|0:0,0:0:0:0:
100,36,37793,1,8,0:0:0:0:
246,39,38099,2,0,L|390:35,1,130,0|8,0:0|0:0,0:0:0:0:
375,35,38481,1,0,0:0:0:0:
375,35,38558,1,0,0:0:0:0:
256,193,38711,2,0,L|107:176,1,130,0|8,0:0|0:0,0:0:0:0:
380,341,39323,6,0,P|431:287|422:212,1,130,4|8,0:0|0:0,0:0:0:0:
246,173,39935,2,0,L|113:167,1,130,0|8,0:0|0:0,0:0:0:0:
116,167,40395,1,0,0:0:0:0:
116,167,40548,5,0,0:0:0:0:
255,102,40854,1,8,0:0:0:0:
116,167,41160,2,0,L|120:308,1,130,0|8,0:0|0:0,0:0:0:0:
300,359,41772,6,0,P|341:306|319:240,1,130,0|8,0:0|0:0,0:0:0:0:
178,217,42384,2,0,L|310:206,1,130,0|8,0:0|0:0,0:0:0:0:
441,161,42997,6,0,L|449:116,2,32.5,8|8|0,0:0|0:0|0:0,0:0:0:0:
343,82,43303,2,0,L|333:34,2,32.5,8|8|0,0:0|0:0|0:0,0:0:0:0:
474,44,43609,2,0,L|321:71,1,130,8|10,0:0|0:0,0:0:0:0:
111,41,44221,6,0,P|76:75|73:169,1,130,4|8,0:0|0:0,0:0:0:0:
205,198,44833,2,0,L|277:197,2,65,0|0|8,0:0|0:0|0:0,0:0:0:0:
91,291,45446,6,0,L|228:290,1,130,0|8,0:0|0:0,0:0:0:0:
341,329,46058,2,0,L|339:261,1,65
241,253,46364,2,0,L|233:167,1,65,8|0,0:0|0:0,0:0:0:0:
326,157,46670,6,0,L|475:136,1,130,4|8,0:0|0:0,0:0:0:0:
307,70,47282,2,0,L|165:56,1,130,0|8,0:0|0:0,0:0:0:0:
43,37,47895,5,0,0:0:0:0:
170,74,48201,2,0,L|170:138,1,65,8|0,0:0|0:0,0:0:0:0:
67,176,48507,1,0,0:0:0:0:
198,256,48813,2,0,L|293:256,1,65,8|8,0:0|0:0,0:0:0:0:
435,255,49119,6,0,P|481:217|478:128,1,130,4|8,0:0|0:0,0:0:0:0:
305,93,49731,2,0,L|163:93,1,130,0|8,0:0|0:0,0:0:0:0:
175,93,50191,1,0,0:0:0:0:
175,93,50344,5,4,0:0:0:0:
306,186,50650,1,8,0:0:0:0:
152,270,50956,2,0,L|149:129,1,130,0|8,0:0|0:0,0:0:0:0:
231,111,51415,1,0,0:0:0:0:
316,93,51568,5,4,0:0:0:0:
146,42,51874,1,8,0:0:0:0:
31,90,52180,2,0,L|36:231,1,130,0|8,0:0|0:0,0:0:0:0:
209,299,52793,6,0,L|281:283,1,65,4|0,0:0|0:0,0:0:0:0:
86,203,53252,2,0,L|15:186,2,65,0|8|0,0:0|0:0|0:0,0:0:0:0:
198,229,53711,2,0,L|264:247,1,65
365,281,54017,5,0,0:0:0:0:
256,192,58915,12,8,61058,0:0:0:0:
123,321,61364,6,0,P|72:269|125:163,1,195,2|2,0:0|0:0,0:0:0:0:
213,164,61976,2,4,L|285:163,2,65,4|4|4,0:3|0:3|0:3,0:3:0:0:
452,50,62588,6,0,P|499:163|387:254,1,260,8|2,0:2|0:0,0:0:0:0:
280,259,63507,1,8,0:0:0:0:
288,281,63583,1,8,0:0:0:0:
294,303,63660,1,8,0:0:0:0:
140,236,63813,6,0,P|68:192|79:125,1,143.000004364014,0|8,0:0|0:0,0:0:0:0:
152,84,64272,1,0,0:0:0:0:
311,148,64578,2,0,L|316:73,1,71.5000021820069,8|8,0:0|0:0,0:0:0:0:
156,243,65037,6,0,L|299:231,1,143.000004364014,4|8,0:0|0:0,0:0:0:0:
426,308,65650,2,0,L|282:326,1,143.000004364014,8|8,0:0|0:0,0:0:0:0:
158,347,66262,6,0,P|97:300|142:175,1,214.500006546021,4|2,0:0|0:0,0:0:0:0:
307,210,66874,2,0,P|350:169|342:77,1,143.000004364014,8|8,0:0|0:0,0:0:0:0:
206,29,67486,6,0,P|133:24|60:30,1,143.000004364014,0|8,0:0|0:0,0:0:0:0:
63,29,67946,1,8,0:0:0:0:
63,29,68099,1,8,0:0:0:0:
227,191,68405,2,0,L|235:101,1,71.5000021820069,8|8,0:0|0:0,0:0:0:0:
44,210,68711,6,0,P|32:288|84:335,1,143.000004364014,4|8,0:0|0:0,0:0:0:0:
164,338,69170,2,0,L|245:330,1,71.5000021820069,8|0,0:0|0:0,0:0:0:0:
384,310,69629,1,8,0:0:0:0:
213,77,69935,6,0,P|199:137|197:226,1,143.000004364014,4|8,0:0|0:0,0:0:0:0:
361,370,70548,2,0,P|359:298|344:228,1,143.000004364014,8|8,0:0|0:0,0:0:0:0:
205,217,71160,6,0,L|362:190,1,143.000004364014,4|8,0:0|0:0,0:0:0:0:
227,121,71772,2,0,L|217:76,2,35.7500010910034,8|8|0,0:0|0:0|0:0,0:0:0:0:
343,157,72078,2,0,L|340:236,1,71.5000021820069,8|8,0:0|0:0,0:0:0:0:
237,249,72384,5,8,0:0:0:0:
392,343,72537,2,0,P|429:274|332:182,1,214.500006546021,12|8,0:0|0:0,0:0:0:0:
245,162,73150,2,0,P|143:122|146:88,1,143.000004364014,8|8,0:0|0:0,0:0:0:0:
321,232,73609,6,0,P|387:172|371:105,1,143.000004364014,4|8,0:0|0:0,0:0:0:0:
300,84,74068,1,0,0:0:0:0:
141,148,74374,2,0,L|136:73,1,71.5000021820069,8|8,0:0|0:0,0:0:0:0:
296,243,74833,6,0,L|153:231,1,143.000004364014,4|8,0:0|0:0,0:0:0:0:
26,308,75446,2,0,L|170:326,1,143.000004364014,8|8,0:0|0:0,0:0:0:0:
294,347,76058,6,0,P|355:300|310:175,1,214.500006546021,4|2,0:0|0:0,0:0:0:0:
145,210,76670,2,0,P|102:169|110:77,1,143.000004364014,8|8,0:0|0:0,0:0:0:0:
246,29,77282,6,0,P|319:24|392:30,1,143.000004364014,4|8,0:0|0:0,0:0:0:0:
389,29,77742,1,8,0:0:0:0:
389,29,77895,1,8,0:0:0:0:
225,191,78201,2,0,L|217:101,1,71.5000021820069,8|8,0:0|0:0,0:0:0:0:
408,210,78507,6,0,P|420:288|368:335,1,143.000004364014,4|8,0:0|0:0,0:0:0:0:
311,329,78966,1,8,0:0:0:0:
236,320,79119,1,0,0:0:0:0:
68,310,79425,1,8,0:0:0:0:
258,42,79731,6,0,L|259:198,1,143.000004364014,4|8,0:0|0:0,0:0:0:0:
92,316,80344,2,0,L|96:167,1,143.000004364014,8|8,0:0|0:0,0:0:0:0:
219,227,80956,6,0,P|311:179|318:62,1,214.500006546021,4|0,0:0|0:0,0:0:0:0:
153,50,81568,2,0,L|103:49,2,35.7500010910034,8|8|0,0:0|0:0|0:0,0:0:0:0:
248,111,81874,2,0,L|298:110,2,35.7500010910034,8|8|8,0:0|0:0|0:0,0:0:0:0:
78,199,82333,6,0,L|15:200,2,35.7500010910034,2|0|2,0:0|0:0|0:0,0:0:0:0:
173,201,82640,1,2,0:0:0:0:
266,199,82793,2,0,L|432:199,1,143.000004364014,8|8,0:0|0:0,0:0:0:0:
92,332,83405,6,0,P|20:268|76:157,1,214.500006546021,4|0,0:1|0:0,0:0:0:0:
241,170,84017,2,0,P|276:122|238:44,1,143.000004364014,2|2,0:0|0:0,0:0:0:0:
156,34,84476,1,2,0:0:0:0:
57,71,84629,6,0,L|55:219,1,143.000004364014,8|0,0:0|0:0,0:0:0:0:
298,305,85242,2,0,P|353:263|342:182,1,143.000004364014,8|2,0:0|0:0,0:0:0:0:
256,166,85701,1,0,0:0:0:0:
108,169,85854,5,4,0:0:0:0:
108,169,86160,1,0,0:0:0:0:
233,168,86466,1,2,0:0:0:0:
268,167,86542,1,0,0:0:0:0:
304,167,86619,1,2,0:0:0:0:
219,64,86772,2,0,L|219:152,1,71.5000021820069,2|2,0:0|0:0,0:0:0:0:
402,281,87078,6,0,P|457:233|438:155,1,143.000004364014,4|0,0:0|0:0,0:0:0:0:
306,138,87691,2,0,L|459:143,1,143.000004364014,8|8,0:0|0:0,0:0:0:0:
181,42,88303,6,0,P|103:105|157:216,1,214.500006546021,4|0,0:0|0:0,0:0:0:0:
309,290,88915,2,0,P|328:227|333:198,1,71.5000021820069,2|2,0:0|0:0,0:0:0:0:
226,164,89221,2,0,P|214:103|211:77,1,71.5000021820069,2|2,0:0|0:0,0:0:0:0:
303,51,89527,6,0,P|361:30|456:22,1,143.000004364014,4|0,0:0|0:0,0:0:0:0:
182,313,90140,2,0,P|118:262|131:181,1,143.000004364014,8|2,0:0|0:0,0:0:0:0:
209,165,90599,1,2,0:0:0:0:
312,167,90752,6,0,P|340:109|303:30,1,143.000004364014,4|0,0:0|0:0,0:0:0:0:
151,18,91364,2,0,L|111:18,2,35.7500010910034,2|2|2,0:0|0:0|0:0,0:0:0:0:
262,78,91670,2,0,L|362:78,1,71.5000021820069,2|2,0:0|0:0,0:0:0:0:
172,232,91976,6,0,L|167:187,2,35.7500010910034,4|0|2,0:0|0:0|0:0,0:0:0:0:
256,307,92282,2,0,L|261:262,2,35.7500010910034,4|0|2,0:0|0:0|0:0,0:0:0:0:
175,342,92588,2,0,L|94:349,2,71.5000021820069,2|2|8,0:0|0:0|0:0,0:0:0:0:
475,352,93201,6,0,P|500:302|454:220,1,143.000004364014,4|8,0:0|0:0,0:0:0:0:
378,210,93660,1,0,0:0:0:0:
286,215,93813,2,0,L|281:136,2,71.5000021820069,0|0|8,0:0|0:0|0:0,0:0:0:0:
444,67,94425,6,0,L|280:52,1,143.000004364014,0|8,0:0|0:0,0:0:0:0:
177,201,95037,2,0,L|336:186,1,143.000004364014,0|8,0:0|0:0,0:0:0:0:
165,46,95650,6,0,P|101:94|105:162,1,143.000004364014,4|8,0:0|0:0,0:0:0:0:
195,186,96109,1,0,0:0:0:0:
302,243,96262,2,0,L|305:169,1,71.5000021820069
201,214,96568,2,0,L|196:290,1,71.5000021820069,8|0,0:0|0:0,0:0:0:0:
400,333,96874,5,4,0:0:0:0:
290,245,97180,1,8,0:0:0:0:
289,209,97256,1,0,0:0:0:0:
289,173,97333,1,0,0:0:0:0:
417,177,97486,2,0,P|465:147|457:42,1,143.000004364014,0|8,0:0|0:0,0:0:0:0:
216,38,98099,6,0,L|65:27,1,143.000004364014,4|8,0:0|0:0,0:0:0:0:
232,216,98711,2,0,P|285:186|282:92,1,143.000004364014,0|8,0:0|0:0,0:0:0:0:
205,80,99170,1,0,0:0:0:0:
122,122,99323,6,0,L|124:265,1,143.000004364014,4|8,0:0|0:0,0:0:0:0:
296,327,99935,2,0,L|317:253,1,71.5000021820069
213,220,100242,2,0,L|201:148,1,71.5000021820069,8|0,0:0|0:0,0:0:0:0:
294,120,100548,6,0,P|377:101|447:85,1,143.000004364014,4|8,0:0|0:0,0:0:0:0:
263,218,101160,2,0,P|167:215|106:199,1,143.000004364014,0|8,0:0|0:0,0:0:0:0:
189,322,101772,5,8,0:0:0:0:
353,357,101925,2,0,P|401:328|397:231,1,143.000004364014
320,224,102384,2,0,L|277:219,2,35.7500010910034,8|0|0,0:0|0:0|0:0,0:0:0:0:
406,177,102691,2,0,L|449:172,2,35.7500010910034
323,223,102997,5,2,0:0:0:0:
