osu file format v14

[General]
AudioFilename: audio.mp3
AudioLeadIn: 0
PreviewTime:63744
Countdown: 0
SampleSet: Normal
StackLeniency: 0.7
Mode: 2
LetterboxInBreaks: 0
WidescreenStoryboard: 0

[Editor]
DistanceSpacing: 1.7
BeatDivisor: 4
GridSize: 32
TimelineZoom: 2.2

[Metadata]
Title:Yuujou
TitleUnicode:Yuujou
Artist:Thaehan
ArtistUnicode:Thaehan
Creator:Ascendance
Version:Platter
Source:osu!
Tags:mapping olympiad contest sinnoh instrumental electronic featured artist chiptune loki bwa mappers guild mpg fa
BeatmapID:2597833
BeatmapSetID:1249928

[Difficulty]
HPDrainRate:5
CircleSize:3.5
OverallDifficulty:8
ApproachRate:8
SliderMultiplier:1.6
SliderTickRate:1

[Events]
//Background and Video events
0,0,"ascendance please compress images -_-.jpg"
//Break Periods
2,54217,58165
//Storyboard Layer 0 (Background)
//Storyboard Layer 1 (Fail)
//Storyboard Layer 2 (Pass)
//Storyboard Layer 3 (Foreground)
//Storyboard Layer 4 (Overlay)
//Storyboard Sound Samples

[TimingPoints]
140,306.122448979592,4,2,1,30,1,0
5037,-125,4,2,1,30,0,0
9935,-125,4,2,1,40,0,0
12384,-111.111111111111,4,2,1,50,0,0
13609,-100,4,2,1,60,0,0
14068,-100,4,2,2,60,0,0
14374,-100,4,2,1,60,0,0
14833,-100,4,2,1,70,0,0
15599,-100,4,2,2,70,0,0
15752,-100,4,2,1,70,0,0
16823,-100,4,2,2,70,0,0
16976,-100,4,2,1,70,0,0
17129,-100,4,2,2,70,0,0
17282,-100,4,2,1,70,0,0
17895,-100,4,2,2,70,0,0
18201,-100,4,2,1,70,0,0
18966,-100,4,2,2,70,0,0
19119,-100,4,2,1,70,0,0
20344,-100,4,2,2,70,0,0
20650,-100,4,2,1,70,0,0
21568,-100,4,2,2,70,0,0
21874,-100,4,2,1,70,0,0
23099,-100,4,2,2,70,0,0
23558,-100,4,2,1,70,0,0
23864,-100,4,2,2,70,0,0
24629,-100,4,2,1,70,0,0
25395,-100,4,2,2,70,0,0
25548,-100,4,2,1,70,0,0
26619,-100,4,2,2,70,0,0
26925,-100,4,2,1,70,0,0
27691,-100,4,2,2,70,0,0
27997,-100,4,2,1,70,0,0
28762,-100,4,2,2,70,0,0
28915,-100,4,2,1,70,0,0
30140,-100,4,2,2,70,0,0
30446,-100,4,2,1,70,0,0
31364,-100,4,2,2,70,0,0
31670,-100,4,2,1,70,0,0
33813,-100,4,2,2,70,0,0
34425,-100,4,1,1,60,0,0
36874,-100,4,1,2,60,0,0
37027,-100,4,1,1,60,0,0
39017,-100,4,1,2,60,0,0
39323,-100,4,1,1,80,0,0
39476,-100,4,1,1,60,0,0
46670,-100,4,1,2,60,0,0
46823,-100,4,1,1,60,0,0
48813,-100,4,1,2,60,0,0
49119,-100,4,1,1,80,0,0
49272,-100,4,1,1,60,0,0
50344,-100,4,1,2,60,0,0
50497,-100,4,1,1,60,0,0
54017,-100,4,2,1,50,0,0
62742,-100,4,1,1,60,0,0
63201,-100,4,2,1,20,0,0
63354,-100,4,2,1,60,0,0
63507,-100,4,2,2,60,0,0
63813,-90.9090909090909,4,2,1,70,0,1
64578,-90.9090909090909,4,2,2,70,0,1
64731,-90.9090909090909,4,2,1,70,0,1
65803,-90.9090909090909,4,2,2,70,0,1
65956,-90.9090909090909,4,2,1,70,0,1
66109,-90.9090909090909,4,2,2,70,0,1
66262,-90.9090909090909,4,2,1,70,0,1
66874,-90.9090909090909,4,2,2,70,0,1
67180,-90.9090909090909,4,2,1,70,0,1
67946,-90.9090909090909,4,2,2,70,0,1
68099,-90.9090909090909,4,2,1,70,0,1
69170,-90.9090909090909,4,2,2,70,0,1
69323,-90.9090909090909,4,2,1,70,0,1
70548,-90.9090909090909,4,2,2,70,0,1
70854,-90.9090909090909,4,2,1,70,0,1
72384,-90.9090909090909,4,2,2,70,0,1
72537,-90.9090909090909,4,2,1,70,0,1
72691,-90.9090909090909,4,2,2,70,0,1
72997,-90.9090909090909,4,2,1,70,0,1
73150,-90.9090909090909,4,2,2,70,0,0
73303,-90.9090909090909,4,2,1,70,0,0
73609,-90.9090909090909,4,2,1,70,0,1
74374,-90.9090909090909,4,2,2,70,0,1
74527,-90.9090909090909,4,2,1,70,0,1
75599,-90.9090909090909,4,2,2,70,0,1
75752,-90.9090909090909,4,2,1,70,0,1
75905,-90.9090909090909,4,2,2,70,0,1
76058,-90.9090909090909,4,2,1,70,0,1
76670,-90.9090909090909,4,2,2,70,0,1
76976,-90.9090909090909,4,2,1,70,0,1
77742,-90.9090909090909,4,2,2,70,0,1
77895,-90.9090909090909,4,2,1,70,0,1
78966,-90.9090909090909,4,2,2,70,0,1
79119,-90.9090909090909,4,2,1,70,0,1
80344,-90.9090909090909,4,2,2,70,0,1
80650,-90.9090909090909,4,2,1,70,0,1
82180,-90.9090909090909,4,2,1,60,0,0
82793,-90.9090909090909,4,2,2,60,0,0
83405,-90.9090909090909,4,1,4,60,0,0
93201,-90.9090909090909,4,1,1,60,0,0
97793,-90.9090909090909,4,1,2,60,0,0
98099,-90.9090909090909,4,1,1,60,0,0
102997,-90.9090909090909,4,2,1,40,0,0
104221,-111.111111111111,4,2,1,40,0,0

[Colours]
Combo1 : 255,226,140
Combo2 : 255,157,206
Combo3 : 125,184,255
Combo4 : 125,255,125

[HitObjects]
126,316,5037,6,0,L|111:172,1,128,4|8,0:3|0:0,0:0:0:0:
273,190,5803,2,0,L|288:112,1,64,4|8,0:3|0:0,0:0:0:0:
118,63,6262,2,0,L|274:51,1,128,4|8,0:3|0:0,0:0:0:0:
384,156,6874,2,0,L|240:165,1,128,4|8,0:3|0:0,0:0:0:0:
80,198,7486,6,0,L|278:213,1,192,4|0,0:3|0:0,0:0:0:0:
361,219,8099,2,0,P|390:169|373:98,1,128,0|8,0:0|0:0,0:0:0:0:
194,42,8711,6,0,L|59:42,2,128,4|8|4,0:3|0:0|0:3,0:0:0:0:
363,41,9629,1,8,0:0:0:0:
199,280,9935,6,0,L|197:123,1,128,4|8,0:3|0:0,0:0:0:0:
299,122,10395,2,0,L|371:113,1,64
160,47,10854,1,8,0:0:0:0:
291,88,11160,6,0,L|292:298,1,192,4|0,0:3|0:0,0:0:0:0:
196,303,11772,2,0,L|51:303,1,128,0|8,0:0|0:0,0:0:0:0:
296,356,12384,6,0,L|296:207,1,143.999995605469,4|8,0:3|0:0,0:0:0:0:
147,177,12997,2,0,L|88:167,2,35.9999989013672,8|8|0,0:0|0:0|0:0,0:0:0:0:
237,77,13303,2,0,L|142:91,1,71.9999978027344,8|8,0:0|0:0,0:0:0:0:
310,167,13609,5,4,0:0:0:0:
416,116,13762,2,0,L|423:68,2,40,8|8|8,0:0|0:0|0:0,0:0:0:0:
251,184,14068,2,0,L|244:237,2,40,8|8|8,0:0|0:0|0:0,0:0:0:0:
349,270,14374,1,4,0:0:0:0:
465,271,14527,1,0,0:0:0:0:
425,271,14603,1,8,0:0:0:0:
385,271,14680,1,8,0:0:0:0:
122,266,14833,6,0,L|19:266,2,80,4|0|8,0:0|0:0|0:0,0:0:0:0:
294,328,15293,2,0,P|334:268|272:203,1,160,0|8,0:0|0:0,0:0:0:0:
174,204,15752,2,0,L|170:118,1,80,8|0,0:0|0:0,0:0:0:0:
321,198,16058,6,0,P|431:153|437:98,1,160,4|8,0:0|0:0,0:0:0:0:
302,84,16517,2,0,L|296:20,2,40,8|8|8,0:0|0:0|0:0,0:0:0:0:
414,153,16823,2,0,L|298:158,2,80,8|8|8,0:0|0:0|0:0,0:0:0:0:
184,341,17282,6,0,P|127:281|168:210,1,160,4|8,0:0|0:0,0:0:0:0:
265,211,17742,2,0,L|270:162,1,40,2|2,0:0|0:0,0:0:0:0:
199,128,17895,2,0,L|30:107,1,160,8|8,0:0|0:0,0:0:0:0:
140,82,18354,1,0,0:0:0:0:
300,140,18507,6,0,L|303:48,1,80,4|0,0:0|0:0,0:0:0:0:
196,152,18813,2,0,L|193:260,1,80,8|8,0:0|0:0,0:0:0:0:
297,276,19119,2,0,P|211:302|142:274,1,160,8|8,0:0|0:0,0:0:0:0:
51,295,19578,1,8,0:0:0:0:
312,359,19731,6,0,P|376:309|337:220,1,160,4|8,0:0|0:0,0:0:0:0:
261,210,20191,2,0,L|253:155,2,40,0|0|8,0:0|0:0|0:0,0:0:0:0:
357,161,20497,2,0,L|453:147,2,80,0|8|0,0:0|0:0|0:0,0:0:0:0:
177,63,20956,6,0,P|166:139|246:195,1,160,0|8,0:0|0:0,0:0:0:0:
337,250,21415,2,0,L|341:163,1,80,0|8,0:0|0:0,0:0:0:0:
223,253,21721,2,0,L|143:252,2,80,0|8|0,0:0|0:0|0:0,0:0:0:0:
452,364,22180,5,4,0:0:0:0:
319,310,22486,2,0,L|313:225,1,80,8|0,0:0|0:0,0:0:0:0:
436,209,22793,2,0,L|476:202,2,40,8|8|8,0:0|0:0|0:0,0:0:0:0:
333,185,23099,2,0,L|238:189,1,80,8|8,0:0|0:0,0:0:0:0:
96,81,23405,5,4,0:0:0:0:
201,34,23558,1,8,0:0:0:0:
241,34,23634,1,8,0:0:0:0:
281,34,23711,1,8,0:0:0:0:
358,119,23864,1,8,0:0:0:0:
318,119,23940,1,8,0:0:0:0:
278,119,24017,1,8,0:0:0:0:
110,264,24170,2,0,P|91:179|172:127,1,160,4|8,0:0|0:0,0:0:0:0:
384,127,24629,6,0,L|488:128,2,80,4|0|8,0:0|0:0|0:0,0:0:0:0:
202,247,25088,2,0,P|156:220|170:117,1,160,0|8,0:0|0:0,0:0:0:0:
281,38,25548,2,0,L|281:129,1,80,8|0,0:0|0:0,0:0:0:0:
123,163,25854,6,0,P|121:237|212:278,1,160,4|8,0:0|0:0,0:0:0:0:
302,325,26313,1,8,0:0:0:0:
302,285,26389,1,8,0:0:0:0:
302,245,26466,1,8,0:0:0:0:
209,172,26619,2,0,L|321:172,1,80,8|8,0:0|0:0,0:0:0:0:
405,174,26925,1,8,0:0:0:0:
139,32,27078,6,0,P|83:78|118:160,1,160,4|8,0:0|0:0,0:0:0:0:
245,198,27537,2,0,L|290:198,1,40,2|2,0:0|0:0,0:0:0:0:
245,198,27691,2,0,L|68:198,1,160,8|8,0:0|0:0,0:0:0:0:
243,197,28303,6,0,L|328:196,1,80,4|0,0:0|0:0,0:0:0:0:
461,133,28609,2,0,L|365:132,1,80,8|8,0:0|0:0,0:0:0:0:
259,44,28915,2,0,P|258:148|322:192,1,160,8|8,0:0|0:0,0:0:0:0:
416,191,29374,1,8,0:0:0:0:
132,350,29527,6,0,P|68:298|102:210,1,160,4|8,0:0|0:0,0:0:0:0:
187,192,29986,2,0,L|234:184,2,40,0|0|8,0:0|0:0|0:0,0:0:0:0:
73,134,30293,1,0,0:0:0:0:
183,57,30446,2,0,L|266:67,1,80,8|0,0:0|0:0,0:0:0:0:
404,155,30752,6,0,L|227:170,1,160,4|8,0:0|0:0,0:0:0:0:
130,111,31211,1,0,0:0:0:0:
218,37,31364,1,8,0:0:0:0:
282,78,31517,1,0,0:0:0:0:
282,155,31670,1,8,0:0:0:0:
217,196,31823,1,0,0:0:0:0:
450,237,31976,5,0,0:0:0:0:
322,319,32282,2,0,L|316:234,1,80,8|0,0:0|0:0,0:0:0:0:
210,198,32588,2,0,L|206:158,2,40,8|8|0,0:0|0:0|0:0,0:0:0:0:
330,165,32895,1,8,0:0:0:0:
375,143,32971,1,8,0:0:0:0:
374,99,33048,1,8,0:0:0:0:
186,35,33354,5,2,0:0:0:0:
148,48,33430,1,0,0:0:0:0:
125,80,33507,1,2,0:0:0:0:
122,119,33583,1,0,0:0:0:0:
140,154,33660,1,2,0:0:0:0:
278,192,33813,2,0,L|453:192,1,160,8|8,0:0|0:0,0:0:0:0:
438,192,34272,1,8,0:0:0:0:
214,330,34425,6,0,P|151:283|202:201,1,160,0|8,0:0|0:0,0:0:0:0:
292,201,34884,1,0,0:0:0:0:
400,202,35037,2,0,L|485:202,2,80,0|0|8,0:0|0:0|0:0,0:0:0:0:
181,298,35650,6,0,L|171:135,1,160,0|8,0:0|0:0,0:0:0:0:
345,166,36262,2,0,L|352:262,1,80
236,182,36568,2,0,L|231:92,1,80,8|0,0:0|0:0,0:0:0:0:
323,57,36874,5,4,0:0:0:0:
143,157,37180,1,8,0:0:0:0:
323,57,37486,1,0,0:0:0:0:
388,97,37639,1,0,0:0:0:0:
390,174,37792,1,8,0:0:0:0:
328,219,37945,1,0,0:0:0:0:
159,222,38099,5,0,0:0:0:0:
277,226,38405,2,0,L|327:226,2,40,8|0|0,0:0|0:0|0:0,0:0:0:0:
158,137,38711,2,0,L|349:136,1,160,0|8,0:0|0:0,0:0:0:0:
78,334,39323,6,0,P|22:269|61:202,1,160,4|8,0:0|0:0,0:0:0:0:
135,201,39782,1,0,0:0:0:0:
224,199,39935,1,0,0:0:0:0:
64,104,40242,2,0,L|152:104,1,80,8|0,0:0|0:0,0:0:0:0:
316,44,40548,6,0,P|388:88|361:157,1,160,0|8,0:0|0:0,0:0:0:0:
266,240,41007,2,0,L|278:152,1,80
445,344,41466,2,0,L|452:258,1,80,8|0,0:0|0:0,0:0:0:0:
340,294,41772,6,0,L|164:280,1,160,0|8,0:0|0:0,0:0:0:0:
86,272,42231,1,0,0:0:0:0:
279,114,42537,1,0,0:0:0:0:
179,205,42691,2,0,L|174:117,1,80,8|0,0:0|0:0,0:0:0:0:
344,236,42997,6,0,L|403:236,2,40,8|8|0,0:0|0:0|0:0,0:0:0:0:
245,284,43303,2,0,L|186:284,2,40,8|8|0,0:0|0:0|0:0,0:0:0:0:
349,348,43609,1,8,0:0:0:0:
409,300,43762,1,8,0:0:0:0:
401,224,43915,1,10,0:0:0:0:
332,191,44068,1,2,0:0:0:0:
113,248,44221,6,0,P|61:200|103:116,1,160,4|8,0:0|0:0,0:0:0:0:
195,99,44680,2,0,L|278:100,2,80
81,97,45140,1,8,0:0:0:0:
242,28,45446,6,0,P|301:71|286:160,1,160,0|8,0:0|0:0,0:0:0:0:
123,233,46058,2,0,L|210:233,1,80
324,282,46364,2,0,L|327:186,1,80,8|0,0:0|0:0,0:0:0:0:
187,196,46670,5,4,0:0:0:0:
324,282,46976,1,8,0:0:0:0:
451,191,47282,2,0,L|451:79,3,80,0|0|8|0,0:0|0:0|0:0|0:0,0:0:0:0:
257,90,47895,5,0,0:0:0:0:
121,173,48201,2,0,L|118:224,2,40,8|0|0,0:0|0:0|0:0,0:0:0:0:
244,89,48507,2,0,L|74:80,1,160,0|8,0:0|0:0,0:0:0:0:
376,286,49119,6,0,P|441:244|416:158,1,160,4|8,0:0|0:0,0:0:0:0:
339,146,49578,2,0,L|256:146,1,80
377,58,50037,2,0,L|277:58,1,80,8|0,0:0|0:0,0:0:0:0:
160,52,50344,6,0,P|107:112|168:172,1,160,4|8,0:0|0:0,0:0:0:0:
241,190,50803,2,0,L|248:102,1,80
73,310,51262,2,0,L|79:215,1,80,8|0,0:0|0:0,0:0:0:0:
185,264,51568,6,0,P|252:238|240:133,1,160,4|8,0:0|0:0,0:0:0:0:
156,127,52027,1,0,0:0:0:0:
304,89,52333,2,0,L|396:89,2,80,0|8|0,0:0|0:0|0:0,0:0:0:0:
132,89,52793,5,4,0:0:0:0:
30,89,52946,2,0,P|23:176|104:211,1,160
186,262,53405,1,8,0:0:0:0:
187,222,53481,1,8,0:0:0:0:
188,182,53558,1,0,0:0:0:0:
71,332,53711,1,0,0:0:0:0:
72,292,53787,1,0,0:0:0:0:
73,252,53864,1,0,0:0:0:0:
186,262,54017,5,0,0:0:0:0:
256,192,58915,12,8,61058,0:0:0:0:
140,311,61364,6,4,L|126:267,7,40,4|4|4|4|4|4|4|4,0:3|0:3|0:3|0:3|0:3|0:3|0:3|0:3,0:3:0:0:
230,263,61976,5,4,0:3:0:0:
267,251,62052,1,4,0:3:0:0:
297,224,62129,1,4,0:3:0:0:
312,188,62205,1,4,0:3:0:0:
310,148,62282,1,4,0:3:0:0:
291,113,62358,1,4,0:3:0:0:
259,90,62435,1,4,0:3:0:0:
220,82,62511,1,4,0:3:0:0:
437,218,62742,6,0,L|446:166,4,40,2|0|2|0|2,0:0|0:0|0:0|0:0|0:0,0:0:0:0:
339,147,63201,2,0,L|259:129,1,80,2|4,0:0|0:0,0:0:0:0:
436,89,63507,2,0,L|447:39,2,40,8|8|8,0:0|0:0|0:0,0:0:0:0:
196,227,63813,6,0,L|91:247,2,88.000002685547,0|0|8,0:0|0:0|0:0,0:0:0:0:
361,290,64272,2,0,P|381:203|304:161,1,176.000005371094,0|8,0:0|0:0,0:0:0:0:
215,226,64731,2,0,L|202:122,1,88.000002685547,8|0,0:0|0:0,0:0:0:0:
364,36,65037,6,0,P|421:80|379:170,1,176.000005371094,4|8,0:0|0:0,0:0:0:0:
290,201,65497,2,0,L|242:193,2,44.0000013427735,8|8|8,0:0|0:0|0:0,0:0:0:0:
399,251,65803,2,0,L|496:244,2,88.000002685547,8|8|8,0:0|0:0|0:0,0:0:0:0:
138,349,66262,6,0,P|106:271|165:208,1,176.000005371094,4|8,0:0|0:0,0:0:0:0:
248,228,66721,2,0,L|250:182,1,44.0000013427735,2|2,0:0|0:0,0:0:0:0:
170,166,66874,2,0,L|173:44,1,88.000002685547,8|0,0:0|0:0,0:0:0:0:
311,196,67180,2,0,L|305:292,1,88.000002685547,8|0,0:0|0:0,0:0:0:0:
127,353,67486,5,0,0:0:0:0:
61,299,67639,1,8,0:0:0:0:
67,215,67792,1,8,0:0:0:0:
139,172,67945,1,8,0:0:0:0:
306,231,68099,2,0,P|369:183|330:86,1,176.000005371094,8|8,0:0|0:0,0:0:0:0:
285,83,68481,1,8,0:0:0:0:
220,77,68558,1,8,0:0:0:0:
482,38,68711,6,0,P|494:122|415:179,1,176.000005371094,4|8,0:0|0:0,0:0:0:0:
314,234,69170,2,0,L|307:163,2,44.0000013427735,8|8|0,0:0|0:0|0:0,0:0:0:0:
446,331,69476,2,0,L|437:239,1,88.000002685547,0|8,0:0|0:0,0:0:0:0:
314,232,69782,1,0,0:0:0:0:
142,302,69935,6,0,P|123:206|196:158,1,176.000005371094,4|8,0:0|0:0,0:0:0:0:
306,162,70395,1,0,0:0:0:0:
192,44,70548,2,0,L|193:147,1,88.000002685547,8|0,0:0|0:0,0:0:0:0:
316,151,70854,2,0,L|321:255,1,88.000002685547,8|0,0:0|0:0,0:0:0:0:
51,331,71160,5,4,0:0:0:0:
199,280,71466,2,0,L|201:182,1,88.000002685547,8|0,0:0|0:0,0:0:0:0:
73,197,71772,1,8,0:0:0:0:
55,157,71848,1,8,0:0:0:0:
61,114,71925,1,0,0:0:0:0:
90,82,72001,1,0,0:0:0:0:
132,70,72078,1,8,0:0:0:0:
216,92,72231,1,8,0:0:0:0:
132,70,72384,5,8,0:0:0:0:
408,240,72537,1,12,0:0:0:0:
445,218,72613,1,8,0:0:0:0:
463,179,72690,1,8,0:0:0:0:
453,137,72766,1,0,0:0:0:0:
421,109,72843,1,0,0:0:0:0:
310,107,72997,2,0,L|263:107,2,44.0000013427735,8|8|8,0:0|0:0|0:0,0:0:0:0:
421,109,73303,2,0,L|468:109,2,44.0000013427735,8|8|8,0:0|0:0|0:0,0:0:0:0:
192,313,73609,6,0,L|188:203,1,88.000002685547,4|0,0:0|0:0,0:0:0:0:
291,200,73915,1,8,0:0:0:0:
120,217,74068,2,0,P|118:134|199:91,1,176.000005371094,0|8,0:0|0:0,0:0:0:0:
309,131,74527,2,0,L|318:39,1,88.000002685547,8|0,0:0|0:0,0:0:0:0:
130,128,74833,6,0,P|117:211|195:262,1,176.000005371094,4|8,0:0|0:0,0:0:0:0:
313,316,75293,1,8,0:0:0:0:
313,272,75369,1,8,0:0:0:0:
314,228,75446,1,8,0:0:0:0:
192,170,75599,2,0,L|316:169,1,88.000002685547,8|8,0:0|0:0,0:0:0:0:
409,168,75905,1,8,0:0:0:0:
165,29,76058,6,0,P|99:80|134:161,1,176.000005371094,4|8,0:0|0:0,0:0:0:0:
237,223,76517,2,0,L|241:171,1,44.0000013427735,2|2,0:0|0:0,0:0:0:0:
167,151,76670,2,0,L|82:131,1,88.000002685547,8|0,0:0|0:0,0:0:0:0:
238,77,76976,2,0,L|332:62,1,88.000002685547,8|0,0:0|0:0,0:0:0:0:
207,328,77282,6,0,L|206:230,1,88.000002685547,4|8,0:0|0:0,0:0:0:0:
308,255,77588,2,0,L|415:241,1,88.000002685547,8|8,0:0|0:0,0:0:0:0:
243,50,77895,2,0,P|191:92|218:196,1,176.000005371094,8|8,0:0|0:0,0:0:0:0:
327,213,78354,1,8,0:0:0:0:
57,343,78507,6,0,P|42:259|116:212,1,176.000005371094,4|8,0:0|0:0,0:0:0:0:
224,253,78966,1,8,0:0:0:0:
226,209,79042,1,8,0:0:0:0:
229,165,79119,1,0,0:0:0:0:
340,132,79272,1,0,0:0:0:0:
221,60,79425,2,0,L|209:162,1,88.000002685547,8|0,0:0|0:0,0:0:0:0:
390,328,79731,6,0,P|387:248|300:204,1,176.000005371094,4|8,0:0|0:0,0:0:0:0:
191,215,80191,1,0,0:0:0:0:
298,208,80344,2,0,P|368:175|361:58,1,176.000005371094,8|8,0:0|0:0,0:0:0:0:
133,41,80956,6,0,L|315:31,1,176.000005371094,4|8,0:0|0:0,0:0:0:0:
136,224,81568,2,0,L|127:174,3,44.0000013427735,8|8|0|0,0:0|0:0|0:0|0:0,0:0:0:0:
220,314,81874,2,0,L|229:264,3,44.0000013427735,8|8|8|8,0:0|0:0|0:0|0:0,0:0:0:0:
407,226,82333,6,0,L|392:170,5,44.0000013427735,2|0|2|0|2|0,0:0|0:0|0:0|0:0|0:0|0:0,0:0:0:0:
472,138,82793,6,0,L|486:83,2,44.0000013427735,8|8|8,0:0|0:0|0:0,0:0:0:0:
352,308,83099,1,8,0:0:0:0:
395,299,83175,1,8,0:0:0:0:
438,290,83252,1,8,0:0:0:0:
176,348,83405,6,0,P|150:234|208:188,1,176.000005371094,4|0,0:1|0:0,0:0:0:0:
295,179,83864,1,0,0:0:0:0:
35,152,84017,2,0,L|35:38,1,88.000002685547,2|0,0:0|0:0,0:0:0:0:
137,89,84323,2,0,L|28:89,1,88.000002685547,2|2,0:0|0:0,0:0:0:0:
196,266,84629,5,8,0:0:0:0:
236,250,84705,1,0,0:0:0:0:
261,215,84782,1,0,0:0:0:0:
263,172,84858,1,0,0:0:0:0:
240,135,84935,1,0,0:0:0:0:
125,118,85088,1,0,0:0:0:0:
441,337,85242,2,0,L|441:149,1,176.000005371094,8|2,0:0|0:0,0:0:0:0:
327,118,85701,1,0,0:0:0:0:
199,130,85854,6,0,P|197:218|293:266,1,176.000005371094,4|0,0:0|0:0,0:0:0:0:
369,268,86313,1,0,0:0:0:0:
248,278,86466,2,0,L|164:275,2,44.0000013427735,2|0|2,0:0|0:0|0:0,0:0:0:0:
377,301,86772,2,0,L|280:301,1,88.000002685547,2|2,0:0|0:0,0:0:0:0:
75,303,87078,5,4,0:0:0:0:
206,221,87384,2,0,L|207:144,2,44.0000013427735
103,135,87691,2,0,L|296:110,1,176.000005371094,8|8,0:0|0:0,0:0:0:0:
30,261,88303,6,0,L|218:273,1,176.000005371094,4|0,0:0|0:0,0:0:0:0:
299,286,88762,1,0,0:0:0:0:
141,360,88915,2,0,L|126:295,4,44.0000013427735,2|2|2|0|2,0:0|0:0|0:0|0:0|0:0,0:0:0:0:
215,260,89374,1,2,0:0:0:0:
57,247,89527,6,0,P|36:187|127:103,1,176.000005371094,4|0,0:0|0:0,0:0:0:0:
210,117,89986,1,0,0:0:0:0:
486,240,90140,1,8,0:0:0:0:
499,198,90216,1,0,0:0:0:0:
490,156,90293,1,0,0:0:0:0:
460,124,90369,1,0,0:0:0:0:
418,112,90446,1,2,0:0:0:0:
317,157,90599,1,2,0:0:0:0:
194,274,90752,6,0,L|190:94,1,176.000005371094,4|0,0:0|0:0,0:0:0:0:
309,193,91211,1,0,0:0:0:0:
181,274,91364,1,2,0:0:0:0:
137,273,91440,1,2,0:0:0:0:
93,273,91517,1,2,0:0:0:0:
203,339,91670,2,0,L|297:339,1,88.000002685547,2|2,0:0|0:0,0:0:0:0:
38,264,91976,6,0,L|26:183,3,44.0000013427735,4|0|2|0,0:0|0:0|0:0|0:0,0:0:0:0:
121,181,92282,6,0,L|133:100,3,44.0000013427735,4|0|2|0,0:0|0:0|0:0|0:0,0:0:0:0:
38,264,92588,6,0,L|26:183,3,44.0000013427735,2|2|2|2,0:0|0:0|0:0|0:0,0:0:0:0:
121,181,92894,6,0,L|133:100,3,44.0000013427735,8|0|0|0,0:0|0:0|0:0|0:0,0:0:0:0:
222,120,93201,6,0,L|309:113,1,88.000002685547,4|0,0:0|0:0,0:0:0:0:
429,177,93507,2,0,L|441:76,1,88.000002685547,8|0,0:0|0:0,0:0:0:0:
296,198,93813,2,0,P|269:281|351:343,1,176.000005371094,0|8,0:0|0:0,0:0:0:0:
430,349,94272,1,0,0:0:0:0:
199,361,94425,6,0,L|191:256,1,88.000002685547
296,148,94731,2,0,L|300:251,1,88.000002685547,8|0,0:0|0:0,0:0:0:0:
165,168,95037,2,0,P|164:94|243:38,1,176.000005371094,0|8,0:0|0:0,0:0:0:0:
351,52,95497,1,0,0:0:0:0:
93,319,95650,6,0,L|88:140,1,176.000005371094,4|8,0:0|0:0,0:0:0:0:
209,113,96109,1,0,0:0:0:0:
92,31,96262,2,0,L|92:135,1,88.000002685547
209,113,96568,1,8,0:0:0:0:
96,169,96721,1,0,0:0:0:0:
350,298,96874,5,4,0:0:0:0:
188,224,97180,2,0,L|183:144,2,44.0000013427735,8|0|0,0:0|0:0|0:0,0:0:0:0:
303,156,97486,2,0,L|302:56,1,88.000002685547
190,82,97793,1,8,0:0:0:0:
146,77,97869,1,8,0:0:0:0:
102,73,97946,1,8,0:0:0:0:
383,297,98099,6,0,P|436:253|399:152,1,176.000005371094,4|8,0:0|0:0,0:0:0:0:
142,182,98711,2,0,L|323:165,1,176.000005371094,0|8,0:0|0:0,0:0:0:0:
317,165,99170,1,0,0:0:0:0:
180,156,99323,6,0,L|178:65,1,88.000002685547,4|0,0:0|0:0,0:0:0:0:
280,41,99629,1,8,0:0:0:0:
146,92,99782,1,0,0:0:0:0:
231,148,99935,2,0,L|230:240,1,88.000002685547
123,266,100242,2,0,L|229:266,1,88.000002685547,8|0,0:0|0:0,0:0:0:0:
377,357,100548,6,0,P|438:306|375:225,1,176.000005371094,4|8,0:0|0:0,0:0:0:0:
305,224,101007,1,0,0:0:0:0:
431,117,101160,2,0,L|431:218,1,88.000002685547
313,101,101466,2,0,L|407:102,1,88.000002685547,8|0,0:0|0:0,0:0:0:0:
226,44,101772,6,0,L|135:44,1,88.000002685547,8|0,0:0|0:0,0:0:0:0:
305,137,102231,1,0,0:0:0:0:
197,226,102384,1,8,0:0:0:0:
196,182,102460,1,0,0:0:0:0:
195,138,102537,1,0,0:0:0:0:
321,241,102691,1,0,0:0:0:0:
321,285,102767,1,0,0:0:0:0:
321,329,102844,1,0,0:0:0:0:
158,258,102997,5,2,0:0:0:0:
