osu file format v14

[General]
AudioFilename: audio.mp3
AudioLeadIn: 0
PreviewTime: 63744
Countdown: 0
SampleSet: Soft
StackLeniency: 0.7
Mode: 2
LetterboxInBreaks: 0
WidescreenStoryboard: 0

[Editor]
DistanceSpacing: 1.7
BeatDivisor: 4
GridSize: 32
TimelineZoom: 3.499999

[Metadata]
Title:Yuujou
TitleUnicode:Yuujou
Artist:Thaehan
ArtistUnicode:Thaehan
Creator:Ascendance
Version:Overdose
Source:osu!
Tags:mapping olympiad contest sinnoh instrumental electronic featured artist chiptune loki bwa mappers guild mpg fa
BeatmapID:2597832
BeatmapSetID:1249928

[Difficulty]
HPDrainRate:7
CircleSize:4.2
OverallDifficulty:9.5
ApproachRate:9.5
SliderMultiplier:1.96
SliderTickRate:2

[Events]
//Background and Video events
0,0,"ascendance please compress images -_-.jpg",0,0
//Break Periods
//Storyboard Layer 0 (Background)
//Storyboard Layer 1 (Fail)
//Storyboard Layer 2 (Pass)
//Storyboard Layer 3 (Foreground)
//Storyboard Layer 4 (Overlay)
//Storyboard Sound Samples

[TimingPoints]
140,306.122448979592,4,2,1,30,1,0
5037,-125,4,2,1,30,0,0
9935,-125,4,2,1,40,0,0
12384,-111.111111111111,4,2,1,50,0,0
13609,-100,4,2,1,60,0,0
14068,-100,4,2,2,60,0,0
14374,-100,4,2,1,60,0,0
14833,-100,4,2,1,70,0,0
15599,-100,4,2,2,70,0,0
15752,-100,4,2,1,70,0,0
16823,-100,4,2,2,70,0,0
16976,-100,4,2,1,70,0,0
17129,-100,4,2,2,70,0,0
17282,-100,4,2,1,70,0,0
17895,-100,4,2,2,70,0,0
18201,-100,4,2,1,70,0,0
18966,-100,4,2,2,70,0,0
19119,-100,4,2,1,70,0,0
20344,-100,4,2,2,70,0,0
20650,-100,4,2,1,70,0,0
21568,-100,4,2,2,70,0,0
21874,-100,4,2,1,70,0,0
23099,-100,4,2,2,70,0,0
23558,-100,4,2,1,70,0,0
23864,-100,4,2,2,70,0,0
24629,-100,4,2,1,70,0,0
25395,-100,4,2,2,70,0,0
25548,-100,4,2,1,70,0,0
26619,-100,4,2,2,70,0,0
26925,-100,4,2,1,70,0,0
27691,-100,4,2,2,70,0,0
27997,-100,4,2,1,70,0,0
28762,-100,4,2,2,70,0,0
28915,-100,4,2,1,70,0,0
30140,-100,4,2,2,70,0,0
30446,-100,4,2,1,70,0,0
31364,-100,4,2,2,70,0,0
31670,-100,4,2,1,70,0,0
33813,-100,4,2,2,70,0,0
34425,-100,4,1,1,60,0,0
36874,-100,4,1,2,60,0,0
37027,-100,4,1,1,60,0,0
39017,-100,4,1,2,60,0,0
39323,-100,4,1,1,80,0,0
39476,-100,4,1,1,60,0,0
46670,-100,4,1,2,60,0,0
46823,-100,4,1,1,60,0,0
48813,-100,4,1,2,60,0,0
49119,-100,4,1,1,80,0,0
49272,-100,4,1,1,60,0,0
50344,-100,4,1,2,60,0,0
50497,-100,4,1,1,60,0,0
54017,-100,4,2,1,50,0,0
58915,-100,4,2,1,50,0,0
62742,-100,4,1,1,60,0,0
63201,-100,4,2,1,20,0,0
63354,-100,4,2,1,60,0,0
63507,-100,4,2,2,60,0,0
63813,-90.9090909090909,4,2,1,70,0,1
64578,-90.9090909090909,4,2,2,70,0,1
64731,-90.9090909090909,4,2,1,70,0,1
65803,-90.9090909090909,4,2,2,70,0,1
65956,-90.9090909090909,4,2,1,70,0,1
66109,-90.9090909090909,4,2,2,70,0,1
66262,-90.9090909090909,4,2,1,70,0,1
66874,-90.9090909090909,4,2,2,70,0,1
67180,-90.9090909090909,4,2,1,70,0,1
67946,-90.9090909090909,4,2,2,70,0,1
68099,-90.9090909090909,4,2,1,70,0,1
69170,-90.9090909090909,4,2,2,70,0,1
69323,-90.9090909090909,4,2,1,70,0,1
70548,-90.9090909090909,4,2,2,70,0,1
70854,-90.9090909090909,4,2,1,70,0,1
72384,-90.9090909090909,4,2,2,70,0,1
72537,-90.9090909090909,4,2,1,70,0,1
72691,-90.9090909090909,4,2,2,70,0,1
72997,-90.9090909090909,4,2,1,70,0,1
73150,-90.9090909090909,4,2,2,70,0,0
73303,-90.9090909090909,4,2,1,70,0,0
73609,-90.9090909090909,4,2,1,70,0,1
74374,-90.9090909090909,4,2,2,70,0,1
74527,-90.9090909090909,4,2,1,70,0,1
75599,-90.9090909090909,4,2,2,70,0,1
75752,-90.9090909090909,4,2,1,70,0,1
75905,-90.9090909090909,4,2,2,70,0,1
76058,-90.9090909090909,4,2,1,70,0,1
76670,-90.9090909090909,4,2,2,70,0,1
76976,-90.9090909090909,4,2,1,70,0,1
77742,-90.9090909090909,4,2,2,70,0,1
77895,-90.9090909090909,4,2,1,70,0,1
78966,-90.9090909090909,4,2,2,70,0,1
79119,-90.9090909090909,4,2,1,70,0,1
80344,-90.9090909090909,4,2,2,70,0,1
80650,-90.9090909090909,4,2,1,70,0,1
82180,-90.9090909090909,4,2,1,60,0,0
82793,-90.9090909090909,4,2,2,60,0,0
83405,-90.9090909090909,4,1,4,60,0,0
93201,-90.9090909090909,4,1,1,60,0,0
97793,-90.9090909090909,4,1,2,60,0,0
98099,-90.9090909090909,4,1,1,60,0,0
102997,-90.9090909090909,4,2,1,40,0,0
104221,-111.111111111111,4,2,1,40,0,0

[Colours]
Combo1 : 255,226,140
Combo2 : 255,157,206
Combo3 : 125,184,255
Combo4 : 125,255,125

[HitObjects]
256,192,2588,12,0,4884,0:0:0:0:
336,199,5037,6,0,L|445:217,2,78.4,4|0|8,0:3|0:0|0:0,0:0:0:0:
215,274,5497,2,0,L|208:110,1,156.8,0|4,0:0|0:3,0:0:0:0:
308,77,5956,1,8,0:0:0:0:
116,178,6262,6,0,L|288:159,1,156.8,4|8,0:3|0:0,0:0:0:0:
399,233,6721,2,0,L|409:165,2,39.2,0|0|4,0:0|0:0|0:3,0:0:0:0:
297,155,7027,1,4,0:3:0:0:
418,153,7180,1,8,0:0:0:0:
456,133,7256,1,0,0:0:0:0:
471,88,7333,1,0,0:0:0:0:
442,49,7409,1,0,0:0:0:0:
400,42,7486,6,0,L|226:42,1,156.8,4|8,0:3|0:0,0:0:0:0:
101,182,7946,2,0,L|90:106,1,39.2
159,107,8099,2,0,L|254:93,1,78.4,0|4,0:0|0:3,0:0:0:0:
100,42,8405,2,0,L|12:34,1,78.4,8|0,0:0|0:0,0:0:0:0:
159,107,8711,5,4,0:3:0:0:
274,157,8864,1,0,0:0:0:0:
276,196,8940,1,0,0:0:0:0:
278,235,9017,1,8,0:0:0:0:
180,313,9170,1,0,0:0:0:0:
291,266,9323,1,4,0:3:0:0:
329,272,9399,1,4,0:3:0:0:
368,278,9476,1,4,0:3:0:0:
230,191,9629,1,8,0:0:0:0:
191,197,9705,1,0,0:0:0:0:
152,203,9782,1,0,0:0:0:0:
351,197,9935,6,0,P|395:139|321:82,1,156.8,4|8,0:3|0:0,0:0:0:0:
223,123,10395,2,0,L|221:61,1,39.2
280,53,10548,2,0,L|376:40,1,78.4,0|4,0:0|0:3,0:0:0:0:
215,138,10854,2,0,L|126:128,1,78.4,8|0,0:0|0:0,0:0:0:0:
296,288,11160,6,0,P|359:274|360:168,1,156.8,4|8,0:3|0:0,0:0:0:0:
284,150,11619,1,0,0:0:0:0:
177,145,11772,2,4,L|268:144,1,78.4,4|4,0:3|0:3,0:3:0:0:
387,78,12078,2,0,L|301:78,1,78.4,8|0,0:0|0:0,0:0:0:0:
161,44,12384,6,0,P|139:131|224:182,1,176.399994616699,4|8,0:3|0:0,0:0:0:0:
328,173,12844,1,0,0:0:0:0:
178,311,12997,2,8,L|172:258,1,44.0999986541748,0|0,0:0|0:0,0:0:0:0:
246,252,13150,2,0,L|242:191,1,44.0999986541748
169,186,13303,2,8,L|116:186,1,44.0999986541748,0|0,0:0|0:0,0:0:0:0:
169,186,13456,2,8,L|221:187,1,44.0999986541748,0|0,0:0|0:0,0:0:0:0:
411,187,13609,6,0,L|468:187,1,49,4|0,0:0|0:0,0:0:0:0:
244,316,13762,2,8,L|244:246,1,49,0|0,0:0|0:0,0:0:0:0:
311,257,13915,2,8,L|311:197,1,49,0|0,0:0|0:0,0:0:0:0:
143,150,14068,2,8,L|223:150,1,49,0|0,0:0|0:0,0:0:0:0:
372,115,14221,2,8,L|435:115,1,49,0|0,0:0|0:0,0:0:0:0:
241,50,14374,2,0,L|105:50,1,98,4|0,0:0|0:0,0:0:0:0:
194,74,14604,1,8,0:0:0:0:
405,31,14680,2,8,L|339:31,1,49,0|0,0:0|0:0,0:0:0:0:
146,274,14833,5,4,0:0:0:0:
254,229,14986,2,0,L|255:176,1,49
101,114,15140,2,0,L|163:113,1,49,8|0,0:0|0:0,0:0:0:0:
380,168,15293,2,0,L|396:38,1,98
328,37,15522,1,0,0:0:0:0:
178,151,15599,2,8,L|114:151,1,49,0|0,0:0|0:0,0:0:0:0:
301,233,15752,2,0,L|421:233,1,98,8|0,0:0|0:0,0:0:0:0:
346,259,15981,1,0,0:0:0:0:
141,311,16058,6,0,L|20:312,2,98,4|0|8,0:0|0:0|0:0,0:0:0:0:
291,325,16517,2,8,L|358:325,1,49,0|0,0:0|0:0,0:0:0:0:
166,217,16670,2,8,L|162:160,1,49,0|0,0:0|0:0,0:0:0:0:
311,148,16823,2,8,L|370:142,1,49,0|0,0:0|0:0,0:0:0:0:
166,217,16976,2,8,L|165:152,1,49,0|0,0:0|0:0,0:0:0:0:
362,69,17129,2,8,L|306:61,1,49,0|0,0:0|0:0,0:0:0:0:
143,113,17282,6,0,L|38:100,2,98,4|0|8,0:0|0:0|0:0,0:0:0:0:
287,155,17742,1,2,0:0:0:0:
296,129,17793,1,0,0:0:0:0:
305,99,17844,1,2,0:0:0:0:
123,217,17895,2,0,L|23:207,1,98,8|0,0:0|0:0,0:0:0:0:
291,310,18201,2,0,L|429:329,1,98,8|0,0:0|0:0,0:0:0:0:
248,370,18507,5,4,0:0:0:0:
472,266,18660,2,0,L|481:202,1,49
319,139,18813,2,8,L|272:122,1,49,0|0,0:0|0:0,0:0:0:0:
101,145,18966,2,8,L|41:158,1,49,0|0,0:0|0:0,0:0:0:0:
251,262,19119,5,8,0:0:0:0:
315,274,19196,1,8,0:0:0:0:
251,262,19272,1,0,0:0:0:0:
104,234,19349,1,0,0:0:0:0:
276,184,19425,2,8,L|326:173,1,49,0|0,0:0|0:0,0:0:0:0:
137,78,19578,2,8,L|89:72,1,49,0|0,0:0|0:0,0:0:0:0:
321,58,19731,6,0,L|427:41,2,98,4|0|8,0:3|0:0|0:0,0:0:0:0:
198,145,20191,2,0,L|189:78,1,49
392,181,20344,2,0,L|413:293,1,98,8|4,0:0|0:3,0:0:0:0:
116,204,20650,2,0,L|91:85,1,98,8|0,0:0|0:0,0:0:0:0:
332,127,20956,5,4,0:3:0:0:
208,262,21109,2,0,L|204:162,1,98,0|8,0:0|0:0,0:0:0:0:
338,277,21415,2,0,L|344:340,1,49
133,258,21568,2,0,P|65:251|14:253,1,98,8|0,0:0|0:0,0:0:0:0:
266,143,21874,2,0,P|334:150|385:148,1,98,8|0,0:0|0:0,0:0:0:0:
76,182,22180,6,0,L|73:68,1,98,4|0,0:0|0:0,0:0:0:0:
178,67,22486,1,8,0:0:0:0:
37,4,22640,1,0,0:0:0:0:
329,215,22793,2,8,L|334:138,1,49,0|0,0:0|0:0,0:0:0:0:
162,105,22946,2,8,L|212:104,1,49,0|0,0:0|0:0,0:0:0:0:
415,106,23099,2,8,L|470:103,1,49,0|0,0:0|0:0,0:0:0:0:
257,60,23252,2,8,L|252:0,1,49,0|0,0:0|0:0,0:0:0:0:
455,215,23405,5,4,0:0:0:0:
341,264,23558,2,8,L|275:264,1,49,0|0,0:0|0:0,0:0:0:0:
92,323,23711,2,8,L|170:328,1,49,0|0,0:0|0:0,0:0:0:0:
275,358,23864,2,8,L|281:295,1,49,0|0,0:0|0:0,0:0:0:0:
211,267,24017,1,8,0:0:0:0:
434,234,24170,1,4,0:0:0:0:
318,270,24323,2,8,L|229:270,1,49,0|0,0:0|0:0,0:0:0:0:
476,63,24476,2,8,L|402:63,1,49,0|0,0:0|0:0,0:0:0:0:
228,54,24629,5,4,0:0:0:0:
351,169,24782,2,0,L|354:111,1,49
140,228,24935,2,0,L|201:228,1,49,8|0,0:0|0:0,0:0:0:0:
393,286,25088,2,0,L|249:286,1,98
346,311,25318,1,0,0:0:0:0:
492,210,25395,2,8,L|421:211,1,49,0|0,0:0|0:0,0:0:0:0:
196,128,25548,2,0,L|323:127,1,98,8|0,0:0|0:0,0:0:0:0:
343,127,25777,1,0,0:0:0:0:
195,206,25854,6,0,L|77:206,1,98,4|0,0:0|0:0,0:0:0:0:
357,65,26160,1,8,0:0:0:0:
126,203,26313,2,8,L|59:203,1,49,0|0,0:0|0:0,0:0:0:0:
268,333,26466,2,8,L|266:265,1,49,0|0,0:0|0:0,0:0:0:0:
89,258,26619,2,8,L|151:258,1,49,0|0,0:0|0:0,0:0:0:0:
296,193,26772,2,8,L|215:193,1,49,0|0,0:0|0:0,0:0:0:0:
88,133,26925,2,0,L|82:56,1,49,8|8,0:0|0:0,0:0:0:0:
316,28,27078,5,4,0:0:0:0:
218,108,27231,2,0,L|330:101,1,98,0|8,0:0|0:0,0:0:0:0:
196,200,27537,1,2,0:0:0:0:
166,187,27588,1,0,0:0:0:0:
144,155,27640,1,2,0:0:0:0:
325,269,27691,2,0,P|405:258|433:240,1,98,8|0,0:0|0:0,0:0:0:0:
187,115,27997,2,0,P|107:126|79:144,1,98,8|0,0:0|0:0,0:0:0:0:
357,27,28303,5,4,0:0:0:0:
111,237,28456,2,0,L|111:172,1,49
347,283,28609,2,8,L|279:282,1,49,0|0,0:0|0:0,0:0:0:0:
85,326,28762,2,0,L|144:326,1,49,8|8,0:0|0:0,0:0:0:0:
309,335,28915,5,8,0:0:0:0:
371,335,28992,1,8,0:0:0:0:
309,335,29068,1,4,0:3:0:0:
141,337,29145,1,0,0:0:0:0:
341,263,29221,2,8,L|418:262,1,49,0|0,0:0|0:0,0:0:0:0:
190,168,29374,2,8,L|141:168,1,49,0|0,0:0|0:0,0:0:0:0:
376,172,29527,6,0,L|376:52,1,98,4|0,0:0|0:0,0:0:0:0:
246,30,29833,1,8,0:0:0:0:
484,126,29986,2,0,L|422:126,1,49
191,226,30140,2,0,L|325:225,1,98,8|0,0:0|0:0,0:0:0:0:
30,101,30446,2,0,L|171:101,1,98,8|0,0:0|0:0,0:0:0:0:
376,38,30752,5,4,0:0:0:0:
246,106,30905,2,0,L|144:94,1,98,0|8,0:0|0:0,0:0:0:0:
288,41,31211,1,0,0:0:0:0:
45,319,31364,2,0,L|45:190,1,98,8|0,0:0|0:0,0:0:0:0:
337,280,31670,2,0,L|456:280,1,98,8|0,0:0|0:0,0:0:0:0:
136,161,31976,5,0,0:0:0:0:
263,163,32129,1,0,0:0:0:0:
391,162,32282,1,8,0:0:0:0:
239,163,32435,1,0,0:0:0:0:
472,249,32588,6,8,L|472:178,1,49,0|0,0:0|0:0,0:0:0:0:
314,167,32742,2,0,L|244:166,1,49
453,117,32895,2,8,L|452:45,1,49,0|0,0:0|0:0,0:0:0:0:
311,29,33048,1,8,0:0:0:0:
164,24,33124,1,8,0:0:0:0:
313,293,33354,6,0,L|316:220,1,49,2|0,0:0|0:0,0:0:0:0:
241,227,33507,2,0,L|243:170,1,49,2|0,0:0|0:0,0:0:0:0:
167,150,33660,2,0,L|168:83,1,49,2|0,0:0|0:0,0:0:0:0:
97,61,33813,1,8,0:0:0:0:
345,29,33966,1,8,0:0:0:0:
240,85,34119,2,8,L|177:78,1,49,0|0,0:0|0:0,0:0:0:0:
348,163,34272,2,8,L|402:174,1,49,0|0,0:0|0:0,0:0:0:0:
182,336,34425,5,0,0:0:0:0:
101,286,34578,1,0,0:0:0:0:
99,192,34731,1,8,0:0:0:0:
176,138,34884,1,0,0:0:0:0:
285,133,35037,2,0,L|390:133,1,98
229,66,35344,2,0,L|113:66,1,98,8|0,0:0|0:0,0:0:0:0:
388,302,35650,6,0,L|386:197,1,98
265,143,35956,2,0,L|389:141,1,98,8|0,0:0|0:0,0:0:0:0:
250,302,36262,2,0,L|250:191,1,98
389,189,36568,2,0,L|389:78,1,98,8|0,0:0|0:0,0:0:0:0:
160,50,36874,6,0,L|161:173,1,98,4|0,0:0|0:0,0:0:0:0:
289,178,37180,1,8,0:0:0:0:
157,228,37333,1,0,0:0:0:0:
289,178,37486,2,0,L|397:177,1,98
246,105,37793,2,0,L|135:105,1,98,8|0,0:0|0:0,0:0:0:0:
452,279,38099,6,0,L|457:164,1,98
330,223,38405,2,8,L|269:232,2,49,8|0|0,0:0|0:0|0:0,0:0:0:0:
468,142,38711,1,0,0:0:0:0:
419,136,38787,1,0,0:0:0:0:
370,131,38864,1,0,0:0:0:0:
241,321,39017,1,8,0:0:0:0:
289,313,39093,1,8,0:0:0:0:
337,306,39170,1,8,0:0:0:0:
100,258,39323,6,0,L|86:154,1,98,4|0,0:0|0:0,0:0:0:0:
202,179,39629,1,8,0:0:0:0:
98,268,39782,1,0,0:0:0:0:
327,130,39935,2,0,L|444:146,1,98
302,55,40242,2,0,L|195:66,1,98,8|0,0:0|0:0,0:0:0:0:
430,248,40548,6,0,P|484:193|405:96,1,196,0|8,0:0|0:0,0:0:0:0:
326,96,41007,1,0,0:0:0:0:
196,96,41160,2,0,L|316:95,1,98
433,95,41466,2,0,L|326:95,1,98,8|0,0:0|0:0,0:0:0:0:
56,297,41772,6,0,P|18:217|99:149,1,196,0|8,0:0|0:0,0:0:0:0:
226,142,42231,1,0,0:0:0:0:
105,31,42384,2,0,L|104:144,1,98
235,170,42691,2,0,L|104:171,1,98,8|0,0:0|0:0,0:0:0:0:
357,326,42997,6,8,L|365:255,1,49,0|0,0:0|0:0,0:0:0:0:
287,254,43150,2,0,L|295:186,1,49
382,197,43303,2,8,L|316:189,1,49,0|0,0:0|0:0,0:0:0:0:
244,170,43456,2,0,L|312:176,1,49
363,167,43609,5,8,0:0:0:0:
384,154,43647,1,0,0:0:0:0:
398,135,43685,1,0,0:0:0:0:
404,111,43723,1,0,0:0:0:0:
332,93,43762,5,8,0:0:0:0:
310,80,43800,1,0,0:0:0:0:
296,61,43838,1,0,0:0:0:0:
290,37,43876,1,0,0:0:0:0:
436,30,43915,5,10,0:0:0:0:
453,46,43953,1,0,0:0:0:0:
463,68,43991,1,2,0:0:0:0:
465,93,44029,1,0,0:0:0:0:
458,116,44068,1,2,0:0:0:0:
443,135,44106,1,0,0:0:0:0:
422,147,44145,1,2,0:0:0:0:
223,214,44221,6,0,L|117:214,1,98,4|0,0:0|0:0,0:0:0:0:
248,63,44527,2,0,L|254:161,1,98,8|0,0:0|0:0,0:0:0:0:
115,182,44833,1,0,0:0:0:0:
252,214,44986,1,0,0:0:0:0:
100,194,45140,2,0,L|97:294,1,98,8|0,0:0|0:0,0:0:0:0:
344,344,45446,6,0,L|352:234,1,98
224,212,45752,2,0,L|106:201,1,98,8|0,0:0|0:0,0:0:0:0:
290,142,46058,2,0,L|178:126,1,98
43,219,46364,2,0,L|144:208,1,98,8|0,0:0|0:0,0:0:0:0:
398,332,46670,6,0,L|407:227,1,98,4|0,0:0|0:0,0:0:0:0:
266,270,46976,1,8,0:0:0:0:
186,220,47129,1,0,0:0:0:0:
192,127,47282,1,0,0:0:0:0:
276,87,47435,1,0,0:0:0:0:
396,17,47588,2,0,L|396:135,1,98,8|0,0:0|0:0,0:0:0:0:
123,209,47895,6,0,L|256:195,1,98
354,258,48201,1,8,0:0:0:0:
357,209,48277,1,0,0:0:0:0:
360,160,48354,1,0,0:0:0:0:
224,297,48507,1,0,0:0:0:0:
272,300,48583,1,0,0:0:0:0:
321,303,48660,1,0,0:0:0:0:
467,243,48813,1,8,0:0:0:0:
418,239,48889,1,8,0:0:0:0:
369,236,48966,1,8,0:0:0:0:
126,209,49119,6,0,L|115:106,1,98,4|0,0:0|0:0,0:0:0:0:
253,207,49425,2,0,L|267:318,1,98,8|0,0:0|0:0,0:0:0:0:
28,329,49731,2,0,L|140:318,1,98
273,363,50037,2,0,L|166:355,1,98,8|0,0:0|0:0,0:0:0:0:
421,294,50344,6,0,L|421:182,1,98,4|0,0:0|0:0,0:0:0:0:
305,158,50650,1,8,0:0:0:0:
170,224,50803,1,0,0:0:0:0:
294,226,50956,1,0,0:0:0:0:
422,230,51109,1,0,0:0:0:0:
259,106,51262,2,0,L|261:220,1,98,8|0,0:0|0:0,0:0:0:0:
485,202,51568,6,0,P|514:123|399:57,1,196,4|8,0:0|0:0,0:0:0:0:
286,67,52027,1,0,0:0:0:0:
404,202,52180,2,0,L|411:84,1,98
262,278,52486,2,0,L|378:269,1,98,8|0,0:0|0:0,0:0:0:0:
73,164,52793,5,4,0:0:0:0:
305,42,52946,2,0,L|306:242,1,196
177,342,53405,2,8,L|153:283,1,49,0|0,0:0|0:0,0:0:0:0:
231,274,53558,2,0,L|253:230,1,49
175,200,53711,2,0,L|146:132,3,49
287,141,54017,6,0,L|387:121,2,98,0|0|8,0:0|0:0|0:0,0:0:0:0:
171,19,54476,2,0,L|383:55,1,196
257,78,54935,1,8,0:0:0:0:
39,162,55242,6,0,L|235:146,1,196,4|8,0:3|0:0,0:0:0:0:
354,227,55701,1,0,0:0:0:0:
401,216,55777,1,0,0:0:0:0:
436,182,55854,1,4,0:3:0:0:
448,135,55930,1,0,0:0:0:0:
435,89,56007,1,0,0:0:0:0:
400,56,56083,1,0,0:0:0:0:
354,47,56160,2,0,L|296:47,1,49,8|0,0:0|0:0,0:0:0:0:
354,47,56313,2,0,L|427:48,1,49
220,242,56466,6,0,P|157:200|226:90,1,196,4|8,0:3|0:0,0:0:0:0:
326,101,56925,2,0,L|330:43,1,49
259,25,57078,2,0,L|159:7,1,98,4|0,0:3|0:3,0:0:0:0:
297,182,57384,2,0,L|405:174,1,98,8|0,0:0|0:0,0:0:0:0:
260,267,57691,5,4,0:3:0:0:
130,342,57844,2,0,L|108:276,1,49
192,262,57997,2,0,L|204:214,1,49,8|0,0:0|0:0,0:0:0:0:
125,192,58150,2,0,L|107:139,1,49
190,131,58303,2,0,L|312:117,1,98,4|0,0:3|0:0,0:0:0:0:
150,32,58609,1,8,0:0:0:0:
299,108,58762,1,4,0:3:0:0:
52,300,58915,6,4,L|36:195,1,98,4|4,0:3|0:3,0:3:0:0:
164,67,59221,2,0,L|151:174,1,98,8|4,0:0|0:3,0:0:0:0:
268,302,59527,2,4,L|252:197,1,98,4|4,0:3|0:3,0:3:0:0:
367,63,59833,2,0,L|354:170,1,98,8|4,0:0|0:3,0:0:0:0:
183,356,60140,5,4,0:3:0:0:
107,299,60293,1,4,0:3:0:0:
112,205,60446,1,8,0:0:0:0:
192,156,60599,1,4,0:3:0:0:
336,154,60752,2,4,L|227:155,1,98,4|4,0:3|0:3,0:3:0:0:
101,82,61058,2,0,L|225:81,1,98,8|4,0:0|0:3,0:0:0:0:
435,157,61364,6,4,L|451:87,1,49,4|4,0:3|0:3,0:3:0:0:
366,214,61517,2,4,L|355:159,1,49,4|4,0:3|0:3,0:3:0:0:
276,158,61670,2,4,L|260:100,1,49,4|4,0:3|0:3,0:3:0:0:
339,91,61823,2,4,L|367:41,1,49,4|4,0:3|0:3,0:3:0:0:
258,48,61976,5,4,0:3:0:0:
211,62,62052,1,4,0:3:0:0:
181,99,62129,1,4,0:3:0:0:
177,147,62205,1,4,0:3:0:0:
201,189,62282,1,4,0:3:0:0:
245,210,62358,1,4,0:3:0:0:
304,211,62435,2,4,L|252:211,1,49,4|4,0:3|0:3,0:3:0:0:
93,293,62588,5,8,0:2:0:0:
227,331,62742,2,0,L|224:258,1,49,2|0,0:0|0:0,0:0:0:0:
299,265,62895,2,0,L|297:208,1,49,2|0,0:0|0:0,0:0:0:0:
373,188,63048,2,0,L|372:121,1,49,2|0,0:0|0:0,0:0:0:0:
450,107,63201,2,2,L|450:68,2,24.5,0|0|0,0:0|0:0|0:0,0:0:0:0:
241,14,63354,5,4,0:0:0:0:
360,73,63507,2,8,L|360:127,1,49,0|0,0:0|0:0,0:0:0:0:
175,172,63660,2,4,L|110:173,1,49,4|4,0:3|0:3,0:3:0:0:
320,314,63813,5,4,0:0:0:0:
210,248,63966,2,0,L|126:249,1,53.9000016448975
348,184,64119,2,0,L|283:184,1,53.9000016448975,8|0,0:0|0:0,0:0:0:0:
46,213,64272,2,0,L|38:78,1,107.800003289795
107,74,64502,1,0,0:0:0:0:
276,109,64578,2,8,L|332:108,1,53.9000016448975,0|0,0:0|0:0,0:0:0:0:
172,191,64731,2,0,L|52:191,1,107.800003289795,8|0,0:0|0:0,0:0:0:0:
124,169,64961,1,0,0:0:0:0:
351,245,65037,6,0,L|468:245,1,107.800003289795,4|0,0:0|0:0,0:0:0:0:
140,333,65344,1,8,0:0:0:0:
395,243,65497,2,8,L|396:186,1,53.9000016448975,0|0,0:0|0:0,0:0:0:0:
236,148,65650,2,8,L|177:148,1,53.9000016448975,0|0,0:0|0:0,0:0:0:0:
403,171,65803,2,8,L|403:108,1,53.9000016448975,0|0,0:0|0:0,0:0:0:0:
173,111,65956,2,8,L|249:110,1,53.9000016448975,0|0,0:0|0:0,0:0:0:0:
406,193,66109,2,8,L|408:119,1,53.9000016448975,0|0,0:0|0:0,0:0:0:0:
156,258,66262,6,0,L|42:273,2,107.800003289795,4|0|8,0:0|0:0|0:0,0:0:0:0:
302,321,66721,1,2,0:0:0:0:
341,297,66759,1,0,0:0:0:0:
352,251,66798,1,2,0:0:0:0:
155,153,66874,2,0,L|39:141,1,107.800003289795,8|0,0:0|0:0,0:0:0:0:
338,103,67180,2,0,L|461:122,1,107.800003289795,8|0,0:0|0:0,0:0:0:0:
281,184,67486,5,4,0:3:0:0:
27,288,67640,2,8,L|14:226,1,53.9000016448975,0|0,0:0|0:0,0:0:0:0:
196,207,67793,2,8,L|262:191,1,53.9000016448975,0|0,0:0|0:0,0:0:0:0:
58,176,67946,2,8,L|43:103,1,53.9000016448975,0|0,0:0|0:0,0:0:0:0:
277,73,68099,1,8,0:0:0:0:
344,73,68175,1,8,0:0:0:0:
277,73,68252,1,0,0:0:0:0:
123,70,68328,1,0,0:0:0:0:
285,121,68405,2,8,L|356:122,1,53.9000016448975,0|0,0:0|0:0,0:0:0:0:
149,190,68558,2,8,L|129:260,1,53.9000016448975,0|0,0:0|0:0,0:0:0:0:
366,254,68711,5,4,0:0:0:0:
253,253,68864,1,0,0:0:0:0:
141,252,69017,1,8,0:0:0:0:
395,190,69170,2,8,L|472:190,1,53.9000016448975,0|0,0:0|0:0,0:0:0:0:
187,120,69323,2,0,L|41:122,1,107.800003289795,4|0,0:3|0:0,0:0:0:0:
305,47,69629,2,0,L|167:46,1,107.800003289795,8|0,0:0|0:0,0:0:0:0:
248,80,69859,1,0,0:0:0:0:
457,191,69935,6,0,L|469:79,1,107.800003289795,4|0,0:0|0:0,0:0:0:0:
348,39,70242,1,8,0:0:0:0:
483,12,70395,1,0,0:0:0:0:
178,124,70548,2,0,L|64:108,1,107.800003289795,4|0,0:3|0:0,0:0:0:0:
336,258,70854,2,0,L|453:241,1,107.800003289795,8|0,0:0|0:0,0:0:0:0:
158,350,71160,6,0,L|157:240,1,107.800003289795,4|0,0:0|0:0,0:0:0:0:
295,286,71466,1,8,0:0:0:0:
157,169,71619,1,0,0:0:0:0:
428,228,71772,6,8,L|487:228,1,53.9000016448975,0|0,0:0|0:0,0:0:0:0:
286,161,71925,2,0,L|275:98,1,53.9000016448975
481,228,72078,2,8,L|421:227,1,53.9000016448975,0|0,0:0|0:0,0:0:0:0:
286,161,72231,2,8,L|271:95,1,53.9000016448975,0|0,0:0|0:0,0:0:0:0:
336,65,72384,5,8,0:0:0:0:
123,264,72537,2,0,L|59:264,1,53.9000016448975,12|8,0:0|0:0,0:0:0:0:
282,305,72691,2,8,L|285:245,1,53.9000016448975,0|0,0:0|0:0,0:0:0:0:
42,264,72844,2,0,L|97:264,1,53.9000016448975
238,264,72997,1,8,0:0:0:0:
377,263,73073,1,8,0:0:0:0:
186,194,73150,2,8,L|128:194,1,53.9000016448975,0|0,0:0|0:0,0:0:0:0:
348,160,73303,1,8,0:0:0:0:
397,131,73379,1,8,0:0:0:0:
400,79,73456,1,8,0:0:0:0:
355,44,73532,1,8,0:0:0:0:
138,28,73609,6,0,L|51:28,1,53.9000016448975,4|0,0:0|0:0,0:0:0:0:
265,139,73762,2,0,L|273:79,1,53.9000016448975
62,82,73915,2,0,L|121:82,1,53.9000016448975,8|0,0:0|0:0,0:0:0:0:
346,208,74068,2,0,L|494:208,1,107.800003289795
391,237,74298,1,0,0:0:0:0:
181,278,74374,2,8,L|107:278,1,53.9000016448975,0|0,0:0|0:0,0:0:0:0:
350,354,74527,2,0,L|350:244,1,107.800003289795,8|0,0:0|0:0,0:0:0:0:
278,220,74757,1,0,0:0:0:0:
65,219,74833,6,0,L|183:218,2,107.800003289795,4|0|8,0:0|0:0|0:0,0:0:0:0:
371,243,75293,2,8,L|374:170,1,53.9000016448975,0|0,0:0|0:0,0:0:0:0:
153,145,75446,2,8,L|153:75,1,53.9000016448975,0|0,0:0|0:0,0:0:0:0:
321,48,75599,2,8,L|259:48,1,53.9000016448975,0|0,0:0|0:0,0:0:0:0:
126,161,75752,2,8,L|186:159,1,53.9000016448975,0|0,0:0|0:0,0:0:0:0:
326,207,75905,2,8,L|326:149,1,53.9000016448975,0|0,0:0|0:0,0:0:0:0:
129,298,76058,6,0,L|20:298,2,107.800003289795,4|0|8,0:0|0:0|0:0,0:0:0:0:
281,344,76517,1,2,0:0:0:0:
314,323,76555,1,0,0:0:0:0:
323,283,76594,1,2,0:0:0:0:
161,199,76670,2,0,L|49:189,1,107.800003289795,8|0,0:0|0:0,0:0:0:0:
297,141,76976,2,0,L|408:154,1,107.800003289795,8|0,0:0|0:0,0:0:0:0:
269,219,77282,5,4,0:0:0:0:
485,287,77435,2,8,L|491:219,1,53.9000016448975,0|0,0:0|0:0,0:0:0:0:
344,153,77588,2,8,L|271:140,1,53.9000016448975,0|0,0:0|0:0,0:0:0:0:
464,108,77742,2,8,L|478:38,1,53.9000016448975,0|0,0:0|0:0,0:0:0:0:
218,43,77895,2,0,L|146:42,2,53.9000016448975,8|8|0,0:0|0:0|0:0,0:0:0:0:
361,40,78124,1,0,0:0:0:0:
175,115,78201,2,8,L|109:115,1,53.9000016448975,0|0,0:0|0:0,0:0:0:0:
315,155,78354,2,8,L|372:155,1,53.9000016448975,0|0,0:0|0:0,0:0:0:0:
139,232,78507,6,0,L|17:233,2,107.800003289795,4|0|8,0:0|0:0|0:0,0:0:0:0:
280,261,78966,2,8,L|347:261,1,53.9000016448975,0|0,0:0|0:0,0:0:0:0:
129,318,79119,2,0,L|5:318,1,107.800003289795,4|0,0:3|0:0,0:0:0:0:
306,185,79425,2,0,L|170:186,1,107.800003289795,8|0,0:0|0:0,0:0:0:0:
141,188,79655,1,0,0:0:0:0:
351,288,79731,5,4,0:0:0:0:
440,237,79884,1,0,0:0:0:0:
437,134,80037,1,8,0:0:0:0:
345,89,80190,1,0,0:0:0:0:
85,78,80344,2,0,L|196:78,1,107.800003289795,4|0,0:3|0:0,0:0:0:0:
477,195,80650,2,0,L|343:196,1,107.800003289795,8|0,0:0|0:0,0:0:0:0:
59,197,80956,5,4,0:0:0:0:
196,201,81109,1,0,0:0:0:0:
59,197,81262,2,0,L|51:89,1,107.800003289795,8|0,0:0|0:0,0:0:0:0:
307,272,81568,2,8,L|322:215,1,53.9000016448975,0|0,0:0|0:0,0:0:0:0:
146,142,81721,2,0,L|205:141,1,53.9000016448975
379,136,81874,2,8,L|392:74,1,53.9000016448975,0|0,0:0|0:0,0:0:0:0:
242,73,82027,1,8,0:0:0:0:
92,70,82104,1,8,0:0:0:0:
271,273,82333,6,0,L|279:210,1,53.9000016448975,2|0,0:0|0:0,0:0:0:0:
194,193,82486,2,0,L|201:131,1,53.9000016448975,2|0,0:0|0:0,0:0:0:0:
294,130,82640,2,0,L|303:75,1,53.9000016448975,2|0,0:0|0:0,0:0:0:0:
108,294,82793,1,8,0:0:0:0:
61,270,82869,1,8,0:0:0:0:
45,220,82946,1,8,0:0:0:0:
70,174,83022,1,8,0:0:0:0:
261,148,83099,2,8,L|323:149,1,53.9000016448975,0|0,0:0|0:0,0:0:0:0:
113,64,83252,2,8,L|39:64,1,53.9000016448975,0|0,0:0|0:0,0:0:0:0:
366,313,83405,5,4,0:1:0:0:
392,310,83443,1,0,0:0:0:0:
417,301,83481,1,0,0:0:0:0:
439,285,83519,1,0,0:0:0:0:
455,263,83558,1,0,0:0:0:0:
465,238,83596,1,0,0:0:0:0:
467,211,83634,1,0,0:0:0:0:
462,185,83672,1,0,0:0:0:0:
450,161,83711,1,0,0:0:0:0:
318,138,83864,1,0,0:0:0:0:
96,132,84017,6,0,L|60:132,4,26.9500008224488,2|0|0|0|0,0:0|0:0|0:0|0:0|0:0,0:0:0:0:
171,132,84247,1,0,0:0:0:0:
318,138,84323,2,2,L|394:138,1,53.9000016448975,0|0,0:0|0:0,0:0:0:0:
172,55,84476,2,2,L|108:55,1,53.9000016448975,0|0,0:0|0:0,0:0:0:0:
314,5,84629,5,8,0:0:0:0:
341,2,84667,1,0,0:0:0:0:
368,3,84705,1,0,0:0:0:0:
394,9,84743,1,0,0:0:0:0:
419,20,84782,1,0,0:0:0:0:
441,36,84820,1,0,0:0:0:0:
460,55,84858,1,0,0:0:0:0:
475,77,84896,1,0,0:0:0:0:
485,102,84935,5,0,0:0:0:0:
492,128,84973,1,0,0:0:0:0:
493,155,85011,1,0,0:0:0:0:
489,181,85049,1,0,0:0:0:0:
480,207,85088,1,0,0:0:0:0:
467,230,85126,1,0,0:0:0:0:
450,251,85164,1,0,0:0:0:0:
216,353,85242,5,8,0:0:0:0:
196,335,85280,1,0,0:0:0:0:
183,311,85318,1,0,0:0:0:0:
179,285,85356,1,0,0:0:0:0:
243,259,85395,1,8,0:0:0:0:
262,241,85433,1,0,0:0:0:0:
275,217,85471,1,0,0:0:0:0:
279,191,85509,1,0,0:0:0:0:
213,160,85548,5,2,0:0:0:0:
189,147,85586,1,0,0:0:0:0:
171,127,85624,1,0,0:0:0:0:
161,102,85662,1,0,0:0:0:0:
160,76,85701,1,0,0:0:0:0:
168,50,85739,1,0,0:0:0:0:
185,29,85777,1,0,0:0:0:0:
392,8,85854,6,0,P|457:70|381:164,1,215.60000657959,4|0,0:0|0:0,0:0:0:0:
269,165,86313,1,0,0:0:0:0:
441,211,86466,2,0,L|371:211,1,53.9000016448975,2|0,0:0|0:0,0:0:0:0:
179,231,86619,2,0,L|146:231,1,26.9500008224488,2|0,0:0|0:0,0:0:0:0:
276,298,86772,2,0,L|316:298,1,26.9500008224488,2|0,0:0|0:0,0:0:0:0:
162,359,86925,1,2,0:0:0:0:
465,356,87078,6,0,P|513:294|426:202,1,215.60000657959,4|0,0:0|0:0,0:0:0:0:
384,211,87461,1,0,0:0:0:0:
324,227,87537,1,0,0:0:0:0:
181,123,87691,2,0,L|295:139,1,107.800003289795,8|0,0:0|0:0,0:0:0:0:
460,37,87997,2,0,L|334:59,1,107.800003289795,8|0,0:0|0:0,0:0:0:0:
98,365,88303,5,4,0:0:0:0:
85,340,88341,1,0,0:0:0:0:
80,314,88379,1,0,0:0:0:0:
81,287,88417,1,0,0:0:0:0:
89,262,88456,1,0,0:0:0:0:
104,239,88494,1,0,0:0:0:0:
123,221,88532,1,0,0:0:0:0:
147,208,88570,1,0,0:0:0:0:
173,202,88609,1,0,0:0:0:0:
282,204,88762,1,0,0:0:0:0:
61,112,88915,6,0,L|25:113,4,26.9500008224488,2|0|2|0|2,0:0|0:0|0:0|0:0|0:0,0:0:0:0:
141,113,89145,1,0,0:0:0:0:
326,108,89221,2,2,L|396:109,1,53.9000016448975,0|0,0:0|0:0,0:0:0:0:
200,35,89374,2,2,L|140:35,1,53.9000016448975,0|0,0:0|0:0,0:0:0:0:
358,320,89527,5,4,0:0:0:0:
384,316,89565,1,0,0:0:0:0:
410,308,89603,1,0,0:0:0:0:
433,294,89641,1,0,0:0:0:0:
453,276,89680,1,0,0:0:0:0:
469,254,89718,1,0,0:0:0:0:
480,230,89756,1,0,0:0:0:0:
486,204,89794,1,0,0:0:0:0:
487,177,89833,5,0,0:0:0:0:
483,150,89871,1,0,0:0:0:0:
473,125,89909,1,0,0:0:0:0:
458,103,89947,1,0,0:0:0:0:
439,84,89986,1,0,0:0:0:0:
417,69,90024,1,0,0:0:0:0:
392,59,90062,1,0,0:0:0:0:
191,240,90140,5,8,0:0:0:0:
168,224,90178,1,0,0:0:0:0:
153,202,90216,1,0,0:0:0:0:
147,176,90254,1,0,0:0:0:0:
150,150,90293,1,0,0:0:0:0:
162,126,90331,1,0,0:0:0:0:
183,108,90369,1,0,0:0:0:0:
368,192,90446,2,2,L|435:193,1,53.9000016448975,0|0,0:0|0:0,0:0:0:0:
223,297,90599,2,2,L|148:299,1,53.9000016448975,0|0,0:0|0:0,0:0:0:0:
414,366,90752,6,0,P|468:292|366:216,1,215.60000657959,4|0,0:0|0:0,0:0:0:0:
254,208,91211,1,0,0:0:0:0:
389,204,91364,2,2,L|443:203,1,53.9000016448975,0|0,0:0|0:0,0:0:0:0:
194,104,91517,2,0,L|146:103,1,26.9500008224488,2|0,0:0|0:0,0:0:0:0:
271,57,91670,2,0,L|311:54,1,26.9500008224488,2|0,0:0|0:0,0:0:0:0:
195,11,91823,2,0,L|147:10,1,26.9500008224488,2|0,0:0|0:0,0:0:0:0:
453,77,91976,5,4,0:0:0:0:
372,121,92053,2,0,L|366:186,2,53.9000016448975,0|2|0,0:0|0:0|0:0,0:0:0:0:
463,230,92282,1,4,0:0:0:0:
382,274,92359,2,0,L|376:339,2,53.9000016448975,0|2|0,0:0|0:0|0:0,0:0:0:0:
463,230,92588,6,2,L|470:156,1,53.9000016448975,0|0,0:0|0:0,0:0:0:0:
261,157,92742,2,2,L|202:150,1,53.9000016448975,0|0,0:0|0:0,0:0:0:0:
341,2,92895,1,8,0:0:0:0:
367,7,92933,1,0,0:0:0:0:
390,20,92971,1,0,0:0:0:0:
408,40,93009,1,0,0:0:0:0:
419,64,93048,1,0,0:0:0:0:
422,91,93086,1,0,0:0:0:0:
416,117,93124,1,0,0:0:0:0:
249,252,93201,6,0,L|124:253,1,107.800003289795,4|0,0:0|0:0,0:0:0:0:
281,353,93507,2,0,L|290:236,1,107.800003289795,8|0,0:0|0:0,0:0:0:0:
156,187,93813,1,0,0:0:0:0:
302,155,93966,1,0,0:0:0:0:
156,187,94119,2,0,L|145:57,1,107.800003289795,8|0,0:0|0:0,0:0:0:0:
384,33,94425,5,0,0:0:0:0:
475,80,94578,1,0,0:0:0:0:
478,183,94731,1,8,0:0:0:0:
390,236,94884,1,0,0:0:0:0:
151,132,95037,2,0,L|264:132,1,107.800003289795
405,129,95344,2,0,L|281:129,1,107.800003289795,8|0,0:0|0:0,0:0:0:0:
44,348,95650,6,0,L|33:233,1,107.800003289795,4|0,0:0|0:0,0:0:0:0:
173,263,95956,2,0,L|291:242,1,107.800003289795,8|0,0:0|0:0,0:0:0:0:
149,50,96262,2,0,L|149:171,1,107.800003289795
291,112,96568,2,0,L|412:113,1,107.800003289795,8|0,0:0|0:0,0:0:0:0:
147,222,96874,6,0,L|30:221,1,107.800003289795,4|0,0:0|0:0,0:0:0:0:
189,301,97180,2,0,L|261:300,2,53.9000016448975,8|0|0,0:0|0:0|0:0,0:0:0:0:
66,343,97486,2,0,L|184:344,1,107.800003289795
290,263,97793,1,8,0:0:0:0:
236,263,97869,1,8,0:0:0:0:
182,263,97946,1,8,0:0:0:0:
470,290,98099,6,0,L|480:169,1,107.800003289795,4|0,0:0|0:0,0:0:0:0:
326,208,98405,2,0,L|204:197,1,107.800003289795,8|0,0:0|0:0,0:0:0:0:
478,112,98711,2,0,L|367:91,1,107.800003289795
269,220,99017,2,0,L|386:201,1,107.800003289795,8|0,0:0|0:0,0:0:0:0:
151,343,99323,5,4,0:0:0:0:
54,305,99476,1,0,0:0:0:0:
29,204,99629,1,8,0:0:0:0:
98,127,99782,1,0,0:0:0:0:
216,103,99935,2,0,L|361:103,1,107.800003289795
181,204,100242,2,0,L|45:204,1,107.800003289795,8|0,0:0|0:0,0:0:0:0:
347,335,100548,6,0,P|419:298|370:163,1,215.60000657959,4|8,0:0|0:0,0:0:0:0:
258,170,101007,1,0,0:0:0:0:
391,77,101160,2,0,L|268:78,1,107.800003289795
148,184,101466,2,0,L|301:181,1,107.800003289795,8|0,0:0|0:0,0:0:0:0:
101,108,101772,5,8,0:0:0:0:
358,328,101925,2,0,P|443:293|410:152,1,215.60000657959
311,153,102384,2,0,L|244:152,2,53.9000016448975,8|0|0,0:0|0:0|0:0,0:0:0:0:
443,99,102691,2,0,L|500:99,1,53.9000016448975
443,99,102844,2,0,L|377:98,1,53.9000016448975
191,97,102997,5,2,0:0:0:0:
