osu file format v14

[General]
AudioFilename: audio.mp3
AudioLeadIn: 0
PreviewTime:63744
Countdown: 0
SampleSet: Soft
StackLeniency: 0.7
Mode: 2
LetterboxInBreaks: 0
WidescreenStoryboard: 1

[Editor]
DistanceSpacing: 1.2
BeatDivisor: 4
GridSize: 32
TimelineZoom: 2.2

[Metadata]
Title:Yuujou
TitleUnicode:Yuujou
Artist:Thaehan
ArtistUnicode:Thaehan
Creator:Ascendance
Version:Cup
Source:osu!
Tags:mapping olympiad contest sinnoh instrumental electronic featured artist chiptune loki bwa mappers guild mpg fa
BeatmapID:2597831
BeatmapSetID:1249928

[Difficulty]
HPDrainRate:3
CircleSize:2.5
OverallDifficulty:6
ApproachRate:6
SliderMultiplier:1.2
SliderTickRate:1

[Events]
//Background and Video events
0,0,"ascendance please compress images -_-.jpg"
//Break Periods
2,54217,61538
//Storyboard Layer 0 (Background)
//Storyboard Layer 1 (Fail)
//Storyboard Layer 2 (Pass)
//Storyboard Layer 3 (Foreground)
//Storyboard Layer 4 (Overlay)
//Storyboard Sound Samples

[TimingPoints]
140,306.122448979592,4,2,1,30,1,0
5037,-125,4,2,1,30,0,0
9935,-125,4,2,1,40,0,0
12384,-111.111111111111,4,2,1,50,0,0
13609,-100,4,2,1,60,0,0
14068,-100,4,2,2,60,0,0
14374,-100,4,2,1,60,0,0
14833,-100,4,2,1,70,0,0
15599,-100,4,2,2,70,0,0
15752,-100,4,2,1,70,0,0
16823,-100,4,2,2,70,0,0
16976,-100,4,2,1,70,0,0
17129,-100,4,2,2,70,0,0
17282,-100,4,2,1,70,0,0
17895,-100,4,2,2,70,0,0
18201,-100,4,2,1,70,0,0
18966,-100,4,2,2,70,0,0
19119,-100,4,2,1,70,0,0
20344,-100,4,2,2,70,0,0
20650,-100,4,2,1,70,0,0
21568,-100,4,2,2,70,0,0
21874,-100,4,2,1,70,0,0
23099,-100,4,2,2,70,0,0
23558,-100,4,2,1,70,0,0
23864,-100,4,2,2,70,0,0
24629,-100,4,2,1,70,0,0
25395,-100,4,2,2,70,0,0
25548,-100,4,2,1,70,0,0
26619,-100,4,2,2,70,0,0
26925,-100,4,2,1,70,0,0
27691,-100,4,2,2,70,0,0
27997,-100,4,2,1,70,0,0
28762,-100,4,2,2,70,0,0
28915,-100,4,2,1,70,0,0
30140,-100,4,2,2,70,0,0
30446,-100,4,2,1,70,0,0
31364,-100,4,2,2,70,0,0
31670,-100,4,2,1,70,0,0
33813,-100,4,2,2,70,0,0
34425,-100,4,1,1,60,0,0
36874,-100,4,1,2,60,0,0
37027,-100,4,1,1,60,0,0
39017,-100,4,1,2,60,0,0
39323,-100,4,1,1,80,0,0
39476,-100,4,1,1,60,0,0
46670,-100,4,1,2,60,0,0
46823,-100,4,1,1,60,0,0
48813,-100,4,1,2,60,0,0
49119,-100,4,1,1,80,0,0
49272,-100,4,1,1,60,0,0
50344,-100,4,1,2,60,0,0
50497,-100,4,1,1,60,0,0
54017,-100,4,2,1,50,0,0
62742,-100,4,1,1,60,0,0
63201,-100,4,2,1,20,0,0
63354,-100,4,2,1,60,0,0
63507,-100,4,2,2,60,0,0
63813,-100,4,2,1,70,0,1
64578,-100,4,2,2,70,0,1
64731,-100,4,2,1,70,0,1
65803,-100,4,2,2,70,0,1
65956,-100,4,2,1,70,0,1
66109,-100,4,2,2,70,0,1
66262,-100,4,2,1,70,0,1
66874,-100,4,2,2,70,0,1
67180,-100,4,2,1,70,0,1
67946,-100,4,2,2,70,0,1
68099,-100,4,2,1,70,0,1
69170,-100,4,2,2,70,0,1
69323,-100,4,2,1,70,0,1
70548,-100,4,2,2,70,0,1
70854,-100,4,2,1,70,0,1
72384,-100,4,2,2,70,0,1
72537,-100,4,2,1,70,0,1
72691,-100,4,2,2,70,0,1
72997,-100,4,2,1,70,0,1
73150,-100,4,2,2,70,0,0
73303,-100,4,2,1,70,0,0
73609,-100,4,2,1,70,0,1
74374,-100,4,2,2,70,0,1
74527,-100,4,2,1,70,0,1
75599,-100,4,2,2,70,0,1
75752,-100,4,2,1,70,0,1
75905,-100,4,2,2,70,0,1
76058,-100,4,2,1,70,0,1
76670,-100,4,2,2,70,0,1
76976,-100,4,2,1,70,0,1
77742,-100,4,2,2,70,0,1
77895,-100,4,2,1,70,0,1
78966,-100,4,2,2,70,0,1
79119,-100,4,2,1,70,0,1
80344,-100,4,2,2,70,0,1
80650,-100,4,2,1,70,0,1
82180,-100,4,2,1,60,0,0
82793,-100,4,2,2,60,0,0
83405,-100,4,1,4,60,0,0
93201,-100,4,1,1,60,0,0
97793,-100,4,1,2,60,0,0
98099,-100,4,1,1,60,0,0
102997,-100,4,2,1,40,0,0
104221,-111.111111111111,4,2,1,40,0,0

[Colours]
Combo1 : 255,226,140
Combo2 : 255,157,206
Combo3 : 125,184,255
Combo4 : 125,255,125

[HitObjects]
190,95,5037,6,0,L|79:85,1,96,4|8,0:3|0:0,0:0:0:0:
234,118,5803,2,0,L|302:108,1,48,4|8,0:3|0:0,0:0:0:0:
376,100,6262,2,0,L|260:89,1,96,4|8,0:3|0:0,0:0:0:0:
184,97,6874,2,0,L|71:87,1,96,4|8,0:3|0:0,0:0:0:0:
184,88,7486,6,0,L|350:73,1,144,4|0,0:3|0:0,0:0:0:0:
280,64,8099,1,0,0:0:0:0:
184,53,8405,1,8,0:0:0:0:
88,41,8711,2,0,L|202:29,1,96,4|8,0:3|0:0,0:0:0:0:
279,35,9323,2,0,L|380:22,1,96,4|8,0:3|0:0,0:0:0:0:
281,48,9935,6,0,L|120:39,1,144,4|0,0:3|0:0,0:0:0:0:
89,34,10548,1,0,0:0:0:0:
184,34,10854,1,8,0:0:0:0:
279,30,11160,6,0,L|390:30,1,96,4|8,0:3|0:0,0:0:0:0:
279,41,11772,2,4,L|271:152,1,96,4|8,0:3|0:0,0:3:0:0:
376,165,12384,5,4,0:3:0:0:
159,162,12997,2,8,L|273:161,1,107.999996704102,0|0,0:0|0:0,0:0:0:0:
422,161,13609,1,4,0:0:0:0:
356,160,13762,2,8,L|217:159,2,120,0|0|4,0:0|0:0|0:0,0:0:0:0:
422,161,14527,1,0,0:0:0:0:
290,161,14833,6,0,L|150:160,1,120,4|8,0:0|0:0,0:0:0:0:
103,159,15293,1,0,0:0:0:0:
234,159,15599,2,8,L|311:159,1,60,0|8,0:0|0:0,0:0:0:0:
162,152,16058,2,0,L|32:152,1,120,4|8,0:0|0:0,0:0:0:0:
171,179,16670,2,8,L|44:178,1,120,0|0,0:0|0:0,0:0:0:0:
182,190,17282,6,0,L|371:191,1,180,4|2,0:0|0:0,0:0:0:0:
428,191,17895,1,8,0:0:0:0:
296,194,18201,1,8,0:0:0:0:
164,194,18507,2,0,L|302:194,1,120,4|0,0:0|0:0,0:0:0:0:
415,179,19119,2,0,L|285:180,1,120,8|0,0:0|0:0,0:0:0:0:
163,179,19731,6,0,P|110:137|161:48,1,180,4|0,0:3|0:0,0:0:0:0:
219,48,20344,1,8,0:0:0:0:
350,48,20650,1,8,0:0:0:0:
218,49,20956,2,0,L|31:48,1,180,4|0,0:3|0:0,0:0:0:0:
103,47,21568,1,8,0:0:0:0:
234,48,21874,1,8,0:0:0:0:
365,46,22180,6,0,L|371:181,1,120,4|8,0:0|0:0,0:0:0:0:
241,134,22793,2,8,L|156:141,2,60,0|0|0,0:0|0:0|0:0,0:0:0:0:
372,118,23405,1,4,0:0:0:0:
434,140,23558,2,8,L|294:128,1,120,0|0,0:0|0:0,0:0:0:0:
184,106,24170,2,0,L|115:101,1,60,4|0,0:0|0:0,0:0:0:0:
255,84,24629,6,0,L|398:73,1,120,4|8,0:0|0:0,0:0:0:0:
310,57,25088,1,0,0:0:0:0:
177,51,25395,2,8,L|100:43,1,60,0|8,0:0|0:0,0:0:0:0:
233,107,25854,2,0,L|359:94,1,120,4|8,0:0|0:0,0:0:0:0:
223,123,26466,2,8,L|87:115,1,120,0|0,0:0|0:0,0:0:0:0:
232,140,27078,6,0,P|298:202|230:265,1,180,4|2,0:0|0:0,0:0:0:0:
188,263,27691,1,8,0:0:0:0:
56,265,27997,1,8,0:0:0:0:
187,274,28303,2,0,L|318:273,1,120,4|0,0:0|0:0,0:0:0:0:
175,270,28915,2,0,L|28:270,1,120,8|0,0:0|0:0,0:0:0:0:
186,264,29527,6,0,L|387:264,1,180,4|0,0:0|0:0,0:0:0:0:
432,262,30140,1,8,0:0:0:0:
300,262,30446,1,8,0:0:0:0:
168,266,30752,2,0,L|356:264,1,180,4|0,0:0|0:0,0:0:0:0:
282,263,31364,1,8,0:0:0:0:
150,270,31670,1,8,0:0:0:0:
18,258,31976,6,0,L|144:257,1,120,0|8,0:0|0:0,0:0:0:0:
269,259,32588,2,8,L|356:258,2,60,0|0|0,0:0|0:0|0:0,0:0:0:0:
70,263,33354,2,0,L|135:263,1,60,2|2,0:0|0:0,0:0:0:0:
261,263,33813,2,0,L|128:262,1,120,8|0,0:0|0:0,0:0:0:0:
272,268,34425,6,0,P|336:231|287:90,1,240
165,78,35344,1,8,0:0:0:0:
296,82,35650,2,0,L|420:81,1,120,0|8,0:0|0:0,0:0:0:0:
286,105,36262,2,0,L|152:104,1,120,0|8,0:0|0:0,0:0:0:0:
34,94,36874,6,0,L|293:93,1,240,4|0,0:0|0:0,0:0:0:0:
406,90,37793,1,8,0:0:0:0:
274,86,38099,2,0,L|274:218,1,120,0|8,0:0|0:0,0:0:0:0:
339,210,38558,1,0,0:0:0:0:
404,212,38711,1,0,0:0:0:0:
272,212,39017,1,8,0:0:0:0:
140,212,39323,6,0,L|9:210,2,120,4|8|0,0:0|0:0|0:0,0:0:0:0:
272,212,40242,2,0,L|354:212,2,60,8|0|0,0:0|0:0|0:0,0:0:0:0:
140,214,40854,1,8,0:0:0:0:
271,214,41160,1,0,0:0:0:0:
402,212,41466,2,0,L|477:213,1,60,8|0,0:0|0:0,0:0:0:0:
396,203,41772,6,0,L|257:202,1,120,0|8,0:0|0:0,0:0:0:0:
146,175,42384,2,0,L|146:313,1,120,0|8,0:0|0:0,0:0:0:0:
273,259,42997,6,8,L|336:258,1,60,0|0,0:0|0:0,0:0:0:0:
268,245,43303,2,8,L|194:244,1,60,0|0,0:0|0:0,0:0:0:0:
273,237,43609,2,0,P|332:197|280:99,1,180,8|2,0:0|0:0,0:0:0:0:
236,99,44221,6,0,L|99:99,1,120,4|8,0:0|0:0,0:0:0:0:
50,99,44680,1,0,0:0:0:0:
115,98,44833,1,0,0:0:0:0:
247,102,45140,1,8,0:0:0:0:
378,102,45446,2,0,L|383:238,1,120,0|8,0:0|0:0,0:0:0:0:
251,236,46058,2,0,L|129:236,1,120,0|8,0:0|0:0,0:0:0:0:
262,237,46670,6,0,L|405:237,1,120,4|8,0:0|0:0,0:0:0:0:
251,222,47282,1,0,0:0:0:0:
185,222,47435,1,0,0:0:0:0:
250,222,47588,1,8,0:0:0:0:
382,224,47895,2,0,L|383:97,1,120,0|8,0:0|0:0,0:0:0:0:
317,97,48354,1,0,0:0:0:0:
251,91,48507,1,0,0:0:0:0:
119,87,48813,1,8,0:0:0:0:
250,82,49119,6,0,L|389:74,1,120,4|8,0:0|0:0,0:0:0:0:
242,109,49731,2,0,L|113:101,1,120,0|8,0:0|0:0,0:0:0:0:
184,77,50191,1,0,0:0:0:0:
248,63,50344,1,4,0:0:0:0:
379,62,50650,1,8,0:0:0:0:
247,59,50956,2,0,L|111:59,1,120,0|8,0:0|0:0,0:0:0:0:
61,59,51415,1,0,0:0:0:0:
61,59,51568,5,4,0:0:0:0:
192,60,51874,1,8,0:0:0:0:
61,77,52180,2,0,L|58:208,1,120,0|8,0:0|0:0,0:0:0:0:
181,244,52793,2,0,L|248:231,1,60,4|0,0:0|0:0,0:0:0:0:
359,288,53252,2,0,L|439:275,1,60
298,222,53711,1,0,0:0:0:0:
166,224,54017,5,0,0:0:0:0:
256,193,62588,5,8,0:2:0:0:
298,197,63507,2,8,L|373:196,1,60,0|4,0:0|0:3,0:0:0:0:
291,199,63813,6,0,L|149:198,1,120,4|8,0:0|0:0,0:0:0:0:
105,197,64272,1,0,0:0:0:0:
236,200,64578,2,8,L|307:200,1,60,0|8,0:0|0:0,0:0:0:0:
436,198,65037,2,0,L|295:200,1,120,4|8,0:0|0:0,0:0:0:0:
183,201,65650,2,8,L|45:202,1,120,0|0,0:0|0:0,0:0:0:0:
194,202,66262,6,0,L|337:203,1,120,4|8,0:0|0:0,0:0:0:0:
379,202,66721,1,2,0:0:0:0:
444,204,66874,1,8,0:0:0:0:
312,203,67180,1,8,0:0:0:0:
180,203,67486,2,0,L|45:201,1,120,4|0,0:3|0:0,0:0:0:0:
191,219,68099,2,0,L|327:218,1,120,8|0,0:0|0:0,0:0:0:0:
179,217,68711,6,0,P|122:179|168:89,1,180,4|0,0:0|0:0,0:0:0:0:
226,88,69323,1,4,0:3:0:0:
357,90,69629,1,8,0:0:0:0:
225,87,69935,2,0,L|93:88,1,120,4|8,0:0|0:0,0:0:0:0:
170,76,70395,1,0,0:0:0:0:
235,77,70548,1,4,0:3:0:0:
366,76,70854,1,8,0:0:0:0:
234,77,71160,6,0,L|93:78,1,120,4|8,0:0|0:0,0:0:0:0:
244,94,71772,2,8,L|331:94,2,60,0|0|0,0:0|0:0|0:0,0:0:0:0:
112,94,72384,1,8,0:0:0:0:
46,85,72537,2,0,L|189:73,1,120,12|0,0:0|0:0,0:0:0:0:
231,66,72997,1,8,0:0:0:0:
361,45,73303,1,8,0:0:0:0:
229,60,73609,6,0,L|81:48,1,120,4|8,0:0|0:0,0:0:0:0:
44,41,74068,1,0,0:0:0:0:
173,66,74374,2,8,L|242:57,1,60,0|8,0:0|0:0,0:0:0:0:
360,88,74833,2,0,L|485:107,1,120,4|8,0:0|0:0,0:0:0:0:
346,100,75446,2,8,L|204:115,1,120,0|0,0:0|0:0,0:0:0:0:
96,92,76058,6,0,L|87:219,1,120,4|8,0:0|0:0,0:0:0:0:
152,221,76517,1,2,0:0:0:0:
217,227,76670,1,8,0:0:0:0:
348,237,76976,1,8,0:0:0:0:
217,227,77282,2,0,L|95:235,1,120,4|0,0:0|0:0,0:0:0:0:
225,200,77895,2,0,L|371:211,1,120,8|0,0:0|0:0,0:0:0:0:
218,171,78507,6,0,L|32:184,1,180,4|0,0:0|0:0,0:0:0:0:
99,159,79119,1,4,0:3:0:0:
230,160,79425,1,8,0:0:0:0:
361,164,79731,2,0,L|494:164,1,120,4|8,0:0|0:0,0:0:0:0:
416,149,80191,1,0,0:0:0:0:
350,148,80344,1,4,0:3:0:0:
218,148,80650,1,8,0:0:0:0:
86,147,80956,6,0,L|220:147,1,120,4|8,0:0|0:0,0:0:0:0:
337,153,81568,2,8,L|408:153,2,60,0|0|0,0:0|0:0|0:0,0:0:0:0:
139,142,82333,2,0,L|56:142,2,60,2|2|2,0:0|0:0|0:0,0:0:0:0:
205,143,82793,2,0,L|338:142,1,120,8|0,0:0|0:0,0:0:0:0:
456,126,83405,6,0,L|251:103,1,180,4|0,0:1|0:0,0:0:0:0:
212,94,84017,1,2,0:0:0:0:
342,72,84323,1,0,0:0:0:0:
211,93,84629,2,0,L|84:83,1,120,8|0,0:0|0:0,0:0:0:0:
222,100,85242,2,0,P|274:130|230:222,1,180,8|0,0:0|0:0,0:0:0:0:
166,221,85854,6,0,L|33:222,1,120,4|0,0:0|0:0,0:0:0:0:
177,232,86466,2,0,L|253:232,2,60,2|2|2,0:0|0:0|0:0,0:0:0:0:
46,251,87078,2,0,L|180:250,1,120,4|0,0:0|0:0,0:0:0:0:
288,301,87691,2,0,L|413:301,1,120,8|8,0:0|0:0,0:0:0:0:
276,288,88303,6,0,P|231:215|256:171,1,120,4|0,0:0|0:0,0:0:0:0:
364,147,88915,1,2,0:0:0:0:
492,175,89221,2,2,L|407:163,1,60,0|0,0:0|0:0,0:0:0:0:
372,140,89527,2,0,L|241:150,1,120,4|0,0:0|0:0,0:0:0:0:
144,72,90140,2,0,L|268:78,1,120,8|0,0:0|0:0,0:0:0:0:
329,83,90599,1,0,0:0:0:0:
263,90,90752,5,4,0:0:0:0:
133,114,91058,1,0,0:0:0:0:
264,111,91364,1,0,0:0:0:0:
268,170,91517,1,2,0:0:0:0:
273,230,91670,1,2,0:0:0:0:
144,203,91976,6,0,L|65:197,1,60,4|2,0:0|0:0,0:0:0:0:
148,212,92282,2,0,L|232:218,1,60,4|2,0:0|0:0,0:0:0:0:
273,220,92588,2,2,L|406:234,1,120,0|8,0:0|0:0,0:0:0:0:
264,199,93201,6,0,L|121:211,1,120,4|8,0:0|0:0,0:0:0:0:
22,157,93813,2,0,L|155:167,1,120,0|8,0:0|0:0,0:0:0:0:
273,170,94425,2,0,L|283:318,1,120,0|8,0:0|0:0,0:0:0:0:
150,311,95037,2,0,L|132:173,1,120,0|8,0:0|0:0,0:0:0:0:
266,195,95650,6,0,L|406:179,1,120,4|8,0:0|0:0,0:0:0:0:
241,170,96262,2,0,L|162:163,2,60,0|0|8,0:0|0:0|0:0,0:0:0:0:
384,176,96874,2,0,L|386:40,1,120,4|8,0:0|0:0,0:0:0:0:
313,51,97333,1,0,0:0:0:0:
241,46,97486,1,0,0:0:0:0:
97,32,97793,1,8,0:0:0:0:
241,46,98099,6,0,L|253:176,1,120,4|8,0:0|0:0,0:0:0:0:
109,186,98711,2,0,L|97:316,1,120,0|8,0:0|0:0,0:0:0:0:
167,324,99170,1,0,0:0:0:0:
237,336,99323,1,4,0:0:0:0:
375,296,99629,1,8,0:0:0:0:
237,336,99935,2,0,L|106:316,1,120,0|8,0:0|0:0,0:0:0:0:
262,319,100548,6,0,L|271:177,1,120,4|8,0:0|0:0,0:0:0:0:
125,191,101160,2,0,L|111:52,1,120,0|8,0:0|0:0,0:0:0:0:
256,80,101772,6,0,L|330:65,1,60,8|0,0:0|0:0,0:0:0:0:
452,110,102231,2,0,L|366:98,1,60,0|8,0:0|0:0,0:0:0:0:
322,119,102537,2,0,L|238:108,1,60
125,156,102997,5,2,0:0:0:0:
