osu file format v14

[General]
AudioFilename: audio.mp3
AudioLeadIn: 0
PreviewTime: 20349
Countdown: 0
SampleSet: Soft
StackLeniency: 0.4
Mode: 0
LetterboxInBreaks: 0
WidescreenStoryboard: 0

[Editor]
DistanceSpacing: 1.7
BeatDivisor: 4
GridSize: 4
TimelineZoom: 3.099999

[Metadata]
Title:Superpower
TitleUnicode:Superpower
Artist:Thaehan
ArtistUnicode:Thaehan
Creator:Nozhomi
Version:Power Up
Source:osu!
Tags:featured artist OMGWTF ! Loki mappers' guild
BeatmapID:1636304
BeatmapSetID:779173

[Difficulty]
HPDrainRate:6
CircleSize:4.6
OverallDifficulty:8.8
ApproachRate:9.3
SliderMultiplier:1.8
SliderTickRate:1

[Events]
//Background and Video events
0,0,"newbgfairuse.jpg",0,0
//Break Periods
//Storyboard Layer 0 (Background)
//Storyboard Layer 1 (Fail)
//Storyboard Layer 2 (Pass)
//Storyboard Layer 3 (Foreground)
//Storyboard Sound Samples

[TimingPoints]
125,337.078651685393,4,2,1,80,1,0
125,-125,4,2,1,80,0,0
10911,-100,4,2,1,80,0,0
21698,-100,4,2,1,90,0,0
22877,-66.6666666666667,4,2,1,90,0,0
24394,-100,4,2,1,90,0,0
25911,-66.6666666666667,4,2,1,90,0,0
27091,-100,4,2,1,90,0,0
28271,-66.6666666666667,4,2,1,90,0,0
29787,-100,4,2,1,90,0,0
31473,-57.1428571428571,4,2,1,90,0,0
32484,-80,4,2,1,90,0,0
33664,-57.1428571428571,4,2,1,90,0,0
35181,-80,4,2,1,90,0,0
36698,-57.1428571428571,4,2,1,90,0,0
37877,-80,4,2,1,90,0,0
39057,-57.1428571428571,4,2,1,90,0,0
40574,-80,4,2,1,90,0,0
42259,-57.1428571428571,4,2,1,90,0,0
42933,-100,4,2,1,90,0,0
43271,-100,4,2,1,90,0,1
54057,-100,4,2,1,80,0,0
64169,-100,4,2,1,40,0,0
64338,-100,4,2,1,50,0,0
64507,-100,4,2,1,60,0,0
64675,-100,4,2,1,70,0,0
64844,-83.3333333333333,4,2,1,80,0,0
74956,-83.3333333333333,4,2,1,40,0,0
75124,-83.3333333333333,4,2,1,50,0,0
75293,-83.3333333333333,4,2,1,60,0,0
75462,-83.3333333333333,4,2,1,70,0,0
75630,-125,4,2,1,80,0,0
87428,-66.6666666666667,4,2,1,80,0,0
87765,-125,4,2,1,80,0,0
88102,-100,4,2,1,80,0,0
89113,-125,4,2,1,80,0,0
90124,-66.6666666666667,4,2,1,80,0,0
90462,-125,4,2,1,80,0,0
90967,-100,4,2,1,80,0,0
91810,-125,4,2,1,80,0,0
92821,-66.6666666666667,4,2,1,80,0,0
93158,-125,4,2,1,80,0,0
93495,-100,4,2,1,80,0,0
94507,-125,4,2,1,80,0,0
95518,-66.6666666666667,4,2,1,80,0,0
96150,-125,4,2,1,80,0,0
107990,-100,4,2,1,90,0,0
119956,-66.6666666666667,4,2,1,90,0,0
121473,-100,4,2,1,90,0,0
122821,-66.6666666666667,4,2,1,90,0,0
124169,-100,4,2,1,90,0,0
125349,-66.6666666666667,4,2,1,90,0,0
126866,-100,4,2,1,90,0,0
128551,-57.1428571428571,4,2,1,90,0,0
129563,-80,4,2,1,90,0,0
130742,-57.1428571428571,4,2,1,90,0,0
132259,-80,4,2,1,90,0,0
133608,-57.1428571428571,4,2,1,90,0,0
134956,-80,4,2,1,90,0,0
136136,-57.1428571428571,4,2,1,90,0,0
137821,-80,4,2,1,90,0,0
139338,-57.1428571428571,4,2,1,80,0,0
140686,-57.1428571428571,4,2,1,60,0,0
141023,-57.1428571428571,4,2,1,50,0,0
141360,-57.1428571428571,4,2,1,40,0,0
141698,-57.1428571428571,4,2,1,30,0,0
142119,-80,4,2,1,5,0,0

[Colours]
Combo1 : 241,20,181
Combo2 : 232,119,17
Combo3 : 143,41,226
Combo4 : 54,186,209

[HitObjects]
96,340,125,5,0,3:2:0:0:
96,340,293,1,0,3:2:0:0:
164,212,462,2,0,P|156:164|128:124,1,72,2|0,0:0|0:0,0:0:0:0:
237,260,799,2,0,P|245:212|273:172,1,72,2|0,0:0|0:0,0:0:0:0:
176,356,1136,2,0,P|168:308|140:268,1,72,2|0,0:0|0:0,0:0:0:0:
24,224,1473,5,0,3:2:0:0:
24,224,1641,1,0,3:2:0:0:
237,260,1810,2,0,L|317:252,1,72,2|0,0:0|0:0,0:0:0:0:
484,216,2147,2,0,L|404:208,1,72,2|0,0:0|0:0,0:0:0:0:
240,160,2484,2,0,L|320:152,1,72,2|0,0:0|0:0,0:0:0:0:
512,72,2821,6,0,P|455:30|384:35,1,144,4|2,3:2|0:0,0:0:0:0:
292,80,3327,1,0,0:0:0:0:
332,172,3495,2,0,L|328:244,1,72,2|0,0:0|0:0,0:0:0:0:
264,384,3832,2,0,L|260:312,1,72,2|0,0:0|0:0,0:0:0:0:
140,184,4169,5,2,3:2:0:0:
140,184,4338,1,2,3:2:0:0:
296,88,4507,1,2,0:0:0:0:
308,84,4591,1,2,0:0:0:0:
320,80,4675,1,2,0:0:0:0:
276,272,4844,5,2,3:2:0:0:
276,272,5012,1,2,3:2:0:0:
436,184,5181,1,2,0:0:0:0:
456,176,5265,1,2,0:0:0:0:
476,168,5349,2,0,L|504:172,2,18,0|0|0,3:0|3:0|3:0,0:0:0:0:
412,104,5518,5,2,3:2:0:0:
412,104,5686,1,2,3:2:0:0:
268,56,5855,2,0,P|232:54|198:67,1,72,2|0,0:0|0:0,0:0:0:0:
130,218,6192,2,0,P|149:187|154:152,1,72,2|0,0:0|0:0,0:0:0:0:
59,17,6529,2,0,P|75:48|103:71,1,72,2|0,0:0|0:0,0:0:0:0:
272,59,6866,5,2,3:2:0:0:
272,59,7035,1,2,3:2:0:0:
248,200,7203,2,0,P|228:169|223:134,1,72,2|0,0:0|0:0,0:0:0:0:
249,285,7540,2,0,P|214:277|185:256,1,72,2|0,0:0|0:0,0:0:0:0:
309,345,7877,2,0,P|278:364|243:369,1,72,2|0,0:0|0:0,0:0:0:0:
376,264,8214,6,0,B|384:376|384:376|404:344,1,144,4|2,3:2|0:0,0:0:0:0:
460,268,8720,1,0,0:0:0:0:
308,304,8889,2,0,L|314:375,1,72,2|0,0:0|0:0,0:0:0:0:
376,264,9226,2,0,L|369:192,1,72,2|0,0:0|0:0,0:0:0:0:
220,100,9563,5,2,3:2:0:0:
220,100,9731,1,2,3:2:0:0:
380,40,9900,1,2,0:0:0:0:
380,40,9984,1,2,0:0:0:0:
380,40,10068,1,2,0:0:0:0:
256,192,10237,5,2,3:2:0:0:
256,192,10405,1,2,3:2:0:0:
432,140,10574,2,0,L|464:136,6,18,0|0|0|0|0|0|0,3:0|3:0|3:0|3:0|3:0|3:0|3:0,3:0:0:0:
312,100,10911,5,2,3:2:0:0:
312,100,11080,1,2,3:2:0:0:
184,228,11248,2,0,L|188:328,1,90,0|0,3:0|0:0,0:0:0:0:
116,152,11585,2,0,L|112:62,1,90,0|0,3:0|0:0,0:0:0:0:
184,228,11922,2,0,L|188:328,1,90,0|2,3:0|0:0,0:0:0:0:
116,65,12259,5,2,3:2:0:0:
116,65,12428,1,2,3:2:0:0:
344,148,12596,2,0,P|396:148|448:124,1,90,0|0,3:0|0:0,0:0:0:0:
260,196,12933,2,0,P|208:196|156:172,1,90,0|0,3:0|0:0,0:0:0:0:
344,248,13271,2,0,P|396:248|448:224,1,90,0|2,3:0|0:0,0:0:0:0:
323,53,13608,6,0,P|256:109|259:195,1,180,4|0,3:2|3:0,0:0:0:0:
316,308,14113,1,2,0:0:0:0:
192,284,14282,2,0,L|64:296,1,90,0|2,3:0|0:0,0:0:0:0:
316,308,14619,2,0,L|444:320,1,90,0|0,3:0|0:0,0:0:0:0:
236,376,14956,5,2,3:2:0:0:
236,376,15124,1,2,3:2:0:0:
328,180,15293,1,2,3:2:0:0:
324,168,15377,1,2,0:0:0:0:
320,156,15462,1,2,0:0:0:0:
196,288,15630,5,2,3:2:0:0:
196,288,15799,1,2,3:2:0:0:
328,140,15967,1,2,0:0:0:0:
320,116,16051,1,2,0:0:0:0:
312,92,16136,2,0,L|316:56,2,22.5,0|0|0,3:0|3:0|3:0,3:0:0:0:
220,164,16304,5,2,3:2:0:0:
220,164,16473,1,2,3:2:0:0:
32,44,16641,2,0,B|11:87|11:87|61:92,1,90,0|2,3:0|0:0,0:0:0:0:
231,70,16978,2,0,B|203:30|203:30|174:70,1,90,0|2,3:0|0:0,0:0:0:0:
108,232,17316,2,0,B|155:227|155:227|135:182,1,90,0|2,3:0|0:0,0:0:0:0:
36,48,17653,5,2,3:2:0:0:
36,48,17821,1,2,3:2:0:0:
220,164,17990,2,0,L|316:156,1,90,0|2,3:0|0:0,0:0:0:0:
508,140,18327,2,0,L|418:147,1,90,0|2,3:0|0:0,0:0:0:0:
220,164,18664,2,0,L|316:156,1,90,0|2,3:0|0:0,0:0:0:0:
454,328,19001,6,0,P|384:377|306:340,1,180,4|0,3:2|3:0,0:0:0:0:
371,224,19507,1,2,0:0:0:0:
292,128,19675,2,0,P|276:80|300:28,1,90,0|2,3:0|0:0,0:0:0:0:
371,224,20012,2,0,P|387:260|371:314,1,90,0|2,3:0|0:0,0:0:0:0:
176,268,20349,5,2,3:2:0:0:
176,268,20518,1,2,3:2:0:0:
292,128,20686,1,2,0:0:0:0:
308,132,20771,1,2,0:0:0:0:
324,136,20855,1,2,0:0:0:0:
144,88,21023,5,2,0:0:0:0:
144,88,21192,1,2,0:0:0:0:
312,224,21360,1,2,0:0:0:0:
336,232,21445,1,2,0:0:0:0:
360,240,21529,1,2,0:0:0:0:
112,296,21698,5,4,3:1:0:0:
200,132,21866,2,0,L|196:24,1,90,0|0,0:0|1:0,0:0:0:0:
72,92,22203,1,0,0:0:0:0:
240,203,22372,2,0,L|243:292,1,90,0|0,3:0|0:0,0:0:0:0:
404,208,22709,1,0,1:0:0:0:
135,226,22877,6,0,P|179:276|247:292,1,135.000005149842,2|0,0:0|3:0,0:0:0:0:
184,49,23214,2,0,P|134:92|117:161,1,135.000005149842,2|0,0:0|1:0,0:0:0:0:
380,168,23551,2,0,P|364:233|313:277,1,135.000005149842,2|0,0:0|3:0,0:0:0:0:
255,32,23889,2,0,P|319:49|363:100,1,135.000005149842,2|0,0:0|1:0,0:0:0:0:
177,266,24226,2,0,P|129:221|116:156,1,135.000005149842,2|0,0:0|3:0,0:0:0:0:
243,320,24563,5,2,0:0:0:0:
300,188,24731,1,0,1:0:0:0:
177,266,24900,1,0,0:0:0:0:
320,280,25068,2,0,L|409:274,1,90,0|0,3:0|0:0,0:0:0:0:
206,161,25405,2,0,L|116:155,1,90,0|0,1:0|0:0,0:0:0:0:
148,312,25742,5,0,3:0:0:0:
328,148,25911,2,0,P|344:88|300:4,1,135.000005149842,2|0,0:0|1:0,0:0:0:0:
184,236,26248,2,0,P|168:296|212:380,1,135.000005149842,2|0,0:0|3:0,0:0:0:0:
328,148,26585,2,0,P|344:88|300:4,1,135.000005149842,2|0,0:0|1:0,0:0:0:0:
184,236,26922,1,2,0:0:0:0:
384,292,27091,5,4,3:2:0:0:
248,168,27259,2,0,L|132:172,1,90,0|0,0:0|1:0,0:0:0:0:
204,300,27596,1,0,0:0:0:0:
168,104,27765,2,0,L|78:100,1,90,0|0,3:0|0:0,0:0:0:0:
116,232,28102,1,0,1:0:0:0:
292,64,28271,6,0,L|452:72,1,135.000005149842,2|0,0:0|3:0,0:0:0:0:
243,190,28608,2,0,L|292:64,1,135.000005149842,2|0,0:0|1:0,0:0:0:0:
349,274,28945,2,0,L|244:190,1,135.000005149842,2|0,0:0|3:0,0:0:0:0:
462,201,29282,2,0,L|349:275,1,135.000005149842,2|0,0:0|1:0,0:0:0:0:
426,70,29619,2,0,L|462:201,1,135.000005149842,2|0,0:0|3:0,0:0:0:0:
244,190,29956,5,2,0:0:0:0:
427,71,30124,1,0,1:0:0:0:
349,275,30293,1,0,0:0:0:0:
304,64,30462,2,0,P|260:48|208:56,1,90,0|0,3:0|0:0,0:0:0:0:
74,281,30799,2,0,P|55:195|100:120,1,180,0|0,1:0|3:0,0:0:0:0:
218,52,31304,1,2,0:0:0:0:
223,203,31473,6,0,P|135:201|208:252,1,236.250002253056,0|0,1:0|0:0,0:0:0:0:
281,247,31810,5,2,0:0:0:0:
172,100,31978,1,2,0:0:0:0:
262,328,32147,1,0,3:0:0:0:
262,328,32231,1,0,3:0:0:0:
262,328,32316,1,0,3:0:0:0:
262,328,32400,1,0,3:0:0:0:
262,328,32484,5,4,3:1:0:0:
328,96,32653,2,0,P|376:80|440:99,1,112.5,0|0,0:0|1:0,0:0:0:0:
384,260,32990,1,0,0:0:0:0:
256,128,33158,2,0,L|268:16,1,112.5,0|0,3:0|0:0,0:0:0:0:
128,56,33495,1,0,1:0:0:0:
308,196,33664,6,0,L|472:176,1,157.500001502037,2|0,0:0|3:0,0:0:0:0:
152,177,34001,2,0,L|308:196,1,157.500001502037,2|0,0:0|1:0,0:0:0:0:
312,68,34338,2,0,L|148:48,1,157.500001502037,2|0,0:0|3:0,0:0:0:0:
468,49,34675,2,0,L|311:68,1,157.500001502037,2|0,0:0|1:0,0:0:0:0:
152,177,35012,2,0,L|309:196,1,157.500001502037,2|0,0:0|3:0,0:0:0:0:
468,49,35349,5,2,0:0:0:0:
408,208,35518,1,0,1:0:0:0:
312,68,35686,1,0,0:0:0:0:
152,177,35855,2,0,L|12:168,1,112.5,0|0,3:0|0:0,0:0:0:0:
208,240,36192,2,0,L|348:231,1,112.5,0|0,1:0|0:0,0:0:0:0:
256,76,36529,1,0,3:0:0:0:
194,320,36698,6,0,B|274:330|274:330|347:309,1,157.500001502037,2|0,0:0|1:0,0:0:0:0:
179,60,37035,2,0,B|129:124|129:124|111:198,1,157.500001502037,2|0,0:0|3:0,0:0:0:0:
410,177,37372,2,0,B|378:101|378:101|324:48,1,157.500001502037,2|0,0:0|1:0,0:0:0:0:
194,320,37709,1,2,0:0:0:0:
256,84,37877,5,4,3:2:0:0:
400,256,38046,2,0,P|460:240|487:193,1,112.5,0|0,0:0|1:0,0:0:0:0:
308,240,38383,1,0,0:0:0:0:
456,341,38551,2,0,P|444:287|400:256,1,112.5,0|0,3:0|0:0,0:0:0:0:
256,344,38889,1,0,1:0:0:0:
256,34,39057,6,0,L|256:192,1,157.500001502037,2|0,0:0|3:0,0:0:0:0:
79,240,39394,2,0,P|105:166|161:112,1,157.500001502037,2|0,0:0|1:0,0:0:0:0:
350,112,39731,2,0,P|406:166|432:240,1,157.500001502037,2|0,0:0|3:0,0:0:0:0:
192,328,40068,2,0,L|16:304,1,157.500001502037,2|0,0:0|1:0,0:0:0:0:
320,328,40405,2,0,L|496:304,1,157.500001502037,2|0,0:0|3:0,0:0:0:0:
256,112,40742,5,2,0:0:0:0:
320,328,40911,1,0,1:0:0:0:
192,328,41080,1,0,0:0:0:0:
340,228,41248,2,0,P|393:211|449:216,1,112.5,0|0,3:0|0:0,0:0:0:0:
191,328,41585,2,0,P|116:311|106:224,1,168.75,0|0,1:0|0:0,0:0:0:0:
160,148,41922,5,0,3:0:0:0:
160,148,42091,1,0,3:0:0:0:
340,228,42259,6,0,B|356:196|356:196|335:174|335:174|376:94|299:41|257:135|304:133,1,236.250002253056,2|0,0:0|0:0,0:0:0:0:
428,160,42596,5,2,0:0:0:0:
428,160,42765,1,2,0:0:0:0:
235,11,42933,1,0,3:0:0:0:
218,38,43018,1,0,3:0:0:0:
212,68,43102,2,0,L|218:117,1,45,0|0,3:0|3:0,0:0:0:0:
229,196,43271,5,4,3:1:0:0:
230,242,43355,1,0,0:0:0:0:
204,279,43439,1,2,0:0:0:0:
162,292,43523,1,0,0:0:0:0:
118,280,43608,1,0,3:0:0:0:
92,244,43692,1,0,0:0:0:0:
90,199,43776,1,2,0:0:0:0:
116,162,43860,1,0,0:0:0:0:
160,148,43945,1,0,3:0:0:0:
202,159,44029,1,0,0:0:0:0:
229,196,44113,1,2,0:0:0:0:
270,214,44198,1,0,0:0:0:0:
313,224,44282,1,0,3:0:0:0:
355,210,44366,1,0,0:0:0:0:
383,174,44450,1,2,0:0:0:0:
375,129,44535,1,0,0:0:0:0:
320,52,44619,5,0,3:0:0:0:
292,47,44703,1,0,0:0:0:0:
264,42,44787,1,2,0:0:0:0:
237,37,44872,1,0,0:0:0:0:
201,64,44956,1,0,3:0:0:0:
174,68,45040,1,0,0:0:0:0:
146,73,45124,1,2,0:0:0:0:
119,78,45209,1,0,0:0:0:0:
78,60,45293,5,0,3:0:0:0:
73,88,45377,1,0,0:0:0:0:
68,116,45462,1,2,0:0:0:0:
63,143,45546,1,0,0:0:0:0:
90,179,45630,1,0,3:0:0:0:
94,206,45714,1,0,0:0:0:0:
99,234,45799,1,2,0:0:0:0:
104,261,45883,1,0,0:0:0:0:
151,321,45967,6,0,L|144:377,3,45,0|0|2|0,3:0|0:0|0:0|0:0,0:0:0:0:
226,308,46304,2,0,L|219:364,3,45,0|0|2|0,3:0|0:0|0:0|0:0,0:0:0:0:
240,218,46641,2,0,L|245:173,3,45,0|0|2|0,3:0|0:0|0:0|0:0,0:0:0:0:
315,205,46978,2,0,L|320:160,3,45,0|0|2|0,3:0|0:0|0:0|0:0,0:0:0:0:
349,39,47316,5,0,3:0:0:0:
392,27,47400,1,0,0:0:0:0:
434,42,47484,1,2,0:0:0:0:
456,80,47568,1,0,0:0:0:0:
450,125,47653,1,0,3:0:0:0:
421,159,47737,1,0,0:0:0:0:
404,200,47821,1,2,0:0:0:0:
415,243,47905,1,0,0:0:0:0:
495,206,47990,5,0,3:0:0:0:
464,173,48074,1,0,0:0:0:0:
421,159,48158,1,2,0:0:0:0:
377,169,48242,1,0,0:0:0:0:
343,199,48327,1,0,3:0:0:0:
307,226,48411,1,0,0:0:0:0:
262,230,48495,1,2,0:0:0:0:
224,204,48580,1,0,0:0:0:0:
161,104,48664,5,4,3:2:0:0:
202,121,48748,1,0,0:0:0:0:
228,158,48832,1,2,0:0:0:0:
224,204,48917,1,0,0:0:0:0:
206,245,49001,1,0,3:0:0:0:
189,287,49085,1,0,0:0:0:0:
206,329,49169,1,2,0:0:0:0:
248,346,49254,1,0,0:0:0:0:
290,329,49338,1,0,3:0:0:0:
307,287,49422,1,0,0:0:0:0:
290,245,49507,1,2,0:0:0:0:
248,228,49591,1,0,0:0:0:0:
206,245,49675,1,0,3:0:0:0:
163,260,49759,1,0,0:0:0:0:
117,256,49844,1,2,0:0:0:0:
82,227,49928,1,0,0:0:0:0:
44,140,50012,5,0,3:0:0:0:
48,112,50096,1,0,0:0:0:0:
52,84,50181,1,2,0:0:0:0:
56,56,50265,1,0,0:0:0:0:
60,24,50349,5,0,3:0:0:0:
64,52,50433,1,0,0:0:0:0:
68,80,50518,1,2,0:0:0:0:
72,108,50602,1,0,0:0:0:0:
140,192,50686,5,0,3:0:0:0:
175,150,50771,1,0,0:0:0:0:
228,146,50855,1,2,0:0:0:0:
274,173,50939,1,0,0:0:0:0:
308,214,51023,1,0,3:0:0:0:
361,224,51108,1,0,0:0:0:0:
410,201,51192,1,2,0:0:0:0:
445,160,51276,1,0,0:0:0:0:
433,72,51360,6,0,P|438:49|452:30,3,45,0|0|2|0,3:0|0:0|0:0|0:0,0:0:0:0:
364,123,51698,2,0,P|352:103|348:79,3,45,0|0|2|0,3:0|0:0|0:0|0:0,0:0:0:0:
437,266,52035,2,0,P|448:285|452:307,3,45,0|0|2|0,3:0|0:0|0:0|0:0,0:0:0:0:
367,317,52372,2,0,P|361:338|348:357,3,45,0|0|2|0,3:0|0:0|0:0|0:0,0:0:0:0:
280,292,52709,5,0,3:0:0:0:
240,312,52793,1,0,0:0:0:0:
195,307,52877,1,0,1:0:0:0:
158,280,52962,1,0,1:0:0:0:
135,241,53046,2,0,L|136:157,1,45,0|0,1:0|0:0,0:0:0:0:
184,20,53214,2,0,L|183:64,1,45,0|0,3:0|0:0,0:0:0:0:
135,241,53383,1,0,3:0:0:0:
68,84,53551,6,0,P|48:72|26:67,2,45,2|0|2,0:0|0:0|0:0,0:0:0:0:
135,196,53889,1,2,0:0:0:0:
284,108,54057,6,0,L|392:100,1,90,4|0,3:2|0:0,0:0:0:0:
484,180,54394,1,0,1:0:0:0:
408,312,54563,1,2,0:0:0:0:
404,288,54647,1,0,0:0:0:0:
400,264,54731,1,0,3:0:0:0:
373,101,54900,1,0,0:0:0:0:
296,240,55068,2,0,P|286:282|328:344,1,90,0|2,1:0|0:0,0:0:0:0:
354,179,55405,5,0,3:0:0:0:
208,228,55574,1,2,0:0:0:0:
208,228,55658,1,0,0:0:0:0:
208,228,55742,1,0,1:0:0:0:
272,80,55911,1,0,0:0:0:0:
132,188,56080,2,0,L|36:180,1,90,0|0,3:0|0:0,0:0:0:0:
76,320,56417,1,0,1:0:0:0:
132,188,56585,1,2,0:0:0:0:
256,296,56754,6,0,P|208:324|192:376,1,90,0|0,3:0|0:0,0:0:0:0:
336,308,57091,1,0,1:0:0:0:
332,280,57175,1,0,0:0:0:0:
328,252,57259,1,2,0:0:0:0:
324,224,57344,1,0,0:0:0:0:
320,196,57428,1,0,3:0:0:0:
464,240,57596,1,0,0:0:0:0:
248,220,57765,2,0,L|260:130,1,90,0|2,1:0|0:0,0:0:0:0:
152,20,58102,6,0,L|165:109,1,90,0|0,3:0|0:0,0:0:0:0:
96,224,58439,1,0,1:0:0:0:
44,104,58608,1,2,0:0:0:0:
64,92,58692,1,0,0:0:0:0:
88,92,58776,1,0,3:0:0:0:
172,200,58945,1,0,0:0:0:0:
280,88,59113,2,0,P|296:36|272:-12,1,90,0|2,1:0|0:0,0:0:0:0:
344,164,59450,6,0,L|468:156,1,90,4|0,3:2|0:0,0:0:0:0:
388,296,59787,1,0,1:0:0:0:
272,164,59956,1,2,0:0:0:0:
244,168,60040,1,0,0:0:0:0:
216,172,60124,1,0,3:0:0:0:
356,60,60293,1,0,0:0:0:0:
308,228,60462,2,0,P|300:276|332:332,1,90,0|2,1:0|0:0,0:0:0:0:
344,164,60799,5,0,3:0:0:0:
196,260,60967,1,2,0:0:0:0:
196,260,61051,1,0,0:0:0:0:
196,260,61136,1,0,1:0:0:0:
172,104,61304,1,0,0:0:0:0:
344,164,61473,2,0,L|456:160,1,90,0|0,3:0|0:0,0:0:0:0:
384,16,61810,1,0,1:0:0:0:
344,164,61978,1,2,0:0:0:0:
508,88,62147,6,0,L|396:84,1,90,0|0,3:0|0:0,0:0:0:0:
300,216,62484,1,0,1:0:0:0:
260,88,62653,1,2,0:0:0:0:
384,180,62821,2,0,P|392:223|377:265,1,90,0|0,3:0|0:0,0:0:0:0:
256,368,63158,1,0,1:0:0:0:
135,265,63327,1,2,0:0:0:0:
256,164,63495,5,0,3:0:0:0:
88,328,63664,1,0,3:0:0:0:
88,328,63748,1,0,3:0:0:0:
87,328,63832,2,0,P|108:264|90:200,1,135,2|0,0:0|0:0,0:0:0:0:
23,120,64169,1,0,3:0:0:0:
46,133,64254,1,0,3:0:0:0:
77,133,64338,1,0,3:0:0:0:
109,117,64422,1,0,3:0:0:0:
134,84,64507,1,0,3:0:0:0:
168,112,64591,1,0,3:0:0:0:
217,108,64675,1,0,3:0:0:0:
249,65,64759,1,0,3:0:0:0:
220,19,64844,6,0,P|192:62|217:108,1,107.999996704102,4|0,3:2|0:0,0:0:0:0:
348,184,65181,1,0,1:0:0:0:
180,288,65349,1,2,0:0:0:0:
182,312,65433,1,0,0:0:0:0:
185,336,65518,1,0,3:0:0:0:
272,216,65686,1,0,0:0:0:0:
98,231,65855,2,0,P|128:275|180:288,1,107.999996704102,0|2,1:0|0:0,0:0:0:0:
246,105,66192,5,0,3:0:0:0:
105,239,66360,1,2,0:0:0:0:
105,239,66445,1,0,0:0:0:0:
105,239,66529,1,0,1:0:0:0:
256,296,66698,1,0,0:0:0:0:
148,132,66866,2,0,L|152:20,1,107.999996704102,0|0,3:0|0:0,0:0:0:0:
324,88,67203,1,0,1:0:0:0:
148,132,67372,1,2,0:0:0:0:
332,200,67540,6,0,P|384:188|424:116,1,107.999996704102,0|0,3:0|0:0,0:0:0:0:
228,116,67877,1,0,1:0:0:0:
220,90,67962,1,0,0:0:0:0:
223,62,68046,1,2,0:0:0:0:
233,38,68130,1,0,0:0:0:0:
252,18,68214,1,0,3:0:0:0:
256,192,68383,1,0,0:0:0:0:
68,104,68551,2,0,P|128:112|168:156,1,107.999996704102,0|2,1:0|0:0,0:0:0:0:
184,356,68889,6,0,L|188:244,1,107.999996704102,0|0,3:0|0:0,0:0:0:0:
223,62,69226,1,0,1:0:0:0:
100,184,69394,1,2,0:0:0:0:
100,184,69478,1,0,0:0:0:0:
100,184,69563,1,0,3:0:0:0:
56,40,69731,1,0,0:0:0:0:
188,148,69900,2,0,L|312:140,1,107.999996704102,0|2,1:0|0:0,0:0:0:0:
484,28,70237,6,0,P|432:64|424:144,1,107.999996704102,4|0,3:2|0:0,0:0:0:0:
456,252,70574,1,0,1:0:0:0:
296,141,70742,1,2,0:0:0:0:
316,136,70827,1,0,0:0:0:0:
336,132,70911,1,0,3:0:0:0:
328,288,71080,1,0,0:0:0:0:
260,84,71248,2,0,L|152:80,1,107.999996704102,0|2,1:0|0:0,0:0:0:0:
208,244,71585,5,0,3:0:0:0:
336,56,71754,1,2,0:0:0:0:
336,56,71838,1,0,0:0:0:0:
336,56,71922,1,0,1:0:0:0:
472,164,72091,1,0,0:0:0:0:
275,167,72259,2,0,P|229:195|208:244,1,107.999996704102,0|0,3:0|0:0,0:0:0:0:
376,288,72596,1,0,1:0:0:0:
220,364,72765,1,2,0:0:0:0:
356,200,72933,6,0,L|352:92,1,107.999996704102,0|0,3:0|0:0,0:0:0:0:
164,156,73271,1,0,1:0:0:0:
356,200,73439,1,2,0:0:0:0:
168,264,73608,2,0,L|164:156,1,107.999996704102,0|0,3:0|0:0,0:0:0:0:
356,200,73945,1,0,1:0:0:0:
168,264,74113,1,2,0:0:0:0:
236,80,74282,5,0,3:0:0:0:
312,276,74450,1,0,3:0:0:0:
312,276,74535,1,0,3:0:0:0:
312,276,74619,2,0,P|416:263|443:206,1,161.999995056153,2|0,0:0|0:0,0:0:0:0:
432,112,74956,1,0,3:0:0:0:
401,100,75040,1,0,3:0:0:0:
402,62,75124,1,0,3:0:0:0:
440,43,75209,1,0,3:0:0:0:
473,78,75293,1,0,3:0:0:0:
440,120,75377,1,0,3:0:0:0:
415,168,75462,1,0,3:0:0:0:
440,220,75546,1,0,3:0:0:0:
497,235,75630,5,4,3:2:0:0:
292,76,75967,1,2,3:2:0:0:
260,72,76051,1,0,3:0:0:0:
228,68,76136,1,0,3:0:0:0:
292,248,76304,1,2,1:2:0:0:
392,72,76473,1,0,3:0:0:0:
360,68,76557,1,0,3:0:0:0:
328,64,76641,1,2,3:2:0:0:
328,64,76978,5,2,3:2:0:0:
492,176,77316,6,0,P|452:188|428:232,1,72,2|0,0:0|0:0,0:0:0:0:
288,220,77653,2,0,P|323:222|353:242,1,72,2|0,1:2|0:0,0:0:0:0:
276,356,77990,1,2,0:0:0:0:
288,220,78158,1,0,0:0:0:0:
412,352,78327,5,4,3:2:0:0:
196,272,78664,1,2,3:2:0:0:
200,240,78748,1,0,3:0:0:0:
204,208,78832,1,0,3:0:0:0:
276,356,79001,1,2,1:2:0:0:
132,232,79169,1,0,3:0:0:0:
128,200,79254,1,0,3:0:0:0:
124,168,79338,1,2,3:2:0:0:
124,168,79675,5,2,3:2:0:0:
296,300,80012,5,2,0:0:0:0:
148,344,80181,2,0,L|52:336,1,72,0|2,0:0|1:2,0:0:0:0:
128,200,80518,1,0,0:0:0:0:
148,344,80686,1,2,0:0:0:0:
272,192,80855,1,0,3:0:0:0:
64,256,81023,5,4,3:2:0:0:
296,300,81360,1,2,3:2:0:0:
320,296,81445,1,0,3:0:0:0:
344,292,81529,1,0,3:0:0:0:
208,244,81698,1,2,1:2:0:0:
320,364,81866,1,0,3:0:0:0:
344,360,81950,1,0,3:0:0:0:
368,356,82035,1,2,3:2:0:0:
368,356,82372,5,2,3:2:0:0:
476,120,82709,6,0,P|471:155|456:188,1,72,2|0,0:0|0:0,0:0:0:0:
304,224,83046,2,0,P|348:232|400:212,1,72,2|0,1:2|0:0,0:0:0:0:
352,64,83383,1,2,0:0:0:0:
457,188,83551,1,0,0:0:0:0:
252,120,83720,5,4,3:2:0:0:
368,352,84057,1,2,3:2:0:0:
356,332,84141,1,0,3:0:0:0:
352,308,84226,1,0,3:0:0:0:
484,288,84394,1,2,1:2:0:0:
299,253,84563,1,0,3:0:0:0:
285,273,84647,1,0,3:0:0:0:
280,296,84731,1,2,3:2:0:0:
280,296,85068,5,0,3:0:0:0:
68,208,85377,6,0,P|45:213|17:241,2,48,2|0|0,0:0|0:0|0:0,0:0:0:0:
76,284,85714,2,0,P|64:303|64:343,2,48,2|0|0,0:0|0:0|0:0,0:0:0:0:
141,331,86080,6,0,P|145:348|157:363,1,24,2|0,0:0|0:0,0:0:0:0:
204,284,86192,2,0,P|187:279|168:281,1,24,2|0,0:0|0:0,0:0:0:0:
213,362,86304,2,0,P|225:349|232:332,1,24,2|0,0:0|0:0,0:0:0:0:
304,220,86417,6,0,P|304:268|372:288,1,108,4|0,3:2|0:0,0:0:0:0:
436,224,86754,1,2,3:2:0:0:
432,192,86838,1,0,3:0:0:0:
428,160,86922,1,0,3:0:0:0:
304,220,87091,1,2,1:2:0:0:
168,64,87259,5,0,3:0:0:0:
192,88,87344,1,0,3:0:0:0:
224,104,87428,2,0,B|248:128|292:137|292:137|264:140|231:161|210:199|225:257,1,202.500007724762,2|0,3:2|0:0,0:0:0:0:
254,318,87765,6,0,P|254:261|200:219,1,108,2|0,3:2|0:0,0:0:0:0:
64,200,88102,2,0,P|104:190|149:219,1,90,2|0,0:0|0:0,0:0:0:0:
292,136,88439,2,0,P|258:150|224:199,1,90,2|0,1:2|0:0,0:0:0:0:
224,356,88776,1,2,0:0:0:0:
145,213,88945,1,2,0:0:0:0:
296,288,89113,6,0,B|346:308|356:260|416:296,1,108,4|0,3:2|0:0,0:0:0:0:
496,376,89450,1,2,3:2:0:0:
476,344,89535,1,0,3:0:0:0:
472,304,89619,1,0,3:0:0:0:
512,148,89787,1,2,1:2:0:0:
320,220,89956,5,0,3:0:0:0:
320,220,90040,1,0,3:0:0:0:
320,220,90124,2,2,B|236:228|236:228|184:212|184:212|96:220,1,202.500007724762,2|2,3:2|0:2,0:2:0:0:
201,322,90462,6,0,P|237:274|229:210,1,108,2|0,3:2|0:0,0:0:0:0:
192,128,90799,5,2,0:0:0:0:
40,244,90967,2,0,P|49:287|79:320,1,90,0|2,0:0|1:2,0:0:0:0:
260,160,91304,1,0,0:0:0:0:
28,144,91473,1,2,0:0:0:0:
201,322,91641,1,0,3:0:0:0:
144,124,91810,6,0,B|128:72|128:72|148:16,1,108,4|0,3:2|0:0,0:0:0:0:
240,80,92147,1,2,3:2:0:0:
240,80,92231,1,0,3:0:0:0:
240,80,92316,1,0,3:0:0:0:
92,176,92484,1,2,1:2:0:0:
300,216,92653,5,0,3:0:0:0:
300,216,92737,1,0,3:0:0:0:
300,216,92821,2,0,P|289:298|252:216,1,202.500007724762,2|0,3:2|0:0,0:0:0:0:
158,234,93158,6,0,P|159:288|190:338,1,108,2|0,3:2|0:0,0:0:0:0:
198,169,93495,6,0,P|160:156|96:184,1,90,2|0,0:0|0:0,0:0:0:0:
300,216,93832,2,0,P|338:229|402:201,1,90,2|0,1:2|0:0,0:0:0:0:
344,64,94169,1,2,0:0:0:0:
300,216,94338,1,2,0:0:0:0:
512,168,94507,6,0,P|471:132|419:122,1,108,4|0,3:2|0:0,0:0:0:0:
300,216,94844,1,2,3:2:0:0:
304,248,94928,1,0,3:0:0:0:
308,280,95012,1,0,3:0:0:0:
128,244,95181,1,2,1:2:0:0:
240,120,95349,5,0,3:0:0:0:
240,120,95433,1,0,3:0:0:0:
240,120,95518,2,0,P|215:190|168:116,1,202.500007724762,2|0,3:2|0:0,0:0:0:0:
204,24,95855,5,0,3:2:0:0:
400,112,96164,5,2,0:0:0:0:
428,176,96276,1,0,0:0:0:0:
400,244,96389,1,0,0:0:0:0:
352,296,96501,1,2,0:0:0:0:
384,360,96613,1,0,0:0:0:0:
456,348,96726,1,0,0:0:0:0:
476,280,96866,6,0,L|480:256,1,24,2|0,0:0|0:0,0:0:0:0:
400,244,96978,2,0,L|396:220,1,24,2|0,0:0|0:0,0:0:0:0:
468,180,97091,2,0,L|472:156,1,24,2|0,0:0|0:0,0:0:0:0:
400,112,97203,5,0,3:2:0:0:
400,112,97372,1,0,3:2:0:0:
264,232,97540,2,0,P|232:252|172:256,1,72,2|0,0:0|0:0,0:0:0:0:
112,124,97877,2,0,P|100:158|102:193,1,72,2|0,0:0|0:0,0:0:0:0:
280,120,98214,2,0,P|256:93|224:76,1,72,2|0,0:0|0:0,0:0:0:0:
202,262,98551,5,0,3:2:0:0:
202,262,98720,1,0,3:2:0:0:
352,136,98889,2,0,P|348:92|316:56,1,72,2|0,0:0|0:0,0:0:0:0:
436,184,99226,2,0,P|440:140|472:104,1,72,2|0,0:0|0:0,0:0:0:0:
376,280,99563,2,0,P|372:236|340:200,1,72,2|0,0:0|0:0,0:0:0:0:
200,356,99900,6,0,B|252:372|252:372|360:348,1,144,4|2,3:2|0:0,0:0:0:0:
444,272,100405,1,0,0:0:0:0:
304,172,100574,2,0,P|289:215|297:243,1,72,2|0,0:0|0:0,0:0:0:0:
292,100,100911,2,0,P|251:120|236:146,1,72,2|0,0:0|0:0,0:0:0:0:
376,120,101248,5,2,3:2:0:0:
376,120,101417,1,2,3:2:0:0:
208,52,101585,1,2,0:0:0:0:
184,48,101669,1,2,0:0:0:0:
160,44,101754,1,2,0:0:0:0:
220,216,101922,5,2,3:2:0:0:
220,216,102091,1,2,3:2:0:0:
376,120,102259,1,2,0:0:0:0:
400,116,102344,1,2,0:0:0:0:
424,112,102428,2,0,L|452:116,2,18,0|0|0,3:0|3:0|3:0,3:0:0:0:
368,24,102596,5,2,3:2:0:0:
368,24,102765,1,2,3:2:0:0:
312,160,102933,2,0,P|308:196|324:232,1,72,2|0,0:0|0:0,0:0:0:0:
448,324,103271,2,0,P|418:302|379:298,1,72,2|0,0:0|0:0,0:0:0:0:
239,358,103608,2,0,P|272:343|295:311,1,72,2|0,0:0|0:0,0:0:0:0:
316,163,103945,5,2,3:2:0:0:
316,163,104113,1,2,3:2:0:0:
176,224,104282,2,0,L|88:216,1,72,2|0,0:0|0:0,0:0:0:0:
231,346,104619,2,0,L|239:258,1,72,2|0,0:0|0:0,0:0:0:0:
88,376,104956,2,0,L|176:384,1,72,2|0,0:0|0:0,0:0:0:0:
248,208,105293,6,0,P|258:137|200:108,1,144,4|2,3:2|0:0,0:0:0:0:
112,168,105799,1,0,0:0:0:0:
237,274,105967,2,0,L|333:266,1,72,2|0,0:0|0:0,0:0:0:0:
484,224,106304,2,0,L|388:216,1,72,2|0,0:0|0:0,0:0:0:0:
312,72,106641,5,2,3:2:0:0:
312,72,106810,1,2,3:2:0:0:
232,211,106978,1,2,0:0:0:0:
234,242,107063,1,2,0:0:0:0:
237,274,107147,1,2,0:0:0:0:
312,72,107316,5,2,3:2:0:0:
312,72,107484,1,2,3:2:0:0:
156,192,107653,2,0,L|124:196,6,18,0|0|0|0|0|0|0,3:0|3:0|3:0|3:0|3:0|3:0|3:0,3:0:0:0:
296,180,107990,5,2,3:2:0:0:
296,180,108158,1,2,3:2:0:0:
128,44,108327,2,0,P|88:89|99:151,1,90,0|2,3:0|0:0,0:0:0:0:
120,336,108664,2,0,P|148:292|152:232,1,90,0|2,3:0|0:0,0:0:0:0:
0,176,109001,2,0,P|35:210|108:216,1,90,0|2,3:0|0:0,0:0:0:0:
236,140,109338,5,2,3:2:0:0:
236,140,109507,1,2,3:2:0:0:
316,344,109675,2,0,P|333:298|376:276,1,90,0|2,3:0|0:0,0:0:0:0:
512,168,110012,2,0,P|494:214|452:236,1,90,0|2,3:0|0:0,0:0:0:0:
352,64,110349,2,0,P|397:44|442:58,1,90,0|2,3:0|0:0,0:0:0:0:
272,208,110686,2,0,B|188:232|188:232|99:208,1,180,4|0,3:2|3:0,0:0:0:0:
188,80,111192,5,2,0:0:0:0:
236,292,111360,2,0,P|244:328|236:382,1,90,0|2,3:0|0:0,0:0:0:0:
98,207,111698,2,0,P|90:171|98:117,1,90,0|2,3:0|0:0,0:0:0:0:
128,304,112035,5,2,3:2:0:0:
128,304,112203,1,2,3:2:0:0:
300,188,112372,1,2,3:2:0:0:
328,180,112456,1,2,0:0:0:0:
356,172,112540,1,2,0:0:0:0:
248,332,112709,5,2,3:2:0:0:
248,332,112877,1,2,3:2:0:0:
98,207,113046,1,2,0:0:0:0:
60,200,113130,1,2,0:0:0:0:
22,195,113214,2,0,L|0:197,2,22.5,0|0|0,3:0|3:0|3:0,3:0:0:0:
68,92,113383,5,2,3:2:0:0:
68,92,113551,1,2,3:2:0:0:
248,160,113720,2,0,P|220:120|176:96,1,90,0|2,3:0|0:0,0:0:0:0:
348,255,114057,2,0,P|383:228|426:218,1,90,0|2,3:0|0:0,0:0:0:0:
216,300,114394,2,0,P|168:276|112:276,1,90,0|2,3:0|0:0,0:0:0:0:
324,384,114731,5,2,3:2:0:0:
324,384,114900,1,2,3:2:0:0:
332,168,115068,2,0,L|336:64,1,90,0|2,3:0|0:0,0:0:0:0:
172,172,115405,2,0,P|216:156|260:116,1,90,0|2,3:0|0:0,0:0:0:0:
492,184,115742,2,0,P|448:168|403:128,1,90,0|2,3:0|0:0,0:0:0:0:
177,59,116080,6,0,P|261:33|336:79,1,180,4|0,3:2|3:0,0:0:0:0:
260,220,116585,1,2,0:0:0:0:
104,100,116754,2,0,P|108:57|108:0,1,90,0|2,3:0|0:0,0:0:0:0:
56,196,117091,2,0,P|56:240|60:285,1,90,0|2,3:0|0:0,0:0:0:0:
12,115,117428,5,2,3:2:0:0:
12,115,117596,1,2,3:2:0:0:
204,200,117765,1,2,0:0:0:0:
236,196,117849,1,2,0:0:0:0:
268,192,117933,1,2,0:0:0:0:
108,103,118102,5,2,0:0:0:0:
108,103,118271,1,2,0:0:0:0:
260,268,118439,1,2,0:0:0:0:
306,262,118523,1,2,0:0:0:0:
353,256,118607,1,2,0:0:0:0:
264,28,118776,5,4,3:1:0:0:
160,224,118945,2,0,P|148:272|163:313,1,90,0|0,0:0|1:0,0:0:0:0:
192,132,119282,1,0,0:0:0:0:
80,312,119450,2,0,P|100:352|164:380,1,90,0|0,3:0|0:0,0:0:0:0:
306,262,119787,1,0,1:0:0:0:
56,176,119956,6,0,P|32:108|64:40,1,135.000005149842,2|0,0:0|3:0,0:0:0:0:
240,160,120293,2,0,P|193:214|118:221,1,135.000005149842,2|0,0:0|1:0,0:0:0:0:
144,8,120630,2,0,P|214:21|257:82,1,135.000005149842,2|0,0:0|3:0,0:0:0:0:
242,284,120967,2,0,P|218:222|240:160,1,135.000005149842,2|0,0:0|1:0,0:0:0:0:
432,60,121304,2,0,P|390:112|325:125,1,135.000005149842,2|0,0:0|3:0,0:0:0:0:
144,8,121641,5,2,0:0:0:0:
240,159,121810,1,0,1:0:0:0:
68,104,121978,1,0,0:0:0:0:
280,48,122147,2,0,P|312:36|372:48,1,90,0|0,3:0|0:0,0:0:0:0:
176,176,122484,2,0,L|84:172,1,90,0|0,1:0|0:0,0:0:0:0:
124,372,122821,5,0,3:0:0:0:
289,174,122990,2,0,P|304:109|280:48,1,135.000005149842,2|0,0:0|1:0,0:0:0:0:
296,264,123327,2,0,P|352:229|378:168,1,135.000005149842,2|0,0:0|3:0,0:0:0:0:
236,332,123664,2,0,P|300:347|362:322,1,135.000005149842,2|0,0:0|1:0,0:0:0:0:
184,228,124001,1,2,0:0:0:0:
28,368,124169,5,4,3:2:0:0:
113,211,124338,2,0,L|109:119,1,90,0|0,0:0|1:0,0:0:0:0:
37,275,124675,1,0,0:0:0:0:
175,182,124844,2,0,L|107:119,1,90,0|0,3:0|0:0,0:0:0:0:
133,307,125181,1,0,1:0:0:0:
244,116,125349,6,0,L|99:121,1,135.000005149842,2|0,0:0|3:0,0:0:0:0:
361,28,125686,2,0,L|216:33,1,135.000005149842,2|0,0:0|1:0,0:0:0:0:
489,104,126023,2,0,L|354:109,1,135.000005149842,2|0,0:0|3:0,0:0:0:0:
109,121,126360,2,0,L|243:115,1,135.000005149842,2|0,0:0|1:0,0:0:0:0:
0,44,126698,2,0,L|134:38,1,135.000005149842,2|0,0:0|3:0,0:0:0:0:
248,188,127035,5,2,0:0:0:0:
361,28,127203,1,0,1:0:0:0:
200,24,127372,1,0,0:0:0:0:
332,148,127540,2,0,P|344:192|316:252,1,90,0|0,3:0|0:0,0:0:0:0:
136,360,127877,2,0,P|183:285|268:264,1,180,0|0,1:0|3:0,0:0:0:0:
408,352,128383,1,2,0:0:0:0:
403,179,128551,6,0,B|400:96|436:72|476:88|468:132|424:140|364:123|313:102,1,236.250002253056,0|0,1:0|0:0,0:0:0:0:
272,20,128889,5,2,0:0:0:0:
304,188,129057,1,2,0:0:0:0:
344,24,129226,1,0,3:0:0:0:
330,69,129310,1,0,3:0:0:0:
288,92,129394,1,0,3:0:0:0:
240,90,129478,1,0,3:0:0:0:
212,70,129563,5,4,3:1:0:0:
340,252,129731,2,0,P|356:300|337:364,1,112.5,0|0,0:0|1:0,0:0:0:0:
172,296,130068,1,0,0:0:0:0:
316,176,130237,2,0,P|366:179|415:231,1,112.5,0|0,3:0|0:0,0:0:0:0:
272,360,130574,1,0,1:0:0:0:
412,62,130742,6,0,L|410:220,1,157.500001502037,2|0,0:0|3:0,0:0:0:0:
104,220,131080,2,0,L|102:62,1,157.500001502037,2|0,0:0|1:0,0:0:0:0:
411,141,131417,2,0,L|409:299,1,157.500001502037,2|0,0:0|3:0,0:0:0:0:
105,299,131754,2,0,L|103:141,1,157.500001502037,2|0,0:0|1:0,0:0:0:0:
411,141,132091,2,0,L|409:299,1,157.500001502037,2|0,0:0|3:0,0:0:0:0:
220,216,132428,5,2,0:0:0:0:
411,141,132596,1,0,1:0:0:0:
324,336,132765,1,0,0:0:0:0:
288,124,132933,2,0,P|232:112|148:115,1,112.5,0|0,3:0|0:0,0:0:0:0:
48,256,133271,2,0,P|93:228|108:137,1,112.5,0|0,1:0|0:0,0:0:0:0:
16,16,133608,1,0,3:0:0:0:
184,184,133776,6,0,P|200:264|192:372,1,157.500001502037,2|0,0:0|1:0,0:0:0:0:
288,124,134113,2,0,P|355:164|429:189,1,157.500001502037,2|0,0:0|3:0,0:0:0:0:
184,184,134450,2,0,P|200:264|192:372,1,157.500001502037,2|0,0:0|1:0,0:0:0:0:
288,124,134787,1,2,0:0:0:0:
128,248,134956,5,4,3:2:0:0:
377,281,135124,2,0,P|417:243|429:188,1,112.5,0|0,0:0|1:0,0:0:0:0:
296,32,135462,1,0,0:0:0:0:
83,143,135630,2,0,P|128:175|184:184,1,112.5,0|0,3:0|0:0,0:0:0:0:
396,56,135967,1,0,1:0:0:0:
148,352,136136,6,0,P|138:274|174:206,1,157.500001502037,2|0,0:0|3:0,0:0:0:0:
472,244,136473,2,0,P|409:290|332:293,1,157.500001502037,2|0,0:0|1:0,0:0:0:0:
236,8,136810,2,0,P|307:38|348:104,1,157.500001502037,2|0,0:0|3:0,0:0:0:0:
38,235,137147,2,0,P|28:157|64:89,1,157.500001502037,2|0,0:0|1:0,0:0:0:0:
332,293,137484,2,0,P|269:339|192:342,1,157.500001502037,2|0,0:0|3:0,0:0:0:0:
240,24,137821,5,2,0:0:0:0:
416,192,137990,1,0,1:0:0:0:
174,206,138158,1,0,0:0:0:0:
376,48,138327,2,0,P|358:102|311:139,1,112.5,0|0,3:0|0:0,0:0:0:0:
65,130,138664,2,0,P|145:131|173:206,1,168.75,0|0,1:0|0:0,0:0:0:0:
120,308,139001,5,0,3:0:0:0:
120,308,139169,1,0,3:0:0:0:
220,104,139338,6,0,B|254:167|241:220|241:220|268:157|316:137,1,236.250002253056,2|0,0:0|0:0,0:0:0:0:
436,112,139675,5,2,0:0:0:0:
436,112,139844,1,2,0:0:0:0:
241,220,140012,5,0,3:0:0:0:
244,256,140096,1,0,3:0:0:0:
248,292,140181,1,0,3:0:0:0:
252,328,140265,1,0,3:0:0:0:
256,364,140349,5,4,3:1:0:0:
256,192,140433,12,0,142203,0:0:0:0:
