osu file format v14

[General]
AudioFilename: audio.mp3
AudioLeadIn: 0
PreviewTime: 20349
Countdown: 0
SampleSet: Soft
StackLeniency: 0.7
Mode: 0
LetterboxInBreaks: 0
WidescreenStoryboard: 0

[Editor]
Bookmarks: 85939,96726,97203
DistanceSpacing: 1.3
BeatDivisor: 4
GridSize: 4
TimelineZoom: 1.7

[Metadata]
Title:Superpower
TitleUnicode:Superpower
Artist:Thaehan
ArtistUnicode:Thaehan
Creator:Nozhomi
Version:Normal
Source:osu!
Tags:featured artist OMGWTF ! Loki mappers' guild
BeatmapID:1845434
BeatmapSetID:779173

[Difficulty]
HPDrainRate:3
CircleSize:3
OverallDifficulty:4
ApproachRate:5
SliderMultiplier:1.2
SliderTickRate:1

[Events]
//Background and Video events
0,0,"newbgfairuse.jpg",0,0
//Break Periods
//Storyboard Layer 0 (Background)
//Storyboard Layer 1 (Fail)
//Storyboard Layer 2 (Pass)
//Storyboard Layer 3 (Foreground)
//Storyboard Sound Samples

[TimingPoints]
125,337.078651685393,4,2,1,80,1,0
21698,-100,4,2,1,90,0,0
43271,-100,4,2,1,90,0,1
54057,-100,4,2,1,80,0,0
107990,-100,4,2,1,90,0,0
139338,-100,4,2,1,80,0,0
140686,-100,4,2,1,60,0,0
141023,-100,4,2,1,50,0,0
141360,-100,4,2,1,40,0,0
141698,-100,4,2,1,30,0,0
142119,-100,4,2,1,5,0,0

[Colours]
Combo1 : 241,20,181
Combo2 : 232,119,17
Combo3 : 143,41,226
Combo4 : 54,186,209

[HitObjects]
339,78,125,6,0,P|315:106|269:120,1,60,0|0,3:2|3:2,0:0:0:0:
217,104,462,2,0,P|188:72|94:50,2,120,2|2|2,0:0|0:0|0:0,0:0:0:0:
172,253,1473,2,0,P|196:225|242:211,1,60,0|0,3:2|3:2,0:0:0:0:
294,227,1810,2,0,P|323:259|417:281,2,120,2|2|2,0:0|0:0|0:0,0:0:0:0:
301,72,2821,6,0,P|373:153|294:227,1,240,4|2,3:2|0:0,0:0:0:0:
156,153,3832,1,2,0:0:0:0:
225,292,4169,2,0,L|221:377,1,60,2|2,3:2|3:2,0:0:0:0:
298,132,4844,2,0,L|302:47,1,60,2|2,3:2|3:2,0:0:0:0:
225,292,5518,6,0,L|222:351,1,60,2|2,3:2|3:2,0:0:0:0:
142,351,5855,2,0,L|9:342,2,120,2|2|2,0:0|0:0|0:0,0:0:0:0:
301,357,6866,2,0,L|304:298,1,60,2|2,3:2|3:2,0:0:0:0:
382,298,7203,2,0,L|514:307,2,120,2|2|2,0:0|0:0|0:0,0:0:0:0:
256,205,8214,6,0,P|243:113|314:193,1,240,4|2,3:2|0:0,0:0:0:0:
246,296,9226,1,2,0:0:0:0:
138,183,9563,2,0,L|139:121,1,60,2|2,3:2|3:2,0:0:0:0:
373,123,10237,2,0,L|373:182,1,60,2|2,3:2|3:2,0:0:0:0:
177,310,10911,6,0,L|178:248,1,60,2|2,3:2|3:2,0:0:0:0:
138,183,11248,2,0,P|132:134|207:82,1,120,0|0,3:0|3:0,0:0:0:0:
334,85,11922,2,0,P|377:124|374:183,1,120,0|2,3:0|3:2,0:0:0:0:
333,251,12428,1,2,3:2:0:0:
333,251,12596,2,0,L|212:256,2,120,0|0|0,3:0|3:0|3:0,0:0:0:0:
488,245,13608,6,0,P|443:281|438:339,1,120,4|0,3:2|3:0,0:0:0:0:
393,190,14282,2,0,P|347:153|342:95,1,120,0|0,3:0|3:0,0:0:0:0:
496,75,14956,1,2,3:2:0:0:
496,75,15124,1,2,3:2:0:0:
379,277,15630,1,2,3:2:0:0:
379,277,15799,1,2,3:2:0:0:
251,80,16304,6,0,L|184:84,1,60,2|2,3:2|3:2,0:0:0:0:
112,87,16641,2,0,P|150:108|170:200,1,120,0|0,3:0|3:0,0:0:0:0:
309,257,17316,2,0,P|287:295|196:315,1,120,0|2,3:0|3:2,0:0:0:0:
141,316,17821,1,2,3:2:0:0:
141,316,17990,2,0,P|84:300|51:252,2,120,0|0|0,3:0|3:0|3:0,0:0:0:0:
183,166,19001,6,0,L|183:40,1,120,4|0,3:2|3:0,0:0:0:0:
309,137,19675,2,0,L|309:257,1,120,0|0,3:0|3:0,0:0:0:0:
183,166,20349,1,2,3:2:0:0:
183,166,20517,1,2,3:2:0:0:
374,301,21023,2,0,L|374:361,1,60,2|2,0:0|0:0,0:0:0:0:
183,226,21698,6,0,L|183:166,1,60,4|0,3:1|0:0,0:0:0:0:
185,87,22035,2,0,L|325:87,1,120,0|0,1:0|3:0,0:0:0:0:
441,11,22709,1,0,1:0:0:0:
439,166,23046,1,0,3:0:0:0:
439,166,23214,2,0,P|456:242|495:276,1,120,2|2,0:0|0:0,0:0:0:0:
337,215,23889,2,0,P|262:191|213:208,1,120,2|2,0:0|0:0,0:0:0:0:
78,257,24563,5,2,0:0:0:0:
78,257,24731,2,0,P|135:204|145:153,1,120,0|0,1:0|3:0,0:0:0:0:
93,18,25405,1,0,1:0:0:0:
246,48,25742,1,0,3:0:0:0:
246,48,25911,2,0,L|381:43,1,120,2|2,0:0|0:0,0:0:0:0:
265,161,26585,2,0,L|145:165,1,120,2|2,0:0|0:0,0:0:0:0:
73,199,27091,6,0,P|68:228|77:257,1,60,4|0,3:2|0:0,0:0:0:0:
137,307,27428,2,0,P|194:310|260:277,1,120,0|0,1:0|3:0,0:0:0:0:
303,138,28102,1,0,1:0:0:0:
411,249,28439,1,0,3:0:0:0:
411,249,28608,2,0,L|409:368,1,120,2|2,0:0|0:0,0:0:0:0:
301,257,29282,2,0,L|303:138,1,120,2|2,0:0|0:0,0:0:0:0:
164,79,29956,5,2,0:0:0:0:
164,79,30124,2,0,P|147:135|163:192,1,120,0|0,1:0|3:0,0:0:0:0:
256,317,30798,1,0,1:0:0:0:
348,192,31136,2,0,P|364:135|348:79,1,120,0|0,3:0|1:0,0:0:0:0:
286,31,31641,1,0,0:0:0:0:
286,31,31810,2,0,L|220:28,1,60,2|2,0:0|0:0,0:0:0:0:
54,187,32484,6,0,L|113:189,1,60,4|0,3:1|0:0,0:0:0:0:
162,251,32821,2,0,L|302:257,1,120,0|0,1:0|3:0,0:0:0:0:
398,359,33495,1,0,1:0:0:0:
474,223,33832,1,0,3:0:0:0:
474,223,34000,2,0,P|483:165|460:111,1,120,2|2,0:0|0:0,0:0:0:0:
307,141,34675,2,0,P|312:199|349:246,1,120,2|2,0:0|0:0,0:0:0:0:
474,339,35349,5,2,0:0:0:0:
474,339,35517,2,0,L|340:336,1,120,0|0,1:0|3:0,0:0:0:0:
256,214,36191,1,0,1:0:0:0:
158,336,36528,1,0,3:0:0:0:
158,336,36697,2,0,P|86:306|76:238,1,120,2|2,0:0|0:0,0:0:0:0:
72,113,37372,2,0,P|101:62|158:48,1,120,2|2,0:0|0:0,0:0:0:0:
217,100,37877,6,0,L|217:189,1,60,4|0,3:2|0:0,0:0:0:0:
255,230,38214,2,0,P|308:253|362:230,1,120,0|0,1:0|3:0,0:0:0:0:
470,118,38888,1,0,1:0:0:0:
332,58,39225,1,0,3:0:0:0:
332,58,39394,2,0,P|301:118|318:188,1,120,2|2,0:0|0:0,0:0:0:0:
240,308,40068,2,0,P|244:249|215:197,1,120,2|2,0:0|0:0,0:0:0:0:
82,116,40742,5,2,0:0:0:0:
82,116,40910,2,0,L|214:111,1,120,0|0,1:0|3:0,0:0:0:0:
336,190,41584,1,0,1:0:0:0:
407,50,41922,5,0,3:0:0:0:
407,50,42091,1,0,3:0:0:0:
237,211,42596,1,2,0:0:0:0:
237,211,42765,1,2,0:0:0:0:
67,49,43271,6,0,L|73:178,1,120,4|0,3:1|3:0,0:0:0:0:
164,292,43945,2,0,P|193:300|222:293,1,60,0|2,3:0|0:0,0:0:0:0:
287,249,44282,2,0,P|316:242|344:249,1,60,0|2,3:0|0:0,0:0:0:0:
406,301,44619,6,0,P|382:235|408:178,1,120,0|0,3:0|3:0,0:0:0:0:
502,75,45293,2,0,L|418:78,1,60,0|2,3:0|0:0,0:0:0:0:
373,38,45630,2,0,L|313:40,1,60,0|2,3:0|0:0,0:0:0:0:
248,85,45967,5,0,3:0:0:0:
102,30,46304,1,0,3:0:0:0:
42,174,46641,2,0,P|62:210|107:237,1,60,0|2,3:0|0:0,0:0:0:0:
148,255,46978,2,0,P|188:266|238:253,1,60,0|2,3:0|0:0,0:0:0:0:
284,255,47316,2,0,L|284:333,2,60,0|2|0,3:0|0:0|3:0,0:0:0:0:
343,110,47990,2,0,P|372:108|415:126,1,60,0|2,3:0|0:0,0:0:0:0:
467,159,48327,2,0,P|490:178|504:205,1,60,0|2,3:0|0:0,0:0:0:0:
485,281,48664,6,0,L|331:274,1,120,4|0,3:2|3:0,0:0:0:0:
234,189,49338,2,0,L|174:186,1,60,0|2,3:0|0:0,0:0:0:0:
109,230,49675,2,0,L|46:227,1,60,0|2,3:0|0:0,0:0:0:0:
3,290,50012,2,0,P|16:335|99:356,1,120,0|0,3:0|3:0,0:0:0:0:
234,328,50686,2,0,L|234:266,1,60,0|2,3:0|0:0,0:0:0:0:
234,189,51023,2,0,L|234:127,1,60,0|2,3:0|0:0,0:0:0:0:
179,73,51360,6,0,B|147:73|147:73|124:56,2,60,0|2|0,3:0|0:0|3:0,0:0:0:0:
333,73,52035,2,0,B|365:73|365:73|387:56,2,60,0|2|0,3:0|0:0|3:0,0:0:0:0:
234,189,52709,2,0,P|248:215|272:232,1,60,0|0,3:0|1:0,0:0:0:0:
239,304,53046,2,0,P|267:312|297:307,1,60,0|0,1:0|3:0,0:0:0:0:
371,279,53383,1,0,3:0:0:0:
150,58,54057,5,4,3:2:0:0:
32,160,54394,2,0,L|33:239,1,60,0|2,1:0|0:0,0:0:0:0:
54,295,54731,2,0,P|99:332|158:330,1,120,0|0,3:0|1:0,0:0:0:0:
256,208,55405,1,0,3:0:0:0:
354,330,55742,1,0,1:0:0:0:
409,183,56080,1,0,3:0:0:0:
256,208,56417,2,0,L|256:148,1,60,0|2,1:0|0:0,0:0:0:0:
293,79,56754,6,0,P|361:74|408:124,1,120,0|0,3:0|1:0,0:0:0:0:
414,187,57259,1,2,0:0:0:0:
414,187,57428,2,0,L|414:320,1,120,0|0,3:0|1:0,0:0:0:0:
268,362,58102,1,0,3:0:0:0:
139,275,58438,1,0,1:0:0:0:
139,275,58608,2,0,P|169:246|205:242,1,60,2|0,0:0|3:0,0:0:0:0:
329,302,59113,1,0,1:0:0:0:
311,147,59450,5,4,3:2:0:0:
190,246,59787,1,0,1:0:0:0:
190,246,59956,2,0,L|42:243,1,120,2|0,0:0|0:0,0:0:0:0:
7,194,60462,1,0,1:0:0:0:
143,117,60798,1,0,3:0:0:0:
6,38,61136,1,0,1:0:0:0:
7,194,61473,1,0,3:0:0:0:
143,117,61810,2,0,L|231:116,1,60,0|2,1:0|0:0,0:0:0:0:
277,90,62147,6,0,P|332:111|389:99,1,120,0|0,3:0|1:0,0:0:0:0:
459,58,62652,1,2,0:0:0:0:
459,58,62821,2,0,P|427:107|429:167,1,120,0|0,3:0|1:0,0:0:0:0:
459,325,63495,1,0,3:0:0:0:
459,325,63664,2,0,L|399:323,1,60,0|2,3:0|0:0,0:0:0:0:
245,300,64169,2,0,P|258:326|262:356,1,60,0|0,3:0|3:0,0:0:0:0:
185,377,64507,2,0,P|171:350|167:320,1,60,0|0,3:0|3:0,0:0:0:0:
188,245,64844,5,4,3:2:0:0:
283,121,65181,2,0,L|283:60,1,60,0|2,1:0|0:0,0:0:0:0:
216,17,65518,2,0,P|158:14|114:53,1,120,0|0,3:0|1:0,0:0:0:0:
183,192,66192,1,0,3:0:0:0:
113,331,66529,1,0,1:0:0:0:
27,199,66867,1,0,3:0:0:0:
183,192,67204,2,0,L|265:197,1,60,0|2,1:0|0:0,0:0:0:0:
312,235,67541,6,0,P|297:178|327:128,1,120,0|0,3:0|1:0,0:0:0:0:
410,140,68046,1,2,0:0:0:0:
410,140,68214,2,0,P|424:196|394:246,1,120,0|0,3:0|1:0,0:0:0:0:
250,309,68889,1,0,3:0:0:0:
170,175,69225,1,0,1:0:0:0:
170,175,69395,2,0,L|174:93,1,60,2|0,0:0|3:0,0:0:0:0:
46,24,69900,1,0,1:0:0:0:
31,179,70237,5,4,3:2:0:0:
177,119,70574,1,0,1:0:0:0:
177,119,70743,2,0,L|345:111,1,120,2|0,0:0|0:0,0:0:0:0:
351,168,71249,1,0,1:0:0:0:
421,29,71585,1,0,3:0:0:0:
507,158,71922,1,0,1:0:0:0:
351,168,72260,1,0,3:0:0:0:
441,294,72597,2,0,L|519:289,1,60,0|2,1:0|0:0,0:0:0:0:
511,369,72934,6,0,L|392:377,1,120,0|0,3:0|1:0,0:0:0:0:
328,331,73439,1,2,0:0:0:0:
328,331,73608,2,0,L|209:339,1,120,0|0,3:0|1:0,0:0:0:0:
59,292,74282,1,0,3:0:0:0:
59,291,74451,6,0,P|85:278|104:255,1,60,0|2,3:0|0:0,0:0:0:0:
124,100,74956,2,0,P|122:129|133:157,1,60,0|0,3:0|3:0,0:0:0:0:
201,118,75293,2,0,P|220:140|248:151,1,60,0|0,3:0|3:0,0:0:0:0:
269,76,75630,5,4,3:2:0:0:
361,203,75967,2,0,L|364:355,1,120,2|2,3:2|1:2,0:0:0:0:
443,324,76472,2,0,L|442:264,1,60,0|2,3:0|3:2,0:0:0:0:
439,107,76978,1,2,3:2:0:0:
288,152,77316,2,0,P|259:152|231:142,1,60,2|0,0:0|0:0,0:0:0:0:
184,79,77653,2,0,L|184:19,2,60,2|0|2,1:2|0:0|0:0,0:0:0:0:
184,234,78327,5,4,3:2:0:0:
43,166,78664,2,0,P|23:222|34:283,1,120,2|2,3:2|1:2,0:0:0:0:
78,344,79169,2,0,L|151:343,1,60,0|2,3:0|3:2,0:0:0:0:
211,203,79675,1,2,3:2:0:0:
310,325,80012,2,0,P|339:325|367:314,1,60,2|0,0:0|0:0,0:0:0:0:
433,270,80349,2,0,P|454:249|466:221,1,60,2|0,1:2|0:0,0:0:0:0:
447,146,80686,1,2,0:0:0:0:
333,38,81023,5,4,3:2:0:0:
235,159,81360,2,0,L|240:293,1,120,2|2,3:2|1:2,0:0:0:0:
186,337,81866,2,0,P|156:341|127:334,1,60,0|2,3:0|3:2,0:0:0:0:
30,211,82371,1,2,3:2:0:0:
176,156,82709,2,0,P|206:151|235:159,1,60,2|0,0:0|0:0,0:0:0:0:
291,215,83046,2,0,L|291:283,2,60,2|0|2,1:2|0:0|0:0,0:0:0:0:
382,87,83720,5,4,3:2:0:0:
237,29,84057,2,0,L|105:33,1,120,2|2,3:2|1:2,0:0:0:0:
43,59,84562,2,0,P|64:79|79:105,1,60,0|2,3:0|3:2,0:0:0:0:
33,255,85068,1,0,3:0:0:0:
172,218,85377,2,0,P|266:166|359:174,1,200,2|0,0:0|0:0,0:0:0:0:
388,229,86080,2,0,P|369:272|339:299,1,80,2|2,0:0|0:0,0:0:0:0:
297,312,86417,5,4,3:2:0:0:
172,218,86754,2,0,B|156:157|156:157|171:102,1,120,2|2,3:2|1:2,0:0:0:0:
248,75,87259,1,0,3:0:0:0:
248,75,87428,2,0,B|276:81|276:81|340:74,1,60,2|0,3:2|0:0,0:0:0:0:
384,60,87765,1,2,3:2:0:0:
406,218,88103,2,0,L|409:277,1,60,2|0,0:0|0:0,0:0:0:0:
450,345,88439,2,0,L|508:361,2,60,2|0|2,1:2|0:0|0:0,0:0:0:0:
299,300,89113,5,4,3:2:0:0:
148,345,89450,2,0,B|96:315|96:315|78:243,1,120,2|2,3:2|1:2,0:0:0:0:
104,181,89956,1,0,3:0:0:0:
104,181,90124,2,0,B|110:151|110:151|105:121,1,60,2|0,3:2|0:0,0:0:0:0:
53,62,90461,1,2,3:2:0:0:
200,117,90798,2,0,L|273:108,1,60,2|0,0:0|0:0,0:0:0:0:
328,148,91136,2,0,L|387:155,1,60,2|0,1:2|0:0,0:0:0:0:
462,133,91472,1,2,0:0:0:0:
378,0,91810,5,4,3:2:0:0:
328,148,92147,2,0,L|335:279,1,120,2|2,3:2|1:2,0:0:0:0:
384,336,92652,1,0,3:0:0:0:
384,336,92821,2,0,B|414:320|414:320|440:272,1,60,2|0,3:2|0:0,0:0:0:0:
463,227,93158,1,2,3:2:0:0:
328,148,93496,2,0,L|260:151,1,60,2|0,0:0|0:0,0:0:0:0:
198,188,93833,2,0,B|197:216|197:216|180:254,2,60,2|0|0,1:2|0:0|0:0,0:0:0:0:
105,61,94506,5,4,3:2:0:0:
34,201,94843,2,0,L|37:335,1,120,2|2,3:2|1:2,0:0:0:0:
120,328,95349,1,0,3:0:0:0:
120,328,95517,2,0,L|118:268,1,60,2|0,3:2|0:0,0:0:0:0:
117,189,95854,1,0,3:2:0:0:
251,239,96164,6,0,P|294:322|394:353,1,200,2|0,0:0|0:0,0:0:0:0:
454,340,96866,2,0,L|454:253,1,80,2|2,0:0|0:0,0:0:0:0:
428,214,97203,6,0,L|428:153,1,60,0|0,3:2|3:2,0:0:0:0:
387,86,97540,2,0,P|442:67|465:13,2,120,2|2|2,0:0|0:0|0:0,0:0:0:0:
239,32,98551,2,0,P|209:25|180:32,1,60,0|0,3:2|3:2,0:0:0:0:
112,74,98888,2,0,P|55:67|21:20,2,120,2|2|2,0:0|0:0|0:0,0:0:0:0:
264,112,99899,6,0,P|321:211|263:310,1,240,4|2,3:2|0:0,0:0:0:0:
115,364,100910,1,2,0:0:0:0:
140,208,101248,2,0,L|135:148,1,60,2|2,3:2|3:2,0:0:0:0:
372,176,101922,2,0,L|376:235,1,60,2|2,3:2|3:2,0:0:0:0:
140,208,102596,6,0,L|135:148,1,60,2|2,3:2|3:2,0:0:0:0:
129,69,102933,2,0,P|70:63|31:20,2,120,2|2|2,0:0|0:0|0:0,0:0:0:0:
282,35,103944,2,0,L|352:28,1,60,2|2,3:2|3:2,0:0:0:0:
414,59,104281,2,0,P|453:102|558:96,2,120,2|2|2,0:0|0:0|0:0,0:0:0:0:
316,182,105292,6,0,P|292:303|163:352,1,240,4|2,3:2|0:0,0:0:0:0:
48,296,106304,1,2,0:0:0:0:
148,175,106641,2,0,L|220:178,1,60,2|2,3:2|3:2,0:0:0:0:
432,252,107316,2,0,L|360:249,1,60,2|2,3:2|3:2,0:0:0:0:
148,175,107990,6,0,L|220:178,1,60,2|2,3:2|3:2,0:0:0:0:
277,140,108326,2,0,P|291:83|267:29,1,120,0|0,3:0|3:0,0:0:0:0:
208,177,109001,2,0,P|193:233|217:287,1,120,0|2,3:0|3:2,0:0:0:0:
280,345,109506,1,2,3:2:0:0:
280,345,109674,2,0,L|426:348,2,120,0|0|0,3:0|3:0|3:0,0:0:0:0:
124,321,110686,6,0,P|94:263|106:174,1,120,4|0,3:2|3:0,0:0:0:0:
172,73,111360,2,0,P|230:43|319:55,1,120,0|0,3:0|3:0,0:0:0:0:
421,117,112034,1,2,3:2:0:0:
421,117,112203,2,0,L|425:179,1,60,2|2,3:2|3:2,0:0:0:0:
499,315,112708,1,2,3:2:0:0:
499,315,112877,1,2,3:2:0:0:
280,228,113382,6,0,L|201:232,1,60,2|2,3:2|3:2,0:0:0:0:
141,236,113719,2,0,P|185:274|196:331,1,120,0|0,3:0|3:0,0:0:0:0:
59,252,114394,2,0,P|69:194|114:156,1,120,0|2,3:0|3:2,0:0:0:0:
196,141,114900,1,2,3:2:0:0:
196,141,115068,2,0,L|195:3,2,120,0|0|0,3:0|3:0|3:0,0:0:0:0:
256,288,116079,6,0,P|310:312|368:301,1,120,4|0,3:2|3:0,0:0:0:0:
308,156,116754,2,0,P|253:131|195:142,1,120,0|0,3:0|3:0,0:0:0:0:
65,229,117427,1,2,3:2:0:0:
65,229,117595,1,2,3:2:0:0:
255,89,118102,2,0,L|252:8,1,60,2|2,0:0|0:0,0:0:0:0:
258,265,118776,6,0,L|261:346,1,60,4|0,3:1|0:0,0:0:0:0:
325,368,119113,2,0,P|380:348|407:296,1,120,0|0,1:0|3:0,0:0:0:0:
365,144,119787,1,0,1:0:0:0:
225,217,120124,1,0,3:0:0:0:
225,217,120292,2,0,L|96:216,1,120,2|2,0:0|0:0,0:0:0:0:
17,85,120967,2,0,L|146:86,1,120,2|2,0:0|0:0,0:0:0:0:
229,221,121641,5,2,0:0:0:0:
229,221,121809,2,0,P|273:239|357:216,1,120,0|0,1:0|3:0,0:0:0:0:
472,137,122483,1,0,1:0:0:0:
348,52,122820,1,0,3:0:0:0:
348,52,122990,2,0,P|310:81|288:165,1,120,2|2,0:0|0:0,0:0:0:0:
289,304,123664,2,0,P|272:247|227:208,1,120,2|2,0:0|0:0,0:0:0:0:
150,192,124169,6,0,L|90:192,1,60,4|0,3:2|0:0,0:0:0:0:
28,142,124507,2,0,P|29:83|73:45,1,120,0|0,1:0|3:0,0:0:0:0:
204,132,125180,1,0,1:0:0:0:
342,58,125517,1,0,3:0:0:0:
342,58,125686,2,0,L|482:63,1,120,2|2,0:0|0:0,0:0:0:0:
458,219,126360,2,0,L|318:214,1,120,2|2,0:0|0:0,0:0:0:0:
203,131,127034,5,2,0:0:0:0:
203,131,127202,2,0,P|145:128|101:166,1,120,0|0,1:0|3:0,0:0:0:0:
38,310,127876,1,0,1:0:0:0:
195,314,128214,2,0,P|202:255|171:205,1,120,0|0,3:0|1:0,0:0:0:0:
101,167,128720,1,0,0:0:0:0:
101,167,128888,2,0,L|35:169,1,60,2|2,0:0|0:0,0:0:0:0:
275,208,129563,6,0,L|341:206,1,60,4|0,3:1|0:0,0:0:0:0:
406,174,129899,2,0,P|421:115|366:39,1,120,0|0,1:0|3:0,0:0:0:0:
256,126,130573,1,0,1:0:0:0:
114,62,130910,1,0,3:0:0:0:
114,62,131080,2,0,L|117:187,1,120,2|2,0:0|0:0,0:0:0:0:
32,315,131754,2,0,L|29:195,1,120,2|2,0:0|0:0,0:0:0:0:
118,66,132427,5,2,0:0:0:0:
118,66,132595,2,0,P|173:47|226:73,1,120,0|0,1:0|3:0,0:0:0:0:
328,192,133271,1,0,1:0:0:0:
226,310,133608,1,0,3:0:0:0:
226,310,133776,2,0,P|173:336|118:318,1,120,2|2,0:0|0:0,0:0:0:0:
219,199,134450,2,0,P|272:173|328:192,1,120,2|2,0:0|0:0,0:0:0:0:
376,253,134955,6,0,L|375:340,1,60,4|0,3:2|0:0,0:0:0:0:
455,316,135292,2,0,L|456:196,1,120,0|0,1:0|3:0,0:0:0:0:
368,66,135966,1,0,1:0:0:0:
232,145,136304,1,0,3:0:0:0:
232,145,136472,2,0,P|168:163|79:116,1,120,2|2,0:0|0:0,0:0:0:0:
5,260,137147,2,0,P|69:242|158:289,1,120,2|2,0:0|0:0,0:0:0:0:
255,332,137821,5,2,0:0:0:0:
255,332,137990,2,0,P|312:345|369:327,1,120,0|0,1:0|3:0,0:0:0:0:
463,202,138664,1,0,1:0:0:0:
306,184,139000,5,0,3:0:0:0:
306,184,139169,1,0,3:0:0:0:
472,351,139675,2,0,L|466:268,1,60,2|2,0:0|0:0,0:0:0:0:
443,56,140349,5,4,3:1:0:0:
256,192,140518,12,0,142203,0:0:0:0:
