osu file format v14

[General]
AudioFilename: audio.mp3
AudioLeadIn: 0
PreviewTime: 20349
Countdown: 0
SampleSet: Soft
StackLeniency: 0.6
Mode: 0
LetterboxInBreaks: 0
WidescreenStoryboard: 0

[Editor]
Bookmarks: 97203
DistanceSpacing: 1.3
BeatDivisor: 4
GridSize: 4
TimelineZoom: 1.7

[Metadata]
Title:Superpower
TitleUnicode:Superpower
Artist:Thaehan
ArtistUnicode:Thaehan
Creator:Nozhomi
Version:Hard
Source:osu!
Tags:featured artist OMGWTF ! Loki mappers' guild
BeatmapID:1871577
BeatmapSetID:779173

[Difficulty]
HPDrainRate:4.4
CircleSize:3.8
OverallDifficulty:6.5
ApproachRate:8
SliderMultiplier:1.5
SliderTickRate:1

[Events]
//Background and Video events
0,0,"newbgfairuse.jpg",0,0
//Break Periods
//Storyboard Layer 0 (Background)
//Storyboard Layer 1 (Fail)
//Storyboard Layer 2 (Pass)
//Storyboard Layer 3 (Foreground)
//Storyboard Sound Samples

[TimingPoints]
125,337.078651685393,4,2,1,80,1,0
125,-133.333333333333,4,2,1,80,0,0
21698,-100,4,2,1,90,0,0
43271,-100,4,2,1,90,0,1
54057,-100,4,2,1,80,0,0
97203,-133.333333333333,4,2,1,80,0,0
107990,-133.333333333333,4,2,1,90,0,0
118776,-100,4,2,1,90,0,0
139338,-100,4,2,1,80,0,0
140686,-100,4,2,1,60,0,0
141023,-100,4,2,1,50,0,0
141360,-100,4,2,1,40,0,0
141698,-100,4,2,1,30,0,0
142119,-100,4,2,1,5,0,0

[Colours]
Combo1 : 241,20,181
Combo2 : 232,119,17
Combo3 : 143,41,226
Combo4 : 54,186,209

[HitObjects]
229,271,125,5,0,3:2:0:0:
229,271,293,1,0,3:2:0:0:
256,192,462,2,0,B|221:207|179:256|180:317|180:317|228:299|230:271,1,225.000008583069,2|2,0:0|0:0,0:0:0:0:
199,129,1473,5,0,3:2:0:0:
199,129,1641,1,0,3:2:0:0:
256,192,1810,2,0,B|260:154|239:93|185:63|185:63|177:114|200:129,1,225.000008583069,2|2,0:0|0:0,0:0:0:0:
337,175,2821,6,0,B|362:162|402:195|402:195|349:226|286:214|256:192,1,225.000008583069,4|2,3:2|0:0,0:0:0:0:
174,99,3832,1,2,0:0:0:0:
174,222,4169,5,2,3:2:0:0:
174,222,4338,1,2,3:2:0:0:
113,266,4507,2,0,L|36:260,1,56.2500021457673,2|2,0:0|0:0,0:0:0:0:
20,198,4844,5,2,3:2:0:0:
20,198,5013,1,2,3:2:0:0:
81,154,5182,2,0,L|158:160,1,56.2500021457673,2|0,0:0|0:0,0:0:0:0:
202,228,5518,5,2,3:2:0:0:
202,228,5686,1,2,3:2:0:0:
264,267,5855,2,0,B|430:264|430:264|385:225,1,225.000008583069,2|2,0:0|0:0,0:0:0:0:
288,148,6866,5,2,3:2:0:0:
288,148,7034,1,2,3:2:0:0:
223,104,7203,2,0,B|57:107|57:107|101:145,1,225.000008583069,2|2,0:0|0:0,0:0:0:0:
78,331,8214,2,0,P|142:244|101:144,1,225.000008583069,4|2,3:2|0:0,0:0:0:0:
1,70,9226,1,2,0:0:0:0:
39,187,9563,5,2,3:2:0:0:
39,187,9732,1,2,3:2:0:0:
101,144,9900,2,0,L|178:147,1,56.2500021457673,2|2,0:0|0:0,0:0:0:0:
218,103,10238,5,2,3:2:0:0:
218,103,10405,1,2,3:2:0:0:
280,150,10574,2,0,P|296:212|284:249,1,84.3750032186509,0|0,3:0|3:0,0:0:0:0:
274,255,10911,5,2,3:2:0:0:
274,255,11080,1,2,3:2:0:0:
205,295,11248,2,0,L|137:292,1,56.2500021457673,0|0,3:0|0:0,0:0:0:0:
180,220,11585,2,0,L|112:217,1,56.2500021457673,0|0,3:0|0:0,0:0:0:0:
157,146,11922,2,0,L|89:143,1,56.2500021457673,0|2,3:0|0:0,0:0:0:0:
48,87,12259,5,2,3:2:0:0:
48,87,12428,1,2,3:2:0:0:
87,19,12596,2,0,P|108:37|118:63,1,56.2500021457673,0|0,3:0|0:0,0:0:0:0:
195,47,12933,2,0,P|196:74|186:100,1,56.2500021457673,0|0,3:0|0:0,0:0:0:0:
253,149,13271,2,0,P|234:170|208:180,1,56.2500021457673,0|2,3:0|0:0,0:0:0:0:
129,160,13608,5,4,3:2:0:0:
296,72,13945,2,0,L|367:75,1,56.2500021457673,0|2,3:0|0:0,0:0:0:0:
422,111,14282,2,0,P|429:143|419:181,1,56.2500021457673,0|2,3:0|0:0,0:0:0:0:
392,237,14619,2,0,P|374:264|339:285,1,56.2500021457673,0|0,3:0|0:0,0:0:0:0:
275,251,14956,5,2,3:2:0:0:
275,251,15124,1,2,3:2:0:0:
203,284,15293,2,0,P|199:301|187:320,2,28.1250010728836,2|2|2,3:2|0:0|0:0,0:0:0:0:
202,202,15630,2,0,P|192:176|192:148,1,56.2500021457673,2|2,3:2|3:2,0:0:0:0:
241,89,15967,1,2,0:0:0:0:
241,89,16051,1,2,0:0:0:0:
241,89,16136,1,0,3:0:0:0:
140,53,16304,5,2,3:2:0:0:
140,53,16473,1,2,3:2:0:0:
86,112,16641,2,0,L|88:188,1,56.2500021457673,0|2,3:0|0:0,0:0:0:0:
15,201,16978,2,0,L|70:253,1,56.2500021457673,0|2,3:0|0:0,0:0:0:0:
32,316,17316,2,0,L|108:314,1,56.2500021457673,0|2,3:0|0:0,0:0:0:0:
163,263,17653,5,2,3:2:0:0:
163,263,17821,1,2,3:2:0:0:
228,308,17990,2,0,P|258:310|296:286,1,56.2500021457673,0|2,3:0|0:0,0:0:0:0:
331,361,18327,2,0,P|353:341|363:297,1,56.2500021457673,0|2,3:0|0:0,0:0:0:0:
441,329,18664,2,0,P|442:299|419:261,1,56.2500021457673,0|2,3:0|0:0,0:0:0:0:
354,219,19001,5,4,3:2:0:0:
416,74,19338,2,0,P|387:54|347:50,1,56.2500021457673,0|2,3:0|0:0,0:0:0:0:
302,94,19675,2,0,P|273:114|233:118,1,56.2500021457673,0|2,3:0|0:0,0:0:0:0:
189,70,20012,2,0,P|160:50|120:46,1,56.2500021457673,0|2,3:0|0:0,0:0:0:0:
48,82,20349,5,2,3:2:0:0:
48,82,20518,1,2,3:2:0:0:
79,153,20686,2,0,L|79:193,2,28.1250010728836,2|2|2,0:0|0:0|0:0,0:0:0:0:
157,153,21023,2,0,L|157:232,1,56.2500021457673,2|2,0:0|0:0,0:0:0:0:
164,304,21360,1,2,0:0:0:0:
164,304,21444,1,2,0:0:0:0:
164,304,21529,1,2,0:0:0:0:
275,261,21698,5,4,3:1:0:0:
350,333,21866,2,0,P|378:258|343:182,1,150,0|0,0:0|0:0,0:0:0:0:
294,118,22372,1,0,3:0:0:0:
253,207,22540,1,0,0:0:0:0:
355,195,22709,2,0,L|448:187,1,75,0|2,1:0|0:0,0:0:0:0:
213,131,23214,2,0,L|52:122,1,150,2|2,0:0|0:0,0:0:0:0:
12,206,23720,1,0,3:0:0:0:
12,206,23889,2,0,L|161:213,1,150,2|2,0:0|0:0,0:0:0:0:
258,219,24394,5,0,3:0:0:0:
319,143,24563,2,0,P|333:108|328:71,2,75,2|0|0,0:0|1:0|0:0,0:0:0:0:
342,237,25068,2,0,P|376:222|398:192,1,75,0|0,3:0|0:0,0:0:0:0:
419,287,25405,2,0,P|441:316|475:331,1,75,0|0,1:0|0:0,0:0:0:0:
284,370,25911,2,0,L|131:365,1,150,2|2,0:0|0:0,0:0:0:0:
101,272,26417,1,0,3:0:0:0:
101,272,26585,2,0,L|250:276,1,150,2|2,0:0|0:0,0:0:0:0:
342,237,27091,5,4,3:2:0:0:
401,159,27259,2,0,P|403:81|328:35,1,150,0|0,0:0|0:0,0:0:0:0:
270,92,27765,1,0,3:0:0:0:
189,36,27933,1,0,0:0:0:0:
123,108,28102,2,0,L|35:104,1,75,0|2,1:0|0:0,0:0:0:0:
51,330,28608,2,0,P|92:283|79:177,1,150,2|2,0:0|0:0,0:0:0:0:
188,185,29113,1,0,3:0:0:0:
188,185,29282,2,0,P|183:258|228:316,1,150,2|2,0:0|0:0,0:0:0:0:
322,338,29787,5,0,3:0:0:0:
409,295,29956,2,0,L|493:298,2,75,2|0|0,0:0|1:0|0:0,0:0:0:0:
349,218,30461,2,0,P|383:203|403:170,1,75,0|0,3:0|0:0,0:0:0:0:
424,75,30799,2,0,P|409:41|376:21,1,75,0|0,1:0|0:0,0:0:0:0:
321,101,31136,1,0,3:0:0:0:
136,37,31473,6,0,P|165:84|214:110,1,112.5,0|0,1:0|0:0,0:0:0:0:
253,140,31810,2,0,P|216:145|184:165,1,75,2|2,0:0|0:0,0:0:0:0:
137,251,32147,2,0,L|135:288,3,37.5,0|0|0|0,3:0|3:0|3:0|3:0,0:0:0:0:
82,338,32484,5,4,3:1:0:0:
47,246,32652,2,0,L|43:171,1,75,0|0,0:0|1:0,0:0:0:0:
61,74,32990,2,0,P|87:104|125:116,1,75,0|0,0:0|3:0,0:0:0:0:
214,94,33326,1,0,0:0:0:0:
310,117,33495,2,0,P|344:103|368:75,1,75,0|2,1:0|0:0,0:0:0:0:
439,257,34001,2,0,P|382:205|286:216,1,150,2|2,0:0|0:0,0:0:0:0:
220,235,34507,1,0,3:0:0:0:
266,320,34675,2,0,P|323:372|419:361,1,150,2|2,0:0|0:0,0:0:0:0:
486,344,35181,5,0,3:0:0:0:
511,250,35349,2,0,L|505:175,1,75,2|0,0:0|1:0,0:0:0:0:
436,105,35686,2,0,L|430:180,1,75,0|0,0:0|3:0,0:0:0:0:
352,238,36023,1,0,0:0:0:0:
279,172,36192,2,0,P|244:157|207:156,1,75,0|0,1:0|0:0,0:0:0:0:
94,315,36698,2,0,P|146:264|144:192,1,150,2|2,0:0|0:0,0:0:0:0:
81,117,37204,1,0,3:0:0:0:
144,191,37372,2,0,P|215:205|273:161,1,150,2|2,0:0|0:0,0:0:0:0:
314,63,37877,5,4,3:2:0:0:
386,127,38045,2,0,L|475:124,1,75,0|0,0:0|1:0,0:0:0:0:
498,215,38383,2,0,L|423:217,1,75,0|0,0:0|3:0,0:0:0:0:
360,291,38719,1,0,0:0:0:0:
289,222,38889,2,0,L|214:224,1,75,0|2,1:0|0:0,0:0:0:0:
36,143,39394,2,0,P|53:67|126:30,1,150,2|2,0:0|0:0,0:0:0:0:
208,19,39900,1,0,3:0:0:0:
226,114,40068,2,0,P|209:190|136:227,1,150,2|2,0:0|0:0,0:0:0:0:
54,241,40574,5,0,3:0:0:0:
117,314,40742,2,0,L|214:309,1,75,2|0,0:0|1:0,0:0:0:0:
273,254,41080,2,0,L|347:257,1,75,0|0,0:0|3:0,0:0:0:0:
417,325,41416,1,0,0:0:0:0:
443,230,41585,1,0,1:0:0:0:
275,351,41922,5,0,3:0:0:0:
275,351,42091,1,0,3:0:0:0:
191,310,42259,2,0,P|174:250|198:208,1,112.5,2|0,0:0|0:0,0:0:0:0:
238,182,42596,2,0,L|319:185,1,75,2|2,0:0|0:0,0:0:0:0:
382,116,42933,2,0,L|441:113,3,37.5,0|0|0|0,3:0|3:0|3:0|3:0,0:0:0:0:
461,141,43271,6,0,P|438:172|404:188,1,75,4|2,3:1|0:0,0:0:0:0:
441,280,43608,2,0,P|403:286|367:274,1,75,0|2,3:0|0:0,0:0:0:0:
323,362,43945,2,0,P|291:339|275:305,1,75,0|2,3:0|0:0,0:0:0:0:
183,338,44282,2,0,P|176:299|189:263,1,75,0|2,3:0|0:0,0:0:0:0:
143,187,44619,6,0,L|58:183,1,75,0|2,3:0|0:0,0:0:0:0:
38,95,44956,2,0,L|112:98,1,75,0|2,3:0|0:0,0:0:0:0:
209,116,45294,2,0,L|294:112,1,75,0|2,3:0|0:0,0:0:0:0:
322,16,45630,2,0,L|248:19,1,75,0|2,3:0|0:0,0:0:0:0:
209,116,45967,6,0,P|217:152|209:188,1,75,0|2,3:0|0:0,0:0:0:0:
153,268,46304,2,0,P|189:259|225:267,1,75,0|2,3:0|0:0,0:0:0:0:
309,316,46641,2,0,P|300:279|308:243,1,75,0|2,3:0|0:0,0:0:0:0:
365,164,46978,2,0,P|328:172|292:164,1,75,0|2,3:0|0:0,0:0:0:0:
214,94,47316,5,0,3:0:0:0:
236,7,47484,1,2,0:0:0:0:
303,68,47653,2,0,L|396:74,1,75,0|2,3:0|0:0,0:0:0:0:
442,135,47990,1,0,3:0:0:0:
355,161,48158,1,2,0:0:0:0:
421,222,48327,2,0,L|413:314,1,75,0|2,3:0|0:0,0:0:0:0:
393,336,48580,1,0,0:0:0:0:
393,335,48664,6,0,P|357:346|321:336,1,75,4|2,3:2|0:0,0:0:0:0:
248,283,49001,2,0,P|212:293|176:282,1,75,0|2,3:0|0:0,0:0:0:0:
177,192,49338,2,0,P|212:181|248:191,1,75,0|2,3:0|0:0,0:0:0:0:
322,139,49675,2,0,P|357:128|393:139,1,75,0|2,3:0|0:0,0:0:0:0:
443,213,50012,5,0,3:0:0:0:
386,283,50181,1,2,0:0:0:0:
297,269,50349,1,0,3:0:0:0:
248,192,50518,1,2,0:0:0:0:
223,105,50686,2,0,L|230:41,3,37.5,0|0|2|0,3:0|0:0|0:0|0:0,0:0:0:0:
182,59,51023,2,0,L|175:-5,3,37.5,0|0|2|0,3:0|0:0|0:0|0:0,0:0:0:0:
135,6,51360,6,0,P|84:16|67:44,1,75,0|2,3:0|0:0,0:0:0:0:
33,114,51698,2,0,P|43:165|71:182,1,75,0|2,3:0|0:0,0:0:0:0:
139,219,52035,2,0,L|241:212,1,75,0|2,3:0|0:0,0:0:0:0:
291,259,52372,2,0,L|365:264,1,75,0|2,3:0|0:0,0:0:0:0:
439,211,52709,5,0,3:0:0:0:
457,331,52877,1,0,1:0:0:0:
457,331,52962,1,0,1:0:0:0:
457,331,53046,1,0,1:0:0:0:
366,264,53214,1,0,3:0:0:0:
512,258,53383,1,0,3:0:0:0:
512,258,54057,5,4,3:2:0:0:
351,176,54394,2,0,L|277:181,1,75,0|2,1:0|0:0,0:0:0:0:
211,243,54731,2,0,P|135:239|90:154,1,150,0|0,3:0|1:0,0:0:0:0:
113,96,55237,1,2,0:0:0:0:
180,156,55405,5,0,3:0:0:0:
100,192,55574,1,2,0:0:0:0:
100,192,55658,1,0,0:0:0:0:
100,192,55742,2,0,L|23:190,1,75,0|0,1:0|0:0,0:0:0:0:
60,273,56080,1,0,3:0:0:0:
233,102,56417,2,0,L|235:25,1,75,0|2,1:0|0:0,0:0:0:0:
315,97,56754,6,0,P|359:135|462:111,1,150,0|0,3:0|1:0,0:0:0:0:
480,42,57259,1,2,0:0:0:0:
445,125,57428,2,0,L|452:230,1,75,0|0,3:0|0:0,0:0:0:0:
360,190,57765,2,0,L|353:295,1,75,0|2,1:0|0:0,0:0:0:0:
267,244,58102,5,0,3:0:0:0:
120,347,58438,1,0,1:0:0:0:
57,280,58608,1,2,0:0:0:0:
57,280,58692,1,0,0:0:0:0:
57,280,58776,2,0,P|55:234|70:207,1,75,0|0,3:0|0:0,0:0:0:0:
126,140,59113,2,0,P|130:103|114:69,1,75,0|2,1:0|0:0,0:0:0:0:
38,116,59450,5,4,3:2:0:0:
169,239,59787,1,0,1:0:0:0:
241,293,59956,1,2,0:0:0:0:
241,293,60040,1,0,0:0:0:0:
242,293,60124,2,0,L|327:289,1,75,0|0,3:0|0:0,0:0:0:0:
374,219,60462,2,0,L|448:222,1,75,0|2,1:0|0:0,0:0:0:0:
507,154,60798,5,0,3:0:0:0:
447,85,60967,1,2,0:0:0:0:
447,85,61051,1,0,0:0:0:0:
447,85,61136,2,0,P|412:101|392:138,1,75,0|0,1:0|0:0,0:0:0:0:
374,219,61473,1,0,3:0:0:0:
266,74,61810,2,0,P|236:51|199:45,1,75,0|2,1:0|0:0,0:0:0:0:
130,102,62147,6,0,P|149:173|208:216,1,150,0|0,3:0|1:0,0:0:0:0:
136,275,62652,1,2,0:0:0:0:
136,275,62821,2,0,L|308:268,1,150,0|0,3:0|1:0,0:0:0:0:
351,331,63327,1,2,0:0:0:0:
392,251,63495,5,0,3:0:0:0:
478,329,63664,1,0,3:0:0:0:
478,329,63748,1,0,3:0:0:0:
478,329,63832,1,2,0:0:0:0:
485,149,64169,6,0,L|482:108,3,37.5,0|0|0|0,3:0|3:0|3:0|3:0,0:0:0:0:
437,101,64507,2,0,L|434:60,3,37.5,0|0|0|0,3:0|3:0|3:0|3:0,0:0:0:0:
402,31,64844,5,4,3:2:0:0:
263,167,65181,2,0,L|266:258,1,75,0|2,1:0|0:0,0:0:0:0:
194,309,65518,2,0,P|124:328|64:288,1,150,0|0,3:0|1:0,0:0:0:0:
9,205,66024,1,2,0:0:0:0:
105,198,66192,5,0,3:0:0:0:
71,295,66361,1,2,0:0:0:0:
71,295,66445,1,0,0:0:0:0:
71,295,66529,2,0,L|67:376,1,75,0|0,1:0|0:0,0:0:0:0:
156,327,66867,1,0,3:0:0:0:
215,141,67203,2,0,L|211:66,1,75,0|2,1:0|0:0,0:0:0:0:
302,29,67541,6,0,P|335:88|297:177,1,150,0|0,3:0|0:0,0:0:0:0:
248,235,68046,1,2,0:0:0:0:
248,235,68130,1,0,0:0:0:0:
248,235,68215,2,0,L|154:233,1,75,0|0,3:0|0:0,0:0:0:0:
223,316,68551,2,0,L|317:314,1,75,0|2,1:0|0:0,0:0:0:0:
373,377,68889,5,0,3:0:0:0:
481,215,69225,1,0,1:0:0:0:
430,299,69395,1,2,0:0:0:0:
430,299,69479,1,0,0:0:0:0:
430,299,69563,2,0,P|400:276|387:241,1,75,0|0,3:0|0:0,0:0:0:0:
313,163,69900,2,0,P|299:197|270:220,1,75,0|2,1:0|0:0,0:0:0:0:
174,235,70237,5,4,3:2:0:0:
239,51,70574,1,0,1:0:0:0:
335,68,70743,1,2,0:0:0:0:
335,68,70827,1,0,0:0:0:0:
336,68,70911,2,0,L|423:64,1,75,0|0,3:0|0:0,0:0:0:0:
387,159,71248,2,0,L|313:163,1,75,0|2,1:0|0:0,0:0:0:0:
235,222,71585,5,0,3:0:0:0:
171,147,71754,1,2,0:0:0:0:
171,147,71838,1,0,0:0:0:0:
171,147,71923,2,0,P|160:111|164:74,1,75,0|0,1:0|0:0,0:0:0:0:
237,9,72260,1,0,3:0:0:0:
153,225,72596,2,0,L|78:221,1,75,0|2,1:0|0:0,0:0:0:0:
20,141,72934,6,0,P|55:77|127:69,1,150,0|0,3:0|1:0,0:0:0:0:
204,127,73439,1,2,0:0:0:0:
204,127,73608,2,0,P|261:171|330:151,1,150,0|0,3:0|1:0,0:0:0:0:
391,73,74114,1,2,0:0:0:0:
296,50,74282,5,0,3:0:0:0:
330,150,74451,1,0,3:0:0:0:
333,164,74535,1,0,3:0:0:0:
336,178,74619,1,2,0:0:0:0:
226,339,74956,6,0,L|186:345,3,37.5,0|0|0|0,3:0|3:0|3:0|3:0,0:0:0:0:
151,312,75293,2,0,L|111:306,3,37.5,0|0|0|0,3:0|3:0|3:0|3:0,0:0:0:0:
83,267,75630,5,4,3:2:0:0:
37,77,75967,2,0,L|34:11,2,37.5,2|0|0,3:2|3:0|3:0,0:0:0:0:
108,143,76304,1,2,1:2:0:0:
183,205,76473,2,0,L|184:242,2,37.5,0|0|2,3:0|3:0|3:2,0:0:0:0:
183,205,76978,1,2,3:2:0:0:
298,47,77316,6,0,P|327:55|366:100,1,75,2|0,0:0|0:0,0:0:0:0:
438,27,77653,2,0,P|452:53|448:112,1,75,2|0,1:2|0:0,0:0:0:0:
403,180,77990,1,2,0:0:0:0:
359,85,78158,1,0,0:0:0:0:
285,194,78327,5,4,3:2:0:0:
108,111,78664,2,0,L|70:112,2,37.5,2|0|0,3:2|3:0|3:0,0:0:0:0:
197,152,79001,1,2,1:2:0:0:
285,194,79169,2,0,L|322:192,2,37.5,0|0|2,3:0|3:0|3:2,0:0:0:0:
285,194,79675,1,2,3:2:0:0:
105,270,80012,5,2,0:0:0:0:
187,322,80181,2,0,B|223:334|223:334|285:325,1,75,0|2,0:0|1:2,0:0:0:0:
352,297,80518,1,0,0:0:0:0:
447,343,80686,2,0,B|459:307|459:307|450:245,1,75,2|0,0:0|3:0,0:0:0:0:
369,175,81023,5,4,3:2:0:0:
210,62,81360,2,0,L|202:21,2,37.5,2|0|0,3:2|3:0|3:0,0:0:0:0:
256,148,81697,1,2,1:2:0:0:
302,62,81866,2,0,L|310:21,2,37.5,0|0|2,3:0|3:0|3:2,0:0:0:0:
302,62,82371,1,2,3:2:0:0:
133,161,82709,6,0,L|52:158,1,75,2|0,0:0|0:0,0:0:0:0:
110,241,83046,2,0,L|35:238,1,75,2|0,1:2|0:0,0:0:0:0:
56,330,83383,1,2,0:0:0:0:
109,240,83551,1,0,0:0:0:0:
193,336,83720,5,4,3:2:0:0:
352,223,84057,2,0,L|415:220,2,37.5,2|0|0,3:2|3:0|3:0,0:0:0:0:
272,279,84394,1,2,1:2:0:0:
193,336,84563,2,0,L|130:339,2,37.5,0|0|2,3:0|3:0|3:2,0:0:0:0:
193,336,85068,1,0,3:0:0:0:
352,223,85377,6,0,P|356:198|351:173,2,50,2|0|0,0:0|0:0|0:0,0:0:0:0:
343,297,85714,2,0,P|357:317|377:331,2,50,2|0|0,0:0|0:0|0:0,0:0:0:0:
284,251,86080,2,0,P|247:237|175:265,1,100,2|2,0:0|0:0,0:0:0:0:
190,250,86417,6,0,P|204:197|191:142,1,112.5,4|0,3:2|0:0,0:0:0:0:
157,112,86754,2,0,L|119:113,2,37.5,2|0|0,3:2|3:0|3:0,0:0:0:0:
209,38,87091,1,2,1:2:0:0:
284,112,87259,1,0,3:0:0:0:
284,112,87344,1,0,3:0:0:0:
284,112,87428,2,0,L|398:106,1,112.5,2|0,3:2|0:0,0:0:0:0:
396,106,87765,2,0,P|371:159|393:235,1,112.5,2|0,3:2|0:0,0:0:0:0:
436,252,88102,6,0,P|413:223|378:211,1,75,2|0,0:0|0:0,0:0:0:0:
356,298,88439,2,0,P|319:293|286:309,1,75,2|0,1:2|0:0,0:0:0:0:
232,382,88776,1,2,0:0:0:0:
185,304,88945,1,2,0:0:0:0:
94,356,89113,6,0,L|90:210,1,112.5,4|0,3:2|0:0,0:0:0:0:
89,198,89450,2,0,P|74:186|62:171,2,37.5,2|0|0,3:2|3:0|3:0,0:0:0:0:
177,217,89787,1,2,1:2:0:0:
243,156,89955,1,0,3:0:0:0:
243,156,90040,1,0,3:0:0:0:
243,156,90124,2,0,P|239:94|187:62,1,112.5,2|2,3:2|0:2,0:0:0:0:
202,65,90461,2,0,L|322:62,1,112.5,2|0,3:2|0:0,0:0:0:0:
348,31,90798,5,2,0:0:0:0:
425,77,90968,2,0,P|418:113|393:141,1,75,0|2,0:0|1:2,0:0:0:0:
303,147,91305,1,0,0:0:0:0:
343,226,91473,2,0,P|352:261|341:297,1,75,2|0,0:0|3:0,0:0:0:0:
263,342,91810,6,0,L|150:337,1,112.5,4|0,3:2|0:0,0:0:0:0:
121,302,92147,2,0,L|57:305,2,37.5,2|0|0,3:2|3:0|3:0,0:0:0:0:
159,220,92484,1,2,1:2:0:0:
106,158,92652,1,0,3:0:0:0:
106,158,92737,1,0,3:0:0:0:
106,158,92821,2,0,P|108:98|154:63,1,112.5,2|0,3:2|0:0,0:0:0:0:
145,65,93158,2,0,P|189:98|259:77,1,112.5,2|0,3:2|0:0,0:0:0:0:
282,30,93495,6,0,P|254:54|242:89,1,75,2|0,0:0|0:0,0:0:0:0:
275,173,93832,2,0,P|298:201|334:213,1,75,2|0,1:2|0:0,0:0:0:0:
413,169,94169,1,2,0:0:0:0:
430,257,94338,1,2,0:0:0:0:
503,183,94507,6,0,L|500:295,1,112.5,4|0,3:2|0:0,0:0:0:0:
497,340,94844,2,0,P|507:355|511:374,2,37.5,2|0|0,3:2|3:0|3:0,0:0:0:0:
407,345,95181,1,2,1:2:0:0:
327,303,95349,1,0,3:0:0:0:
327,303,95434,1,0,3:0:0:0:
327,303,95518,2,0,B|271:290|271:290|217:302,1,112.5,2|0,3:2|0:0,0:0:0:0:
176,321,95855,1,0,3:2:0:0:
176,321,96164,6,0,L|178:377,2,50,2|0|0,0:0|0:0|0:0,0:0:0:0:
100,290,96501,2,0,L|101:339,2,50,2|0|0,0:0|0:0|0:0,0:0:0:0:
31,263,96867,2,0,L|28:163,1,100,2|2,0:0|0:0,0:0:0:0:
78,108,97203,5,0,3:2:0:0:
78,108,97371,1,0,3:2:0:0:
147,144,97540,2,0,P|254:146|314:56,1,225.000008583069,2|2,0:0|0:0,0:0:0:0:
171,24,98551,5,0,3:2:0:0:
171,24,98719,1,0,3:2:0:0:
101,47,98889,2,0,P|58:90|101:241,1,225.000008583069,2|2,0:0|0:0,0:0:0:0:
291,244,99900,6,0,P|274:185|122:147,1,225.000008583069,4|2,3:2|0:0,0:0:0:0:
152,286,100910,1,2,0:0:0:0:
291,244,101247,5,2,3:2:0:0:
291,244,101417,1,2,3:2:0:0:
337,300,101585,2,0,L|337:367,1,56.2500021457673,2|2,0:0|0:0,0:0:0:0:
261,356,101922,5,2,3:2:0:0:
261,356,102092,1,2,3:2:0:0:
212,296,102260,2,0,L|212:229,1,56.2500021457673,2|0,0:0|3:0,0:0:0:0:
149,184,102596,5,2,3:2:0:0:
149,184,102764,1,2,3:2:0:0:
212,136,102933,2,0,B|322:101|322:101|446:128,1,225.000008583069,2|2,0:0|0:0,0:0:0:0:
335,236,103944,5,2,3:2:0:0:
335,236,104112,1,2,3:2:0:0:
263,206,104282,2,0,B|153:171|153:171|29:198,1,225.000008583069,2|2,0:0|0:0,0:0:0:0:
73,380,105292,2,0,P|111:280|46:194,1,225.000008583069,4|2,3:2|0:0,0:0:0:0:
180,250,106304,1,2,0:0:0:0:
154,106,106641,5,2,3:2:0:0:
154,106,106810,1,2,3:2:0:0:
209,153,106978,2,0,L|291:147,1,56.2500021457673,2|2,0:0|0:0,0:0:0:0:
336,184,107316,5,2,3:2:0:0:
336,184,107485,1,2,3:2:0:0:
394,227,107653,2,0,P|435:233|474:219,1,84.3750032186509,0|0,3:0|3:0,0:0:0:0:
496,190,107990,5,2,3:2:0:0:
495,189,108158,1,2,3:2:0:0:
495,110,108327,2,0,L|491:50,1,56.2500021457673,0|2,3:0|0:0,0:0:0:0:
420,99,108664,2,0,L|416:39,1,56.2500021457673,0|2,3:0|0:0,0:0:0:0:
346,90,109001,2,0,L|342:30,1,56.2500021457673,0|2,3:0|0:0,0:0:0:0:
269,66,109338,5,2,3:2:0:0:
269,66,109507,1,2,3:2:0:0:
191,32,109675,2,0,L|116:27,1,56.2500021457673,0|2,3:0|0:0,0:0:0:0:
151,111,110012,2,0,L|94:160,1,56.2500021457673,0|2,3:0|0:0,0:0:0:0:
179,193,110349,2,0,L|174:268,1,56.2500021457673,0|2,3:0|0:0,0:0:0:0:
221,320,110687,5,4,3:2:0:0:
332,192,111024,2,0,P|358:185|386:188,1,56.2500021457673,0|2,3:0|0:0,0:0:0:0:
440,254,111360,2,0,P|433:281|416:303,1,56.2500021457673,0|2,3:0|0:0,0:0:0:0:
331,315,111698,2,0,P|310:295|299:270,1,56.2500021457673,0|2,3:0|0:0,0:0:0:0:
332,192,112035,5,2,3:2:0:0:
332,192,112203,1,2,3:2:0:0:
266,138,112372,2,0,L|227:142,2,28.1250010728836,2|2|2,3:2|0:0|0:0,0:0:0:0:
330,83,112709,2,0,L|401:88,1,56.2500021457673,2|2,3:2|3:2,0:0:0:0:
478,100,113046,1,2,0:0:0:0:
478,100,113130,1,2,0:0:0:0:
478,100,113215,1,0,3:0:0:0:
425,185,113383,5,2,3:2:0:0:
425,185,113552,1,2,3:2:0:0:
342,169,113720,2,0,B|312:160|312:160|266:167,1,56.2500021457673,0|2,3:0|0:0,0:0:0:0:
229,242,114057,2,0,B|259:233|259:233|305:240,1,56.2500021457673,0|2,3:0|0:0,0:0:0:0:
339,317,114394,2,0,B|309:308|309:308|263:315,1,56.2500021457673,0|2,3:0|0:0,0:0:0:0:
197,354,114732,5,2,3:2:0:0:
197,354,114900,1,2,3:2:0:0:
126,293,115069,2,0,P|124:263|148:225,1,56.2500021457673,0|2,3:0|0:0,0:0:0:0:
64,192,115405,2,0,P|83:169|127:159,1,56.2500021457673,0|2,3:0|0:0,0:0:0:0:
92,76,115742,2,0,P|121:73|160:97,1,56.2500021457673,0|2,3:0|0:0,0:0:0:0:
206,166,116080,5,4,3:2:0:0:
352,43,116417,2,0,L|277:47,1,56.2500021457673,0|2,3:0|0:0,0:0:0:0:
285,129,116754,2,0,P|314:149|354:153,1,56.2500021457673,0|2,3:0|0:0,0:0:0:0:
395,211,117091,2,0,P|368:218|345:235,1,56.2500021457673,0|2,3:0|0:0,0:0:0:0:
338,338,117428,5,2,3:2:0:0:
338,338,117597,1,2,3:2:0:0:
261,303,117765,2,0,L|261:274,2,28.1250010728836,2|2|2,0:0|0:0|0:0,0:0:0:0:
180,316,118102,6,0,L|180:259,1,56.2500021457673,2|2,0:0|0:0,0:0:0:0:
99,260,118439,1,2,0:0:0:0:
99,276,118523,1,2,0:0:0:0:
99,292,118608,1,2,0:0:0:0:
232,206,118776,5,4,3:1:0:0:
326,181,118944,2,0,P|286:122|204:111,1,150
139,175,119450,1,0,3:0:0:0:
88,92,119618,1,0,0:0:0:0:
12,155,119787,2,0,L|11:252,1,75,0|2,1:0|0:0,0:0:0:0:
248,244,120292,2,0,P|211:182|139:175,1,150,2|2,0:0|0:0,0:0:0:0:
82,255,120798,1,0,3:0:0:0:
82,255,120967,2,0,P|119:316|191:324,1,150,2|2,0:0|0:0,0:0:0:0:
249,244,121472,5,0,3:0:0:0:
337,286,121641,2,0,L|431:290,2,75,2|0|0,0:0|1:0|0:0,0:0:0:0:
350,189,122147,2,0,P|335:155|305:133,1,75,0|0,3:0|0:0,0:0:0:0:
206,130,122484,2,0,P|172:145|150:175,1,75,0|0,1:0|0:0,0:0:0:0:
256,338,122989,2,0,B|280:264|236:264|256:190,1,150,2|2,0:0|0:0,0:0:0:0:
330,122,123495,1,0,3:0:0:0:
330,122,123663,2,0,P|339:165|255:190,1,150,2|2,0:0|0:0,0:0:0:0:
170,97,124169,5,4,3:2:0:0:
174,194,124337,2,0,B|178:305|178:305|142:273,1,150,0|0,0:0|0:0,0:0:0:0:
72,218,124843,1,0,3:0:0:0:
57,314,125011,1,0,0:0:0:0:
149,279,125180,2,0,P|183:266|219:275,1,75,0|2,1:0|0:0,0:0:0:0:
394,361,125686,2,0,P|332:321|318:249,1,150,2|2,0:0|0:0,0:0:0:0:
382,161,126192,1,0,3:0:0:0:
382,161,126360,2,0,P|327:210|254:205,1,150,2|2,0:0|0:0,0:0:0:0:
205,121,126866,5,0,3:0:0:0:
109,142,127035,2,0,P|78:121|66:86,2,75,2|0|0,0:0|1:0|0:0,0:0:0:0:
164,221,127540,2,0,P|133:241|120:276,1,75,0|0,3:0|0:0,0:0:0:0:
201,331,127877,2,0,P|231:310|244:275,1,75,0|0,1:0|0:0,0:0:0:0:
256,177,128215,1,0,3:0:0:0:
66,86,128552,6,0,P|49:43|100:42,1,112.5,0|0,1:0|0:0,0:0:0:0:
139,68,128889,2,0,P|176:68|213:64,1,75,2|2,0:0|0:0,0:0:0:0:
309,43,129226,2,0,P|318:27|331:14,3,37.5,0|0|0|0,3:0|3:0|3:0|3:0,0:0:0:0:
380,8,129562,5,4,3:1:0:0:
436,87,129731,2,0,L|439:177,1,75,0|0,0:0|1:0,0:0:0:0:
424,258,130068,2,0,L|369:206,1,75,0|0,0:0|3:0,0:0:0:0:
298,140,130404,1,0,0:0:0:0:
301,238,130574,2,0,L|303:312,1,75,0|2,1:0|0:0,0:0:0:0:
115,357,131079,2,0,P|53:317|52:243,1,150,2|2,0:0|0:0,0:0:0:0:
148,242,131585,1,0,3:0:0:0:
102,156,131754,2,0,P|155:107|226:122,1,150,2|2,0:0|0:0,0:0:0:0:
289,216,132259,5,0,3:0:0:0:
358,285,132428,2,0,P|393:294|430:289,1,75,2|0,0:0|1:0,0:0:0:0:
487,210,132765,2,0,P|477:173|454:144,1,75,0|0,0:0|3:0,0:0:0:0:
386,75,133101,1,0,0:0:0:0:
301,125,133270,2,0,L|221:122,1,75,0|0,1:0|0:0,0:0:0:0:
91,264,133776,2,0,P|121:325|205:322,1,150,2|2,0:0|0:0,0:0:0:0:
256,251,134282,1,0,3:0:0:0:
316,328,134450,2,0,P|387:327|421:264,1,150,2|2,0:0|0:0,0:0:0:0:
369,156,134955,5,4,3:2:0:0:
275,184,135124,2,0,P|295:223|331:245,1,75,0|0,0:0|1:0,0:0:0:0:
223,258,135462,2,0,P|203:297|167:319,1,75,0|0,0:0|3:0,0:0:0:0:
83,340,135799,1,0,0:0:0:0:
39,252,135967,2,0,L|42:172,1,75,0|2,1:0|0:0,0:0:0:0:
179,38,136472,2,0,P|190:113|129:160,1,150,2|2,0:0|0:0,0:0:0:0:
42,177,136978,1,0,3:0:0:0:
139,158,137147,2,0,P|207:157|264:239,1,150,2|2,0:0|0:0,0:0:0:0:
225,324,137652,5,0,3:0:0:0:
317,293,137821,2,0,L|404:289,1,75,2|0,0:0|1:0,0:0:0:0:
352,200,138158,2,0,L|348:113,1,75,0|0,0:0|3:0,0:0:0:0:
256,156,138494,1,0,0:0:0:0:
164,125,138663,1,0,1:0:0:0:
332,26,139000,5,0,3:0:0:0:
332,26,139169,1,0,3:0:0:0:
256,87,139338,2,0,P|239:139|260:190,1,112.5,2|0,0:0|0:0,0:0:0:0:
291,228,139675,2,0,P|255:208|217:207,1,75,2|2,0:0|0:0,0:0:0:0:
134,249,140012,2,0,L|78:253,3,37.5,0|0|0|0,3:0|3:0|3:0|3:0,0:0:0:0:
44,201,140349,5,4,3:1:0:0:
256,192,140433,12,0,142203,0:0:0:0:
