osu file format v14

[General]
AudioFilename: audio.mp3
AudioLeadIn: 0
PreviewTime: 12094
Countdown: 0
SampleSet: Soft
StackLeniency: 0.7
Mode: 0
LetterboxInBreaks: 0
WidescreenStoryboard: 1

[Editor]
Bookmarks: 12169,21674,31179,50188,69198,88208,107218,116723,123852
DistanceSpacing: 0.2
BeatDivisor: 4
GridSize: 16
TimelineZoom: 2.2

[Metadata]
Title:Sunrise
TitleUnicode:Sunrise
Artist:Thaehan
ArtistUnicode:Thaehan
Creator:Realazy
Version:ailv's Ex
Source:osu!
Tags:Azzedd ZinedineZidane aliv ailv Ponoyoshi PoNo J1_ celerih gabe pachiru FBC2018 FBC 2018 French Beatmapping Contest vocaloid artcore dnb drum & bass drumstep featured artist Power Up
BeatmapID:1802630
BeatmapSetID:818360

[Difficulty]
HPDrainRate:6.5
CircleSize:4
OverallDifficulty:7.5
ApproachRate:9.3
SliderMultiplier:2
SliderTickRate:1

[Events]
//Background and Video events
0,0,"Sunrise BG.jpg",0,0
//Break Periods
2,67022,68347
//Storyboard Layer 0 (Background)
//Storyboard Layer 1 (Fail)
//Storyboard Layer 2 (Pass)
//Storyboard Layer 3 (Foreground)
//Storyboard Sound Samples

[TimingPoints]
288,297.029702970297,4,2,1,20,1,0
2664,-250,4,2,1,25,0,0
3852,-250,4,2,1,30,0,0
5040,-250,4,2,1,35,0,0
6228,-250,4,2,1,40,0,0
7416,-250,4,2,1,45,0,0
8604,-250,4,2,1,40,0,0
9792,-250,4,2,1,30,0,0
10981,-250,4,2,1,35,0,0
11575,-250,4,2,1,40,0,0
11723,-250,4,2,1,50,0,0
11872,-250,4,2,1,60,0,0
12020,-250,4,2,1,70,0,0
12167,-250,4,2,1,60,0,0
12169,-83.3333333333333,4,2,1,60,0,0
16624,-83.3333333333333,4,2,1,65,0,0
16921,-83.3333333333333,4,2,1,60,0,0
21080,-83.3333333333333,4,2,1,70,0,0
21377,-83.3333333333333,4,2,1,75,0,0
21674,-83.3333333333333,4,2,1,70,0,0
26129,-83.3333333333333,4,2,1,75,0,0
26426,-83.3333333333333,4,2,1,70,0,0
28802,-83.3333333333333,4,2,1,50,0,0
30882,-83.3333333333333,4,2,1,60,0,0
31179,-66.6666666666667,4,2,1,75,0,0
31476,-66.6666666666667,4,2,1,70,0,0
31773,-66.6666666666667,4,2,1,60,0,0
32070,-66.6666666666667,4,2,1,65,0,0
32218,-66.6666666666667,4,2,1,70,0,0
32367,-200,4,2,1,50,0,0
32664,-200,4,2,1,60,0,0
33258,-200,4,2,1,65,0,0
33555,-200,4,2,1,45,0,0
33703,-100,4,2,1,45,0,0
33852,-100,4,2,1,55,0,0
34743,-100,4,2,1,60,0,0
35040,-100,4,2,1,70,0,0
35337,-100,4,2,1,65,0,0
35634,-100,4,2,1,75,0,0
35931,-100,4,2,1,80,0,0
36228,-100,4,2,1,70,0,0
37119,-200,4,2,1,50,0,0
37416,-200,4,2,1,60,0,0
38010,-200,4,2,1,65,0,0
38307,-100,4,2,1,70,0,0
38901,-100,4,2,1,60,0,0
39050,-100,4,2,1,55,0,0
39198,-100,4,2,1,50,0,0
39347,-100,4,2,1,45,0,0
39495,-100,4,2,1,40,0,0
39792,-100,4,2,1,50,0,0
40684,-66.6666666666667,4,2,1,75,0,0
40981,-66.6666666666667,4,2,1,70,0,0
41278,-66.6666666666667,4,2,1,60,0,0
41575,-66.6666666666667,4,2,1,65,0,0
41723,-66.6666666666667,4,2,1,70,0,0
41872,-200,4,2,1,50,0,0
42169,-200,4,2,1,60,0,0
42763,-200,4,2,1,65,0,0
43060,-200,4,2,1,45,0,0
43208,-100,4,2,1,45,0,0
43357,-100,4,2,1,55,0,0
44248,-100,4,2,1,60,0,0
44545,-100,4,2,1,70,0,0
44842,-100,4,2,1,65,0,0
45139,-100,4,2,1,75,0,0
45436,-100,4,2,1,80,0,0
45733,-100,4,2,1,70,0,0
46624,-200,4,2,1,50,0,0
46921,-200,4,2,1,60,0,0
47515,-200,4,2,1,65,0,0
47812,-200,4,2,1,70,0,0
48258,-100,4,2,1,70,0,0
48406,-100,4,2,1,60,0,0
48555,-100,4,2,1,55,0,0
48703,-100,4,2,1,50,0,0
48852,-100,4,2,1,45,0,0
49000,-100,4,2,1,40,0,0
49297,-100,4,2,1,50,0,0
50188,-100,4,2,1,60,0,0
59693,-100,4,2,1,65,0,0
66822,-100,4,2,1,40,0,0
69198,-83.3333333333333,4,2,1,60,0,0
73654,-83.3333333333333,4,2,1,65,0,0
73951,-83.3333333333333,4,2,1,60,0,0
78703,-83.3333333333333,4,2,1,70,0,0
83159,-83.3333333333333,4,2,1,75,0,0
83456,-83.3333333333333,4,2,1,70,0,0
85832,-83.3333333333333,4,2,1,45,0,0
87614,-83.3333333333333,4,2,1,60,0,0
87911,-83.3333333333333,4,2,1,70,0,0
88208,-142.857142857143,4,2,1,60,0,0
95040,-142.857142857143,4,2,1,70,0,0
95337,-142.857142857143,4,2,1,60,0,0
104768,-142.857142857143,4,2,1,5,0,0
104842,-142.857142857143,4,2,1,45,0,0
115535,-142.857142857143,4,2,1,55,0,0
116723,-142.857142857143,4,2,1,70,0,0
117169,-100,4,2,1,70,0,0
125040,-100,4,2,1,20,0,0
125857,-100,4,2,1,5,0,0
125931,-100,4,2,1,20,0,0
127416,-100,4,2,1,5,0,0

[Colours]
Combo1 : 252,247,135
Combo2 : 235,109,110
Combo3 : 135,138,173

[HitObjects]
256,192,288,12,2,3852,0:0:0:0:
51,226,5040,6,0,P|110:223|176:221,1,120,2|2,0:0|0:0,0:0:0:0:
195,234,5931,5,2,0:0:0:0:
155,140,6080,1,0,0:0:0:0:
261,154,6228,2,0,P|266:102|277:31,1,120,2|2,0:0|0:0,0:0:0:0:
268,18,7119,5,0,0:0:0:0:
486,152,7416,6,0,P|455:151|434:153,1,40,2|0,0:0|0:0,0:0:0:0:
346,195,7713,1,0,0:0:0:0:
426,231,7862,1,2,0:0:0:0:
443,241,8308,5,2,0:0:0:0:
344,285,8456,1,0,0:0:0:0:
257,204,8604,2,0,P|261:161|263:147,1,40,2|0,0:0|0:0,0:0:0:0:
346,204,8901,1,0,0:0:0:0:
248,282,9050,1,2,0:0:0:0:
243,303,9495,6,0,P|203:306|173:316,1,60,2|0,0:0|0:0,0:0:0:0:
164,327,9792,5,2,0:0:0:0:
152,320,9941,1,0,0:0:0:0:
224,208,10089,5,0,0:0:0:0:
245,223,10238,1,0,0:0:0:0:
117,164,10387,5,2,0:0:0:0:
48,179,10535,1,0,0:0:0:0:
228,111,10684,5,0,0:0:0:0:
319,135,10832,1,0,0:0:0:0:
139,273,10981,5,2,0:0:0:0:
117,198,11129,1,0,0:0:0:0:
244,205,11278,5,2,0:0:0:0:
250,92,11426,1,0,0:0:0:0:
345,267,11575,5,2,0:0:0:0:
356,259,11649,1,2,0:0:0:0:
367,288,11723,5,2,0:0:0:0:
381,255,11797,1,2,0:0:0:0:
403,281,11872,5,2,0:0:0:0:
464,286,11946,1,2,0:0:0:0:
498,234,12020,1,2,0:0:0:0:
484,175,12094,1,2,0:0:0:0:
434,119,12169,6,0,L|353:135,1,59.9999981689454,6|0,1:2|0:0,0:0:0:0:
363,119,12317,2,0,L|421:107,1,59.9999981689454,0|0,1:0|0:0,0:0:0:0:
309,182,12466,2,0,B|251:155|251:155|197:193,1,119.999996337891,8|2,0:0|0:0,0:0:0:0:
123,228,12688,1,0,0:0:0:0:
123,228,12763,2,0,L|103:146,1,59.9999981689454,0|0,0:0|0:0,0:0:0:0:
256,249,12911,5,2,1:2:0:0:
268,271,12986,1,0,0:0:0:0:
257,301,13060,1,10,0:0:0:0:
175,321,13208,1,0,0:0:0:0:
397,363,13357,5,6,1:2:0:0:
302,374,13505,1,0,0:0:0:0:
396,266,13654,101,10,0:0:0:0:
512,355,13802,2,0,L|504:289,1,59.9999981689454,0|0,0:0|0:0,0:0:0:0:
487,182,13951,21,10,0:0:0:0:
491,159,14025,1,0,0:0:0:0:
473,121,14099,1,0,1:2:0:0:
426,99,14174,1,0,0:0:0:0:
370,117,14248,1,10,0:0:0:0:
330,131,14322,1,0,0:0:0:0:
303,126,14396,1,0,1:2:0:0:
286,117,14471,1,0,1:0:0:0:
286,117,14545,54,0,B|271:172|271:172|290:244,1,119.999996337891,6|0,1:2|0:0,0:0:0:0:
366,297,14768,1,0,0:0:0:0:
366,297,14842,2,0,L|371:233,1,59.9999981689454,8|0,0:0|0:0,0:0:0:0:
231,362,14990,2,0,L|226:298,1,59.9999981689454,2|8,1:2|0:0,0:0:0:0:
40,195,15139,5,0,1:0:0:0:
73,189,15287,1,0,1:0:0:0:
139,300,15436,5,10,0:0:0:0:
53,275,15584,1,2,1:2:0:0:
177,84,15733,54,0,P|160:163|198:214,1,119.999996337891,6|0,1:2|0:0,0:0:0:0:
385,68,15956,2,0,P|405:123|385:179,1,119.999996337891,2|0,0:0|0:0,0:0:0:0:
277,36,16179,2,0,L|281:95,1,59.9999981689454,2|8,1:2|0:0,0:0:0:0:
280,247,16327,5,10,0:0:0:0:
284,259,16401,1,8,0:0:0:0:
290,273,16476,2,0,L|294:213,1,59.9999981689454,0|0,1:0|0:0,0:0:0:0:
509,180,16624,5,10,0:1:0:0:
476,220,16698,1,0,0:0:0:0:
472,266,16773,1,2,1:0:0:0:
483,293,16847,1,0,1:0:0:0:
483,293,16921,6,0,L|408:304,1,59.9999981689454,6|0,1:2|0:0,0:0:0:0:
351,339,17070,2,0,L|410:330,1,59.9999981689454,0|0,1:0|0:0,0:0:0:0:
265,281,17218,6,0,L|206:273,1,59.9999981689454,10|0,0:0|0:0,0:0:0:0:
132,235,17367,2,0,L|192:244,1,59.9999981689454,0|8,1:0|0:0,0:0:0:0:
43,89,17515,5,2,1:2:0:0:
16,118,17589,1,8,0:0:0:0:
44,129,17664,1,0,0:0:0:0:
28,138,17738,1,0,0:0:0:0:
41,164,17812,5,10,0:0:0:0:
52,208,17887,1,0,0:0:0:0:
45,239,17961,1,0,0:0:0:0:
29,257,18035,1,0,0:0:0:0:
29,257,18109,6,0,B|85:277|85:277|155:259,1,119.999996337891,6|0,1:2|0:0,0:0:0:0:
245,295,18332,1,0,0:0:0:0:
245,295,18406,2,0,L|256:353,1,59.9999981689454,10|0,0:0|0:0,0:0:0:0:
220,150,18555,2,0,L|208:208,1,59.9999981689454,0|0,1:0|0:0,0:0:0:0:
308,205,18703,5,8,0:0:0:0:
341,311,18852,1,0,1:0:0:0:
421,219,19000,5,8,0:0:0:0:
381,85,19149,2,0,L|372:161,1,59.9999981689454,0|0,1:0|1:0,0:0:0:0:
503,243,19297,5,6,1:2:0:0:
383,364,19446,1,0,0:0:0:0:
194,326,19594,2,0,L|282:305,1,59.9999981689454,10|0,0:0|0:0,0:0:0:0:
270,305,19743,6,0,B|208:282|208:282|120:379,1,179.999994506836,2|0,1:2|0:0,0:0:0:0:
119,374,20040,2,0,P|109:337|104:315,1,59.9999981689454,0|0,1:0|0:0,0:0:0:0:
17,122,20188,5,10,0:0:0:0:
138,77,20337,1,2,1:2:0:0:
335,156,20486,6,0,B|277:142|277:142|214:178,1,119.999996337891,6|0,1:2|0:0,0:0:0:0:
171,225,20708,1,0,0:0:0:0:
171,225,20783,2,0,B|190:301,1,59.9999981689454,8|0,0:0|0:0,0:0:0:0:
430,184,20931,2,0,B|426:121,1,59.9999981689454,0|0,1:0|1:0,0:0:0:0:
462,273,21080,5,10,0:0:0:0:
450,314,21154,1,8,0:0:0:0:
420,337,21228,1,0,1:2:0:0:
367,340,21302,1,0,0:0:0:0:
321,321,21377,5,10,0:0:0:0:
313,347,21451,1,0,1:2:0:0:
279,331,21525,1,2,1:2:0:0:
276,358,21599,1,2,1:2:0:0:
276,358,21674,6,0,L|204:351,1,59.9999981689454,6|0,1:2|0:0,0:0:0:0:
179,338,21822,2,0,L|239:344,1,59.9999981689454,0|0,1:0|0:0,0:0:0:0:
93,368,21971,1,8,0:0:0:0:
12,245,22119,2,0,B|121:230|95:334|227:294,1,179.999994506836,2|0,0:0|0:0,0:0:0:0:
275,254,22416,5,2,1:2:0:0:
261,213,22490,1,0,0:0:0:0:
285,180,22565,1,8,0:0:0:0:
327,112,22713,1,0,0:0:0:0:
512,208,22862,5,6,1:2:0:0:
387,200,23010,1,0,0:0:0:0:
329,352,23159,5,8,0:0:0:0:
201,333,23307,2,0,L|194:265,1,59.9999981689454,0|0,0:0|0:0,0:0:0:0:
110,86,23456,5,8,0:0:0:0:
82,78,23530,1,0,0:0:0:0:
44,96,23604,1,0,1:2:0:0:
22,143,23679,1,0,0:0:0:0:
40,199,23753,1,8,0:0:0:0:
54,239,23827,1,0,0:0:0:0:
49,266,23901,1,0,1:2:0:0:
40,283,23976,1,0,1:0:0:0:
40,283,24050,54,0,B|95:298|95:298|167:279,1,119.999996337891,6|0,1:2|0:0,0:0:0:0:
238,238,24273,1,0,0:0:0:0:
238,238,24347,2,0,L|223:152,1,59.9999981689454,8|0,0:0|0:0,0:0:0:0:
311,351,24495,2,0,L|326:265,1,59.9999981689454,2|8,1:2|0:0,0:0:0:0:
512,207,24644,5,0,1:0:0:0:
407,174,24792,1,0,1:0:0:0:
503,319,24941,5,10,0:0:0:0:
397,355,25089,1,2,1:2:0:0:
277,116,25238,6,0,P|301:179|246:208,1,119.999996337891,6|0,1:2|0:0,0:0:0:0:
152,253,25461,2,0,P|128:190|183:161,1,119.999996337891,2|0,0:0|0:0,0:0:0:0:
292,326,25684,2,0,P|229:315|207:319,1,59.9999981689454,2|8,1:2|0:0,0:0:0:0:
52,325,25832,5,10,0:0:0:0:
40,331,25906,1,8,0:0:0:0:
29,340,25981,2,0,L|87:328,1,59.9999981689454,0|0,1:0|0:0,0:0:0:0:
77,103,26129,5,10,0:1:0:0:
36,140,26203,1,0,0:0:0:0:
26,185,26278,1,0,1:0:0:0:
34,221,26352,1,0,1:0:0:0:
35,221,26426,6,0,L|139:210,1,59.9999981689454,6|0,1:2|0:0,0:0:0:0:
170,203,26575,2,0,L|66:192,1,59.9999981689454,0|0,1:0|0:0,0:0:0:0:
332,106,26723,6,0,L|228:95,1,59.9999981689454,10|0,0:0|0:0,0:0:0:0:
197,88,26872,2,0,L|301:77,1,59.9999981689454,0|8,1:0|0:0,0:0:0:0:
478,57,27020,5,2,1:2:0:0:
504,85,27094,1,8,0:0:0:0:
512,126,27169,1,0,0:0:0:0:
504,165,27243,1,0,0:0:0:0:
477,182,27317,5,8,0:0:0:0:
439,160,27391,1,0,0:0:0:0:
396,158,27466,1,0,0:0:0:0:
363,173,27540,1,0,0:0:0:0:
363,173,27614,6,0,L|352:115,1,59.9999981689454,6|0,1:2|0:0,0:0:0:0:
245,225,27763,2,0,L|257:167,1,59.9999981689454,0|0,0:0|0:0,0:0:0:0:
47,33,27911,5,10,0:0:0:0:
156,57,28060,1,0,1:0:0:0:
0,196,28208,5,8,0:0:0:0:
139,226,28357,2,0,L|148:150,1,59.9999981689454,0|0,1:0|0:0,0:0:0:0:
28,69,28505,5,8,0:0:0:0:
235,118,28654,2,0,L|227:177,1,59.9999981689454,0|0,1:0|0:0,0:0:0:0:
113,376,28802,5,0,0:0:0:0:
10,319,28951,1,0,0:0:0:0:
126,298,29099,1,2,0:0:0:0:
215,350,29248,1,2,0:0:0:0:
238,337,29693,5,2,0:0:0:0:
238,337,29842,1,0,0:0:0:0:
238,337,29990,1,2,0:0:0:0:
326,339,30436,5,0,1:0:0:0:
337,342,30510,1,8,0:0:0:0:
347,348,30585,1,8,0:0:0:0:
356,350,30659,1,8,0:0:0:0:
365,353,30733,1,0,1:0:0:0:
444,346,30882,1,8,0:0:0:0:
497,277,31030,1,0,1:0:0:0:
493,266,31104,1,0,1:0:0:0:
480,251,31179,6,0,B|383:244,1,75.0000028610231,6|0,1:0|0:0,0:0:0:0:
397,264,31327,2,0,B|322:269,1,75.0000028610231,0|0,0:0|0:0,0:0:0:0:
76,224,31476,6,0,B|167:161|167:161|268:225,1,225.000008583069,10|8,0:0|0:0,0:0:0:0:
5,352,31773,5,8,0:0:0:0:
0,343,31847,1,0,0:0:0:0:
2,329,31921,1,0,1:0:0:0:
13,307,31995,1,0,0:0:0:0:
12,276,32070,1,10,0:0:0:0:
2,238,32144,1,2,0:0:0:0:
7,197,32218,1,10,0:0:0:0:
34,160,32292,1,2,0:0:0:0:
22,125,32367,6,0,L|17:98,1,25,0|0,1:0|0:0,0:0:0:0:
113,69,32515,2,0,L|118:42,1,25,0|0,0:0|0:0,0:0:0:0:
223,125,32664,5,10,0:1:0:0:
236,110,32738,1,0,0:1:0:0:
250,125,32812,1,2,0:1:0:0:
275,111,32887,1,0,0:1:0:0:
275,111,32961,6,0,L|311:96,1,25,8|0,0:0|0:0,0:0:0:0:
384,45,33109,2,0,L|407:54,1,25,0|0,1:0|0:0,0:0:0:0:
362,188,33258,6,0,L|398:173,1,25,8|0,0:0|0:0,0:0:0:0:
471,122,33406,2,0,L|494:131,1,25,0|0,1:0|1:0,0:0:0:0:
490,294,33555,6,0,L|504:338,1,25,0|0,1:0|0:0,0:0:0:0:
497,317,33703,2,0,B|351:247|334:408|198:316,1,300,8|0,0:0|0:0,0:0:0:0:
212,325,34297,5,0,0:0:0:0:
87,365,34446,5,2,0:1:0:0:
93,353,34521,1,0,0:0:0:0:
94,337,34595,1,2,1:0:0:0:
93,320,34669,1,0,0:0:0:0:
87,308,34743,5,2,1:2:0:0:
89,288,34817,1,0,0:0:0:0:
90,262,34891,2,0,P|97:233|95:209,1,50,2|0,0:0|0:0,0:0:0:0:
201,224,35040,5,10,0:0:0:0:
199,244,35114,1,0,0:0:0:0:
198,270,35188,2,0,P|191:299|193:323,1,50,2|0,1:2|1:0,0:0:0:0:
275,351,35337,5,10,0:0:0:0:
300,339,35412,1,0,0:0:0:0:
328,336,35486,1,2,0:0:0:0:
355,344,35560,1,0,0:0:0:0:
379,353,35634,5,10,0:0:0:0:
423,336,35709,1,0,0:0:0:0:
439,292,35783,1,2,1:2:0:0:
423,241,35857,1,0,1:0:0:0:
423,241,35931,6,0,L|435:89,1,150,6|0,1:0|0:0,0:0:0:0:
321,52,36228,5,10,0:0:0:0:
319,63,36302,1,0,0:0:0:0:
318,73,36377,1,2,0:0:0:0:
317,82,36451,1,0,1:0:0:0:
287,109,36525,5,10,0:0:0:0:
276,107,36599,1,0,0:0:0:0:
266,106,36674,1,0,1:0:0:0:
258,107,36748,1,0,0:0:0:0:
249,106,36822,6,0,L|252:177,1,50,10|0,0:0|0:0,0:0:0:0:
131,41,36971,2,0,L|128:112,1,50,10|0,0:0|0:0,0:0:0:0:
29,206,37119,6,0,L|23:170,1,25,0|0,0:0|0:0,0:0:0:0:
142,255,37268,2,0,L|147:219,1,25,0|0,0:0|0:0,0:0:0:0:
220,354,37416,5,10,0:1:0:0:
230,340,37490,1,0,0:0:0:0:
247,360,37565,1,2,0:1:0:0:
263,329,37639,1,0,0:0:0:0:
263,329,37713,6,0,L|306:322,1,25,8|0,0:0|0:0,0:0:0:0:
375,367,37862,2,0,L|418:360,1,25,0|0,1:0|0:0,0:0:0:0:
361,238,38010,6,0,L|404:231,1,25,8|0,0:0|0:0,0:0:0:0:
463,273,38159,2,0,L|506:266,1,25,0|0,1:0|1:0,0:0:0:0:
455,101,38307,5,2,1:2:0:0:
285,198,38456,1,2,1:2:0:0:
284,178,38530,1,0,0:0:0:0:
284,161,38604,1,10,0:0:0:0:
489,180,38753,2,0,L|435:176,1,50,2|0,0:0|0:0,0:0:0:0:
344,329,38901,5,2,0:0:0:0:
296,312,38976,1,0,0:0:0:0:
257,319,39050,1,2,1:2:0:0:
230,333,39124,1,0,0:0:0:0:
206,347,39198,1,2,0:0:0:0:
185,350,39273,1,0,0:0:0:0:
170,346,39347,1,2,1:2:0:0:
161,337,39421,1,0,0:0:0:0:
161,325,39495,5,2,0:0:0:0:
197,246,39644,1,2,0:0:0:0:
110,171,39792,6,0,L|53:182,3,50,10|0|2|8,0:1|0:0|0:1|0:0,0:0:0:0:
189,120,40089,5,0,0:0:0:0:
208,127,40164,1,0,0:0:0:0:
228,127,40238,1,0,1:0:0:0:
246,122,40312,1,0,0:0:0:0:
276,105,40387,5,8,0:0:0:0:
295,98,40462,1,0,0:0:0:0:
315,98,40536,1,0,1:0:0:0:
333,103,40610,1,0,1:0:0:0:
354,116,40684,6,0,B|347:213,1,75.0000028610231,6|0,1:0|0:0,0:0:0:0:
322,215,40832,2,0,B|327:290,1,75.0000028610231,0|0,0:0|0:0,0:0:0:0:
124,312,40981,6,0,B|220:373|220:373|311:310,1,225.000008583069,10|8,0:0|0:0,0:0:0:0:
512,157,41278,5,8,0:0:0:0:
503,152,41352,1,0,0:0:0:0:
489,154,41426,1,0,1:0:0:0:
467,165,41500,1,0,0:0:0:0:
436,164,41575,1,10,0:0:0:0:
398,154,41649,1,2,0:0:0:0:
357,159,41723,1,10,0:0:0:0:
320,186,41797,1,2,0:0:0:0:
285,174,41872,6,0,L|258:169,1,25,0|0,1:0|0:0,0:0:0:0:
229,265,42020,2,0,L|202:270,1,25,0|0,0:0|0:0,0:0:0:0:
81,218,42169,5,10,0:1:0:0:
66,205,42243,1,0,0:1:0:0:
81,191,42317,1,2,0:1:0:0:
67,166,42392,1,0,0:1:0:0:
67,166,42466,6,0,L|52:130,1,25,8|0,0:0|0:0,0:0:0:0:
1,57,42614,2,0,L|10:34,1,25,0|0,1:0|0:0,0:0:0:0:
154,57,42763,6,0,L|118:72,1,25,8|0,0:0|0:0,0:0:0:0:
259,139,42911,2,0,L|236:130,1,25,0|0,1:0|1:0,0:0:0:0:
84,290,43060,6,0,L|70:246,1,25,0|0,1:0|0:0,0:0:0:0:
77,266,43208,2,0,B|212:306|176:137|339:167,1,300,8|0,0:0|0:0,0:0:0:0:
338,166,43802,5,0,0:0:0:0:
425,19,43951,5,2,0:1:0:0:
419,31,44026,1,0,0:0:0:0:
418,47,44100,1,2,1:0:0:0:
419,64,44174,1,0,0:0:0:0:
425,76,44248,5,2,1:2:0:0:
423,96,44322,1,0,0:0:0:0:
422,122,44396,2,0,P|415:151|417:175,1,50,2|0,0:0|0:0,0:0:0:0:
312,215,44545,5,10,0:0:0:0:
314,195,44619,1,0,0:0:0:0:
315,169,44693,2,0,P|322:140|320:116,1,50,2|0,1:2|1:0,0:0:0:0:
237,33,44842,5,10,0:0:0:0:
212,45,44917,1,0,0:0:0:0:
184,48,44991,1,2,0:0:0:0:
157,40,45065,1,0,0:0:0:0:
133,31,45139,5,10,0:0:0:0:
89,48,45214,1,0,0:0:0:0:
73,92,45288,1,2,1:2:0:0:
89,143,45362,1,0,1:0:0:0:
89,143,45436,6,0,L|77:295,1,150,6|0,1:0|0:0,0:0:0:0:
191,332,45733,5,10,0:0:0:0:
193,321,45807,1,0,0:0:0:0:
194,311,45882,1,2,0:0:0:0:
195,302,45956,1,0,1:0:0:0:
225,275,46030,5,10,0:0:0:0:
236,277,46104,1,0,0:0:0:0:
246,278,46179,1,0,1:0:0:0:
254,277,46253,1,0,0:0:0:0:
263,278,46327,6,0,L|260:207,1,50,10|0,0:0|0:0,0:0:0:0:
185,167,46476,2,0,L|188:96,1,50,10|0,0:0|0:0,0:0:0:0:
406,40,46624,6,0,L|411:75,1,25,0|0,0:0|0:0,0:0:0:0:
338,137,46773,2,0,L|332:172,1,25,0|0,0:0|0:0,0:0:0:0:
409,299,46921,5,10,0:1:0:0:
399,313,46995,1,0,0:0:0:0:
382,293,47070,1,2,0:1:0:0:
366,324,47144,1,0,0:0:0:0:
366,324,47218,6,0,L|323:331,1,25,8|0,0:0|0:0,0:0:0:0:
254,286,47367,2,0,L|211:293,1,25,0|0,1:0|0:0,0:0:0:0:
135,366,47515,6,0,L|92:373,1,25,8|0,0:0|0:0,0:0:0:0:
150,227,47664,2,0,L|107:234,1,25,0|0,1:0|1:0,0:0:0:0:
19,288,47812,5,2,1:2:0:0:
224,138,47961,1,2,1:2:0:0:
225,158,48035,1,0,0:0:0:0:
225,175,48109,1,10,0:0:0:0:
7,163,48258,2,0,L|61:167,1,50,2|0,0:0|0:0,0:0:0:0:
137,46,48406,5,2,0:0:0:0:
197,67,48481,1,0,0:0:0:0:
244,59,48555,1,2,1:2:0:0:
278,41,48629,1,0,0:0:0:0:
308,24,48703,1,2,0:0:0:0:
334,20,48778,1,0,0:0:0:0:
352,25,48852,1,2,1:2:0:0:
363,37,48926,1,0,0:0:0:0:
368,47,49000,5,2,0:0:0:0:
325,129,49149,1,2,0:0:0:0:
236,278,49594,5,0,0:0:0:0:
244,274,49668,1,0,0:0:0:0:
256,271,49742,1,0,1:0:0:0:
269,272,49816,1,0,0:0:0:0:
280,277,49891,1,8,0:0:0:0:
291,286,49965,1,0,0:0:0:0:
310,291,50039,1,0,1:0:0:0:
340,287,50113,1,0,1:0:0:0:
340,287,50188,54,0,P|331:220|336:172,1,100,6|0,1:2|0:0,0:0:0:0:
399,97,50486,1,8,0:0:0:0:
310,35,50634,2,0,B|223:84|223:84|119:58,1,200,2|0,0:0|1:0,0:0:0:0:
19,215,51080,1,10,0:0:0:0:
123,186,51228,1,2,0:0:0:0:
68,381,51377,54,0,L|80:252,1,100,6|0,1:2|0:0,0:0:0:0:
253,266,51674,1,8,0:0:0:0:
208,336,51822,1,2,0:0:0:0:
188,182,51971,2,0,L|176:53,1,100,2|0,0:0|0:0,0:0:0:0:
288,173,52268,1,10,0:0:0:0:
233,246,52416,1,0,0:0:0:0:
310,324,52565,6,0,B|357:308|418:325,1,100,6|0,1:2|0:0,0:0:0:0:
494,173,52862,1,8,0:0:0:0:
337,181,53010,2,0,B|443:181|410:274|519:252,1,200,2|0,0:0|1:0,0:0:0:0:
351,268,53456,1,10,0:0:0:0:
270,234,53605,1,2,0:0:0:0:
247,57,53753,6,0,P|253:141|257:191,1,100,4|0,1:2|0:0,0:0:0:0:
186,268,54050,1,8,0:0:0:0:
73,211,54198,2,0,B|156:159|156:159|280:185,1,200,2|0,1:2|1:0,0:0:0:0:
334,97,54644,2,0,L|330:146,1,50,8|0,0:0|0:0,0:0:0:0:
447,210,54792,1,0,1:0:0:0:
447,210,54867,1,0,1:0:0:0:
447,210,54941,6,0,P|374:211|345:337,1,200,6|8,1:2|0:0,0:0:0:0:
171,369,55387,2,0,B|257:322|257:322|368:359,1,200,2|0,0:0|1:0,0:0:0:0:
180,192,55832,1,10,0:0:0:0:
144,263,55981,1,2,0:0:0:0:
283,114,56129,54,0,L|265:230,1,100,6|0,1:2|0:0,0:0:0:0:
366,71,56426,1,8,0:0:0:0:
103,81,56575,2,0,B|199:116|199:116|300:68,1,200,2|0,0:0|0:0,0:0:0:0:
118,186,57020,1,10,0:0:0:0:
27,180,57169,1,0,0:0:0:0:
208,278,57317,6,0,B|95:267,1,100,6|0,1:2|0:0,0:0:0:0:
244,382,57614,1,8,0:0:0:0:
316,258,57763,2,0,B|283:210|283:210|298:65,1,200,2|0,0:0|1:0,0:0:0:0:
422,238,58208,1,10,0:0:0:0:
387,343,58357,1,2,0:0:0:0:
507,123,58505,54,0,L|404:120,1,100,6|0,1:2|0:0,0:0:0:0:
320,267,58802,1,8,0:0:0:0:
487,254,58951,2,0,B|391:280|403:174|299:189,1,200,2|0,1:2|1:0,0:0:0:0:
309,187,59322,1,0,1:0:0:0:
309,187,59396,1,10,0:0:0:0:
334,288,59545,1,0,1:0:0:0:
346,322,59619,1,0,1:0:0:0:
329,347,59693,5,6,1:2:0:0:
208,371,59842,1,0,0:0:0:0:
81,354,59990,1,8,0:0:0:0:
50,237,60139,2,0,B|155:272|155:272|237:234,1,200,2|0,0:0|1:0,0:0:0:0:
268,35,60585,2,0,B|286:146,1,100,10|2,0:0|0:0,0:0:0:0:
76,157,60882,6,0,B|84:127|84:127|66:61,1,100,6|0,1:2|0:0,0:0:0:0:
177,148,61179,1,8,0:0:0:0:
187,351,61327,2,0,B|179:320|179:320|197:254,1,100,0|2,1:0|0:0,0:0:0:0:
86,341,61624,1,0,0:0:0:0:
158,151,61773,1,10,0:0:0:0:
55,174,61921,1,2,1:2:0:0:
279,195,62070,5,6,1:2:0:0:
279,195,62218,2,0,P|365:216|437:200,1,150,2|0,0:0|0:0,0:0:0:0:
424,205,62515,2,0,L|401:106,1,101,2|0,0:0|0:0,0:0:0:0:
457,50,62812,1,0,1:0:0:0:
283,48,62961,2,0,L|171:28,1,100,10|2,0:0|0:0,0:0:0:0:
25,213,63258,54,0,L|143:204,1,100,6|0,1:2|0:0,0:0:0:0:
164,313,63555,1,8,0:0:0:0:
40,330,63703,2,0,P|17:285|21:235,1,101,2|0,0:0|0:0,0:0:0:0:
196,146,64000,1,0,1:0:0:0:
229,333,64149,2,0,L|180:324,1,50,10|0,0:0|0:0,0:0:0:0:
354,226,64297,1,0,1:0:0:0:
354,226,64372,1,0,1:0:0:0:
354,226,64446,6,0,B|427:212|427:212|494:251,1,150,6|0,1:2|0:0,0:0:0:0:
396,346,64743,1,8,0:0:0:0:
261,254,64891,2,0,B|241:149|241:149,1,100,2|0,0:0|0:0,0:0:0:0:
350,106,65188,1,0,1:0:0:0:
188,49,65337,1,10,0:0:0:0:
69,160,65486,2,0,L|119:154,1,50.5,2|0,1:2|0:0,0:0:0:0:
335,37,65634,6,0,B|317:88|317:88|341:142,1,100,6|0,1:2|0:0,0:0:0:0:
475,94,65931,1,8,0:0:0:0:
288,197,66080,2,0,P|357:163|453:233,1,200,2|0,0:0|0:0,0:0:0:0:
353,361,66525,1,10,0:0:0:0:
198,290,66674,1,0,1:0:0:0:
200,271,66748,1,0,1:0:0:0:
193,248,66822,5,2,1:2:0:0:
78,265,68901,5,0,1:0:0:0:
78,265,68976,1,0,1:0:0:0:
78,265,69050,1,0,1:0:0:0:
78,265,69124,1,0,1:0:0:0:
78,265,69198,6,0,L|159:249,1,59.9999981689454,6|0,1:2|0:0,0:0:0:0:
149,265,69346,2,0,L|91:277,1,59.9999981689454,0|0,1:0|0:0,0:0:0:0:
203,326,69495,2,0,B|261:353|261:353|315:315,1,119.999996337891,8|2,0:0|0:0,0:0:0:0:
394,308,69717,1,0,0:0:0:0:
394,308,69792,2,0,L|414:390,1,59.9999981689454,0|0,0:0|0:0,0:0:0:0:
475,247,69940,5,0,0:0:0:0:
463,225,70015,1,0,0:0:0:0:
474,195,70089,1,8,0:0:0:0:
374,229,70237,1,0,0:0:0:0:
446,76,70386,5,6,1:2:0:0:
396,140,70534,1,0,0:0:0:0:
318,37,70683,101,8,0:0:0:0:
217,14,70831,2,0,L|225:80,1,59.9999981689454
256,240,70980,5,8,0:0:0:0:
242,261,71054,1,0,0:0:0:0:
224,278,71128,1,0,1:2:0:0:
183,282,71203,1,0,0:0:0:0:
139,274,71277,1,8,0:0:0:0:
103,264,71351,1,0,0:0:0:0:
76,269,71425,1,0,0:0:0:0:
59,278,71500,1,0,1:0:0:0:
59,278,71574,6,0,B|44:223|44:223|63:151,1,119.999996337891,6|0,1:2|0:0,0:0:0:0:
154,120,71797,1,0,0:0:0:0:
154,120,71871,2,0,L|149:184,1,59.9999981689454,8|0,0:0|0:0,0:0:0:0:
69,18,72019,2,0,L|74:82,1,59.9999981689454,2|8,1:2|0:0,0:0:0:0:
211,28,72168,5,0,1:0:0:0:
272,70,72316,1,0,1:0:0:0:
231,222,72465,5,10,0:0:0:0:
298,180,72613,1,2,1:2:0:0:
464,39,72762,54,0,P|385:22|334:60,1,119.999996337891,6|0,1:2|0:0,0:0:0:0:
480,247,72985,2,0,P|425:267|369:247,1,119.999996337891,2|0,0:0|0:0,0:0:0:0:
512,139,73208,2,0,L|453:143,1,59.9999981689454,2|8,1:2|0:0,0:0:0:0:
282,145,73356,5,10,0:0:0:0:
278,133,73430,1,8,0:0:0:0:
272,119,73505,2,0,L|268:179,1,59.9999981689454,0|0,1:0|0:0,0:0:0:0:
87,359,73653,5,10,0:1:0:0:
120,319,73727,1,0,0:0:0:0:
124,273,73802,1,0,1:0:0:0:
113,246,73876,1,0,1:0:0:0:
113,246,73950,6,0,L|188:250,1,59.9999981689454,6|0,1:2|0:0,0:0:0:0:
249,273,74099,2,0,L|189:276,1,59.9999981689454,0|0,1:0|0:0,0:0:0:0:
10,119,74248,6,0,L|85:123,1,59.9999981689454,10|0,0:0|0:0,0:0:0:0:
146,146,74397,2,0,L|86:149,1,59.9999981689454,0|8,1:0|0:0,0:0:0:0:
285,190,74544,5,2,1:2:0:0:
312,161,74618,1,8,0:0:0:0:
284,150,74693,1,0,0:0:0:0:
300,141,74767,1,0,0:0:0:0:
287,115,74841,5,8,0:0:0:0:
276,71,74916,1,0,0:0:0:0:
283,40,74990,1,0,0:0:0:0:
299,22,75064,1,0,0:0:0:0:
299,22,75139,6,0,B|243:2|243:2|173:20,1,119.999996337891,6|0,1:2|0:0,0:0:0:0:
109,78,75361,1,0,0:0:0:0:
109,78,75435,2,0,L|98:20,1,59.9999981689454,10|0,0:0|0:0,0:0:0:0:
222,161,75584,2,0,L|234:103,1,59.9999981689454,0|0,1:0|0:0,0:0:0:0:
167,230,75732,5,8,0:0:0:0:
71,252,75881,1,0,1:0:0:0:
245,273,76029,5,8,0:0:0:0:
347,346,76178,2,0,L|356:270,1,59.9999981689454,0|0,1:0|1:0,0:0:0:0:
173,357,76326,5,6,1:2:0:0:
256,186,76475,1,0,0:0:0:0:
81,173,76623,2,0,L|-7:194,1,59.9999981689454,10|0,0:0|0:0,0:0:0:0:
6,193,76772,6,0,B|83:248|83:248|179:220,1,179.999994506836,2|0,1:2|0:0,0:0:0:0:
224,150,77069,2,0,P|217:120|210:92,1,59.9999981689454,0|0,1:0|0:0,0:0:0:0:
410,217,77217,5,10,0:0:0:0:
351,353,77366,1,2,1:2:0:0:
153,319,77515,6,0,B|211:333|211:333|274:297,1,119.999996337891,6|0,1:2|0:0,0:0:0:0:
320,241,77737,1,0,0:0:0:0:
320,241,77812,2,0,B|301:165,1,59.9999981689454,8|0,0:0|0:0,0:0:0:0:
82,208,77960,2,0,B|86:271,1,59.9999981689454,0|0,1:0|1:0,0:0:0:0:
50,111,78109,5,10,0:0:0:0:
62,70,78183,1,10,0:0:0:0:
92,47,78257,1,0,1:2:0:0:
145,44,78331,1,0,0:0:0:0:
191,63,78406,5,10,0:0:0:0:
199,37,78480,1,0,1:2:0:0:
233,53,78554,1,2,1:2:0:0:
236,26,78628,1,2,1:2:0:0:
236,26,78703,6,0,L|308:33,1,59.9999981689454,6|0,1:2|0:0,0:0:0:0:
360,52,78852,2,0,L|300:46,1,59.9999981689454,0|0,1:0|0:0,0:0:0:0:
429,16,79000,1,8,0:0:0:0:
500,139,79149,2,0,B|391:154|417:50|285:90,1,179.999994506836,2|0,0:0|0:0,0:0:0:0:
338,177,79445,5,0,0:0:0:0:
323,211,79519,1,0,0:0:0:0:
339,254,79594,1,8,0:0:0:0:
260,147,79742,1,0,0:0:0:0:
230,263,79891,5,6,1:2:0:0:
185,370,80039,1,0,0:0:0:0:
16,220,80188,5,8,0:0:0:0:
118,241,80336,2,0,L|125:309,1,59.9999981689454,0|0,0:0|0:0,0:0:0:0:
85,111,80485,5,8,0:0:0:0:
103,123,80559,1,0,0:0:0:0:
132,129,80633,1,0,1:2:0:0:
168,116,80708,1,0,0:0:0:0:
215,106,80782,1,8,0:0:0:0:
256,111,80856,1,0,0:0:0:0:
279,128,80930,1,0,1:2:0:0:
288,142,81005,1,0,1:0:0:0:
288,142,81079,54,0,B|348:125|348:125|403:140,1,119.999996337891,6|0,1:2|0:0,0:0:0:0:
488,168,81302,1,0,0:0:0:0:
488,168,81376,2,0,L|503:254,1,59.9999981689454,8|0,0:0|0:0,0:0:0:0:
353,214,81524,2,0,L|338:300,1,59.9999981689454,2|8,1:2|0:0,0:0:0:0:
404,347,81673,5,0,1:0:0:0:
260,301,81821,1,0,1:0:0:0:
123,359,81970,5,10,0:0:0:0:
237,313,82118,1,2,1:2:0:0:
52,256,82267,6,0,P|54:197|130:223,1,119.999996337891,6|0,1:2|0:0,0:0:0:0:
220,166,82490,2,0,P|218:107|142:133,1,119.999996337891,2|0,0:0|0:0,0:0:0:0:
17,76,82713,2,0,P|80:87|102:83,1,59.9999981689454,2|8,1:2|0:0,0:0:0:0:
299,33,82861,5,10,0:0:0:0:
311,27,82935,1,8,0:0:0:0:
322,18,83010,2,0,L|264:30,1,59.9999981689454,0|0,1:0|0:0,0:0:0:0:
406,221,83158,5,10,0:1:0:0:
432,176,83232,1,0,0:0:0:0:
431,130,83307,1,0,1:0:0:0:
423,94,83381,1,0,1:0:0:0:
422,94,83455,6,0,L|318:105,1,59.9999981689454,6|0,1:2|0:0,0:0:0:0:
287,112,83604,2,0,L|391:123,1,59.9999981689454,0|0,1:0|0:0,0:0:0:0:
181,225,83752,6,0,L|285:236,1,59.9999981689454,10|0,0:0|0:0,0:0:0:0:
316,243,83901,2,0,L|212:254,1,59.9999981689454,0|8,1:0|0:0,0:0:0:0:
34,327,84049,5,2,1:2:0:0:
8,299,84123,1,8,0:0:0:0:
0,258,84198,1,0,0:0:0:0:
8,219,84272,1,0,0:0:0:0:
35,202,84346,5,8,0:0:0:0:
73,224,84420,1,0,0:0:0:0:
116,226,84495,1,0,0:0:0:0:
149,211,84569,1,0,0:0:0:0:
149,211,84643,6,0,L|160:269,1,59.9999981689454,6|0,1:2|0:0,0:0:0:0:
267,159,84792,2,0,L|255:217,1,59.9999981689454,0|0,0:0|0:0,0:0:0:0:
205,368,84940,5,10,0:0:0:0:
339,339,85089,1,0,1:0:0:0:
512,188,85237,5,8,0:0:0:0:
380,240,85386,2,0,L|371:316,1,59.9999981689454,0|0,1:0|0:0,0:0:0:0:
482,351,85534,5,8,0:0:0:0:
265,293,85684,2,0,L|272:233,1,59.9999981689454,0|0,1:0|0:0,0:0:0:0:
413,0,85832,5,0,0:0:0:0:
502,65,85980,1,0,0:0:0:0:
390,95,86128,1,0,0:0:0:0:
297,34,86277,1,2,0:0:0:0:
285,22,86722,5,0,0:0:0:0:
285,22,86871,1,0,0:0:0:0:
285,22,87019,1,2,0:0:0:0:
194,54,87466,5,2,0:0:0:0:
499,17,87614,5,0,0:0:0:0:
489,26,87689,1,0,0:0:0:0:
498,43,87763,1,0,0:0:0:0:
479,60,87837,1,0,0:0:0:0:
500,99,87912,1,0,0:0:0:0:
465,126,87986,1,0,0:0:0:0:
502,158,88060,1,0,0:0:0:0:
466,195,88134,1,0,0:0:0:0:
479,237,88208,6,0,L|324:219,1,139.999995727539,6|8,1:2|0:0,0:0:0:0:
340,221,88654,1,2,0:0:0:0:
479,237,89099,6,0,L|430:232,1,34.9999989318848,10|0,0:0|0:0,0:0:0:0:
403,308,89248,2,0,L|353:302,1,34.9999989318848,2|0,0:0|0:0,0:0:0:0:
272,356,89396,5,2,1:2:0:0:
292,228,89545,1,0,0:0:0:0:
314,111,89693,1,10,0:0:0:0:
314,111,90139,5,0,1:0:0:0:
150,197,90288,2,0,L|208:187,1,34.9999989318848,10|0,0:0|0:0,0:0:0:0:
58,137,90436,2,0,L|116:127,1,34.9999989318848,0|0,1:0|0:0,0:0:0:0:
314,111,90585,6,0,L|169:86,1,139.999995727539,2|10,1:2|0:0,0:0:0:0:
176,87,91030,1,0,1:0:0:0:
314,111,91476,5,10,0:0:0:0:
325,137,91550,1,0,0:0:0:0:
299,176,91624,1,2,0:0:0:0:
299,176,91773,6,0,L|293:225,1,34.9999989318848,2|0,1:2|0:0,0:0:0:0:
312,236,91921,2,0,L|306:285,1,34.9999989318848,0|0,0:0|0:0,0:0:0:0:
207,203,92070,6,0,L|201:252,1,34.9999989318848,8|0,0:0|0:0,0:0:0:0:
222,260,92218,2,0,L|216:309,1,34.9999989318848,2|0,0:0|0:0,0:0:0:0:
102,221,92367,6,0,L|96:270,1,34.9999989318848,2|0,1:2|0:0,0:0:0:0:
113,281,92515,2,0,L|107:330,1,34.9999989318848,0|0,0:0|0:0,0:0:0:0:
4,182,92664,5,10,0:0:0:0:
6,171,92738,1,0,0:0:0:0:
19,157,92812,1,2,1:2:0:0:
46,136,92887,1,0,1:0:0:0:
33,115,92961,6,0,L|187:93,1,139.999995727539,6|8,1:2|0:0,0:0:0:0:
179,101,93406,1,2,0:0:0:0:
33,115,93852,6,0,L|72:109,1,34.9999989318848,10|0,0:0|0:0,0:0:0:0:
111,187,94000,2,0,L|150:181,1,34.9999989318848,2|0,0:0|0:0,0:0:0:0:
247,99,94149,5,2,1:2:0:0:
226,210,94297,1,0,0:0:0:0:
205,324,94446,1,10,0:0:0:0:
205,324,95040,6,0,L|308:341,1,104.999996795654,10|0,0:0|0:0,0:0:0:0:
387,333,95338,6,0,L|242:308,1,139.999995727539,2|0,1:2|0:0,0:0:0:0:
249,309,95783,1,2,1:2:0:0:
57,292,96229,5,10,0:0:0:0:
46,266,96303,1,0,0:0:0:0:
72,227,96377,1,2,0:0:0:0:
72,227,96526,6,0,L|78:178,1,34.9999989318848,2|0,1:2|0:0,0:0:0:0:
58,163,96674,2,0,L|64:114,1,34.9999989318848,0|0,1:0|0:0,0:0:0:0:
168,161,96823,6,0,L|174:112,1,34.9999989318848,8|0,0:0|0:0,0:0:0:0:
146,103,96971,2,0,L|152:54,1,34.9999989318848,2|0,1:2|0:0,0:0:0:0:
280,109,97120,6,0,L|286:60,1,34.9999989318848,2|0,0:0|0:0,0:0:0:0:
255,54,97268,2,0,L|261:5,1,34.9999989318848,0|0,1:0|1:0,0:0:0:0:
361,155,97417,5,10,0:0:0:0:
359,166,97491,1,2,0:0:0:0:
346,180,97565,1,2,1:2:0:0:
319,201,97640,1,0,1:0:0:0:
332,222,97714,6,0,L|178:244,1,139.999995727539,6|0,1:2|0:0,0:0:0:0:
193,241,98159,1,0,0:0:0:0:
332,222,98604,6,0,L|285:228,1,34.9999989318848,8|0,0:0|0:0,0:0:0:0:
318,318,98753,2,0,L|271:324,1,34.9999989318848,2|0,0:0|0:0,0:0:0:0:
162,365,98901,5,2,1:2:0:0:
137,251,99050,1,0,0:0:0:0:
117,142,99198,1,10,0:0:0:0:
117,142,99792,6,0,L|182:147,1,34.9999989318848,10|0,0:0|0:0,0:0:0:0:
215,102,99941,2,0,L|280:107,1,34.9999989318848,0|0,1:0|0:0,0:0:0:0:
361,184,100089,6,0,L|223:207,1,139.999995727539,2|8,1:2|0:0,0:0:0:0:
223,207,100534,1,2,0:0:0:0:
361,184,100981,5,10,0:0:0:0:
350,158,101055,1,0,0:0:0:0:
376,119,101129,1,2,0:0:0:0:
376,119,101278,6,0,L|382:70,1,34.9999989318848,2|0,1:2|0:0,0:0:0:0:
363,59,101426,2,0,L|369:10,1,34.9999989318848,0|0,0:0|0:0,0:0:0:0:
267,176,101575,6,0,L|273:127,1,34.9999989318848,8|0,0:0|0:0,0:0:0:0:
252,119,101723,2,0,L|258:70,1,34.9999989318848,2|0,0:0|0:0,0:0:0:0:
162,235,101872,6,0,L|168:186,1,34.9999989318848,2|0,1:2|0:0,0:0:0:0:
151,175,102020,2,0,L|157:126,1,34.9999989318848,0|0,0:0|0:0,0:0:0:0:
41,257,102169,5,10,0:0:0:0:
43,268,102243,1,0,0:0:0:0:
56,282,102317,1,2,1:2:0:0:
83,303,102392,1,0,1:0:0:0:
70,324,102466,6,0,L|224:346,1,139.999995727539,6|8,1:2|0:0,0:0:0:0:
208,343,102911,1,2,0:0:0:0:
70,324,103357,6,0,L|130:332,1,34.9999989318848,10|0,0:0|0:0,0:0:0:0:
154,250,103505,2,0,L|214:258,1,34.9999989318848,2|0,0:0|0:0,0:0:0:0:
359,349,103654,5,2,1:2:0:0:
327,229,103802,1,0,0:0:0:0:
296,117,103951,1,10,0:0:0:0:
296,117,104545,6,0,L|185:110,1,104.999996795654,8|0,1:0|0:0,0:0:0:0:
169,109,104842,1,2,0:0:0:0:
169,109,106773,5,0,1:0:0:0:
169,109,106847,1,0,1:0:0:0:
169,109,106921,1,2,1:2:0:0:
97,191,107070,5,2,1:2:0:0:
97,191,107144,1,2,1:2:0:0:
97,191,107218,1,6,1:2:0:0:
414,192,107515,1,8,0:0:0:0:
127,285,108109,1,10,0:0:0:0:
384,98,108703,1,8,0:0:0:0:
207,342,109297,1,10,0:0:0:0:
304,40,109892,1,10,0:0:0:0:
305,342,110486,1,10,0:0:0:0:
207,41,111080,1,10,0:0:0:0:
384,285,111674,1,10,0:0:0:0:
127,98,112268,5,10,0:0:0:0:
414,192,112862,1,10,0:0:0:0:
97,191,113456,1,10,0:0:0:0:
384,98,114050,1,10,0:0:0:0:
127,285,114644,1,10,0:0:0:0:
304,40,115238,1,10,0:0:0:0:
207,342,115535,1,2,1:2:0:0:
316,251,115832,1,8,0:0:0:0:
181,204,115981,1,2,1:2:0:0:
416,247,116278,5,0,1:0:0:0:
443,213,116352,1,0,1:0:0:0:
419,179,116426,1,10,0:0:0:0:
190,99,116575,1,0,1:0:0:0:
159,70,116649,1,0,1:0:0:0:
183,37,116723,5,6,1:2:0:0:
304,13,116872,1,0,0:0:0:0:
427,42,117020,1,8,0:0:0:0:
461,162,117169,2,0,B|356:127|356:127|274:165,1,200,2|0,0:0|1:0,0:0:0:0:
198,230,117615,2,0,B|180:119,1,100,10|2,0:0|0:0,0:0:0:0:
50,261,117912,6,0,B|42:291|42:291|60:357,1,100,6|0,1:2|0:0,0:0:0:0:
159,310,118209,1,8,0:0:0:0:
54,81,118357,2,0,B|62:112|62:112|44:178,1,100,0|2,1:0|0:0,0:0:0:0:
173,90,118654,1,0,0:0:0:0:
249,220,118803,1,10,0:0:0:0:
321,161,118951,1,2,1:2:0:0:
486,270,119100,5,6,1:2:0:0:
486,270,119248,2,0,P|400:249|328:265,1,150,2|0,0:0|0:0,0:0:0:0:
341,260,119545,2,0,L|364:359,1,100,2|0,0:0|0:0,0:0:0:0:
236,351,119842,1,0,1:0:0:0:
147,241,119991,2,0,L|259:261,1,100,10|2,0:0|0:0,0:0:0:0:
100,151,120288,54,0,L|-18:160,1,100,6|0,1:2|0:0,0:0:0:0:
78,14,120585,1,8,0:0:0:0:
220,40,120733,2,0,P|243:85|239:135,1,101,2|0,0:0|0:0,0:0:0:0:
296,209,121030,1,0,1:0:0:0:
374,89,121179,2,0,L|423:98,1,50,10|0,0:0|0:0,0:0:0:0:
512,204,121327,1,0,1:0:0:0:
512,204,121402,1,0,1:0:0:0:
512,204,121476,6,0,B|439:218|439:218|372:179,1,150,6|0,1:2|0:0,0:0:0:0:
272,104,121773,1,8,0:0:0:0:
206,185,121921,2,0,B|226:290|226:290,1,100,2|0,0:0|0:0,0:0:0:0:
352,328,122218,1,0,1:0:0:0:
265,370,122367,1,10,0:0:0:0:
371,242,122515,2,0,L|321:248,1,50.5,2|0,1:2|0:0,0:0:0:0:
120,376,122664,6,0,B|138:325|138:325|114:271,1,100,6|0,1:2|0:0,0:0:0:0:
20,296,122961,1,8,0:0:0:0:
203,211,123110,2,0,P|134:245|38:175,1,200,2|0,0:0|0:0,0:0:0:0:
113,84,123555,1,10,0:0:0:0:
217,92,123704,1,0,1:0:0:0:
215,111,123778,1,0,1:0:0:0:
222,134,123852,5,2,1:2:0:0:
