osu file format v14

[General]
AudioFilename: audio.mp3
AudioLeadIn: 1000
PreviewTime: 40079
Countdown: 0
SampleSet: Soft
StackLeniency: 0.7
Mode: 0
LetterboxInBreaks: 0
WidescreenStoryboard: 0

[Editor]
Bookmarks: 2736,10746,13413,21403,24079,33913,45413,47236,56079,63236,64079,74746
DistanceSpacing: 1.3
BeatDivisor: 8
GridSize: 4
TimelineZoom: 3.199999

[Metadata]
Title:Saiyajin
TitleUnicode:Saiyajin
Artist:Thaehan
ArtistUnicode:Thaehan
Creator:pinataman
Version:Light Insane
Source:osu!
Tags:Power Up Dragon ball db dbz ドラゴンボール remix Featured Artist electronic
BeatmapID:1479203
BeatmapSetID:656764

[Difficulty]
HPDrainRate:5.5
CircleSize:3.7
OverallDifficulty:7
ApproachRate:8
SliderMultiplier:1.4
SliderTickRate:1

[Events]
//Background and Video events
0,0,"639668.jpg",0,0
//Break Periods
2,34186,39244
//Storyboard Layer 0 (Background)
//Storyboard Layer 1 (Fail)
//Storyboard Layer 2 (Pass)
//Storyboard Layer 3 (Foreground)
//Storyboard Sound Samples

[TimingPoints]
70,333.333333333333,4,2,1,100,1,0
736,-100,4,2,1,50,0,0
903,-100,4,2,1,100,0,0
1069,-100,4,2,1,50,0,0
1236,-100,4,2,1,100,0,0
33986,-100,4,2,1,70,0,0
40069,-100,4,2,1,80,0,0
42736,-100,4,2,1,90,0,0
45403,-100,4,2,1,100,0,1
54736,-100,4,2,1,100,0,0
56069,-100,4,2,1,100,0,0
60403,-100,4,2,1,80,0,0
61236,-100,4,2,1,100,0,0
63653,-100,4,2,1,5,0,0
63736,-100,4,2,1,100,0,0
64069,-100,4,2,1,100,0,1
85696,666.666666666667,4,2,1,100,1,0

[Colours]
Combo1 : 255,140,0
Combo2 : 0,110,255
Combo3 : 255,210,0

[HitObjects]
303,334,70,5,2,0:0:0:0:
374,277,236,1,2,0:0:0:0:
388,367,403,1,2,0:0:0:0:
444,267,569,2,0,L|374:277,1,70,2|0,0:0|0:0,0:0:0:0:
330,198,903,2,0,L|399:189,1,70,2|0,0:0|0:0,0:0:0:0:
509,114,1236,6,0,B|453:74|453:74|384:53,1,140,2|2,0:0|0:0,0:0:0:0:
292,60,1736,2,0,P|277:92|274:127,1,70,2|2,0:0|0:0,0:0:0:0:
330,198,2069,1,0,3:0:0:0:
344,217,2152,1,0,3:0:0:0:
353,240,2235,1,0,3:0:0:0:
355,264,2318,1,0,3:0:0:0:
350,288,2403,2,0,P|319:305|284:311,1,70,0|0,3:0|3:0,0:0:0:0:
202,276,2736,6,0,L|132:286,1,70,4|0,3:2|0:0,0:0:0:0:
78,212,3069,2,0,L|148:202,1,70,8|0,0:0|0:0,0:0:0:0:
176,116,3403,2,0,L|106:126,1,70
17,144,3736,1,10,0:0:0:0:
78,212,3903,1,0,0:0:0:0:
106,125,4069,6,0,P|130:62|199:46,1,140,2|8,0:0|0:0,0:0:0:0:
294,54,4569,1,2,0:0:0:0:
294,54,4653,1,0,0:0:0:0:
294,54,4736,2,0,L|364:44,1,70,2|0,0:0|0:0,0:0:0:0:
454,39,5069,2,0,L|444:109,1,70,10|0,0:0|0:0,0:0:0:0:
380,225,5403,6,0,P|354:203|336:173,2,70,2|0|10,0:0|0:0|0:0,0:0:0:0:
469,247,5903,1,0,0:0:0:0:
407,313,6069,2,0,P|373:316|339:307,2,70,2|0|10,0:0|0:0|0:0,0:0:0:0:
473,251,6569,1,0,0:0:0:0:
407,134,6736,6,0,P|372:130|338:139,1,70,2|0,0:0|0:0,0:0:0:0:
267,196,7069,1,10,0:0:0:0:
176,182,7236,1,0,0:0:0:0:
209,267,7403,2,0,L|235:332,1,70,2|0,0:0|0:0,0:0:0:0:
309,383,7736,2,0,L|335:317,1,70,10|8,0:0|0:0,0:0:0:0:
385,240,8069,6,0,P|335:194|267:195,1,140,4|8,0:0|0:0,0:0:0:0:
100,281,8736,1,2,0:0:0:0:
107,190,8903,1,0,0:0:0:0:
183,238,9069,1,10,0:0:0:0:
190,147,9236,1,0,0:0:0:0:
267,195,9403,6,0,P|273:268|228:320,1,140,2|8,0:0|0:0,0:0:0:0:
155,356,9903,1,2,0:0:0:0:
155,356,9987,1,0,0:0:0:0:
155,356,10070,2,0,L|85:346,1,70,2|0,0:0|0:0,0:0:0:0:
39,267,10403,2,0,L|109:257,1,70,10|0,0:0|0:0,0:0:0:0:
185,209,10736,5,2,0:0:0:0:
239,282,10903,1,2,0:0:0:0:
329,275,11069,2,0,L|364:271,2,35,10|0|0,0:0|0:0|0:0,0:0:0:0:
276,199,11403,5,2,0:0:0:0:
312,114,11570,1,2,0:0:0:0:
401,100,11736,2,0,L|436:96,2,35,10|0|0,0:0|0:0|0:0,0:0:0:0:
298,25,12069,5,2,3:2:0:0:
228,82,12236,1,2,3:2:0:0:
242,171,12403,1,2,3:2:0:0:
242,171,12486,1,0,3:0:0:0:
242,171,12569,1,0,3:0:0:0:
137,97,12736,5,2,3:2:0:0:
69,153,12903,1,2,3:2:0:0:
83,242,13069,1,2,3:2:0:0:
83,242,13153,1,0,3:0:0:0:
83,242,13236,1,0,3:0:0:0:
176,215,13403,6,0,L|246:205,1,70,4|0,3:2|0:0,0:0:0:0:
324,159,13736,2,0,P|301:132|269:117,1,70,8|0,0:0|0:0,0:0:0:0:
180,131,14069,2,0,L|110:141,1,70
20,149,14403,1,10,0:0:0:0:
58,66,14570,1,0,0:0:0:0:
111,141,14736,6,0,P|147:83|134:16,1,140,2|8,0:0|0:0,0:0:0:0:
58,66,15236,1,2,0:0:0:0:
58,66,15320,1,0,0:0:0:0:
58,65,15403,2,0,L|-6:93,1,70,2|0,0:0|0:0,0:0:0:0:
45,167,15736,2,0,L|109:140,1,70,10|0,0:0|0:0,0:0:0:0:
231,90,16069,6,0,L|295:116,2,70,2|0|10,0:0|0:0|0:0,0:0:0:0:
145,54,16569,1,0,0:0:0:0:
195,176,16736,2,0,L|259:202,2,70,2|0|10,0:0|0:0|0:0,0:0:0:0:
109,140,17236,1,0,0:0:0:0:
231,90,17403,6,0,L|295:64,1,70,2|0,0:0|0:0,0:0:0:0:
378,25,17736,1,10,0:0:0:0:
439,92,17903,1,0,0:0:0:0:
358,133,18069,2,0,L|348:203,1,70,2|0,0:0|0:0,0:0:0:0:
280,264,18403,2,0,L|270:194,1,70,10|8,0:0|0:0,0:0:0:0:
264,104,18736,6,0,P|233:166|172:194,1,140,4|8,0:0|0:0,0:0:0:0:
54,55,19403,1,2,0:0:0:0:
113,125,19569,1,0,0:0:0:0:
81,210,19736,1,10,0:0:0:0:
140,280,19902,1,0,0:0:0:0:
230,264,20069,6,0,P|296:255|353:295,1,140,2|8,0:0|0:0,0:0:0:0:
422,372,20570,1,2,0:0:0:0:
422,372,20653,1,0,0:0:0:0:
422,372,20736,2,0,L|432:302,1,70,2|0,0:0|0:0,0:0:0:0:
417,213,21069,2,0,L|347:223,1,70,10|0,0:0|0:0,0:0:0:0:
289,152,21403,5,2,0:0:0:0:
379,136,21569,1,2,0:0:0:0:
321,66,21736,2,0,L|286:62,2,35,10|0|0,0:0|0:0|0:0,0:0:0:0:
411,50,22069,5,2,0:0:0:0:
383,132,22235,1,2,0:0:0:0:
469,120,22403,2,0,L|504:116,2,35,10|0|0,0:0|0:0|0:0,0:0:0:0:
399,222,22736,5,2,3:2:0:0:
314,191,22902,1,2,3:2:0:0:
296,101,23069,1,2,3:2:0:0:
296,101,23153,1,0,3:0:0:0:
296,101,23236,1,0,3:0:0:0:
231,158,23403,6,0,L|161:168,1,70
70,188,23736,2,0,L|66:153,2,35,2|0|2,0:0|0:0|0:0,0:0:0:0:
138,248,24069,6,0,P|173:250|206:239,1,70,2|2,0:0|0:0,0:0:0:0:
231,158,24403,1,10,0:0:0:0:
254,165,24486,1,0,0:0:0:0:
278,167,24569,1,2,0:0:0:0:
302,162,24653,1,0,0:0:0:0:
324,152,24736,2,0,P|328:117|319:83,1,70,2|0,0:0|0:0,0:0:0:0:
231,76,25069,2,0,P|197:84|162:80,1,70,10|0,0:0|0:0,0:0:0:0:
88,24,25403,5,2,0:0:0:0:
77,115,25570,1,2,0:0:0:0:
150,172,25736,2,0,L|185:176,2,35,10|0|0,0:0|0:0|0:0,0:0:0:0:
78,224,26069,1,2,0:0:0:0:
88,320,26236,1,2,0:0:0:0:
167,264,26403,2,0,B|202:247|234:254|234:254|266:261|302:245,1,140,10|2,0:0|0:0,0:0:0:0:
298,114,26903,5,2,0:0:0:0:
298,114,26986,1,0,0:0:0:0:
298,114,27069,2,0,P|280:144|253:166,1,70,10|0,0:0|0:0,0:0:0:0:
162,168,27403,2,0,L|158:133,2,35,2|0|0,0:0|0:0|0:0,0:0:0:0:
98,233,27736,2,0,L|94:268,2,35,10|0|2,0:0|0:0|0:0,0:0:0:0:
33,169,28069,5,2,0:0:0:0:
73,87,28236,1,2,0:0:0:0:
13,17,28403,1,10,0:0:0:0:
86,89,28569,2,0,L|90:124,1,35,2|2,0:0|0:0,0:0:0:0:
361,236,29069,1,10,0:0:0:0:
345,146,29236,1,10,0:0:0:0:
276,206,29403,6,0,P|242:214|207:210,1,70,4|2,0:0|0:0,0:0:0:0:
190,121,29736,1,10,0:0:0:0:
165,126,29819,1,0,0:0:0:0:
145,139,29902,1,2,0:0:0:0:
129,158,29985,1,0,0:0:0:0:
120,181,30069,2,0,P|116:215|124:249,1,70,2|0,0:0|0:0,0:0:0:0:
211,278,30403,2,0,P|214:243|206:209,1,70,10|0,0:0|0:0,0:0:0:0:
190,121,30736,5,2,0:0:0:0:
276,148,30902,1,2,0:0:0:0:
256,58,31069,2,0,L|252:23,2,35,10|0|0,0:0|0:0|0:0,0:0:0:0:
194,125,31403,1,2,0:0:0:0:
174,35,31569,1,2,0:0:0:0:
108,98,31736,2,0,B|91:133|98:165|98:165|105:197|89:233,1,140,10|2,0:0|0:0,0:0:0:0:
32,345,32236,5,2,0:0:0:0:
32,345,32319,1,0,0:0:0:0:
32,345,32403,2,0,P|62:328|97:323,1,70,10|0,0:0|0:0,0:0:0:0:
184,295,32736,2,0,L|218:289,2,35,2|0|0,0:0|0:0|0:0,0:0:0:0:
123,228,33069,2,0,L|88:233,2,35,10|0|2,0:0|0:0|0:0,0:0:0:0:
196,170,33403,5,2,3:2:0:0:
273,207,33569,1,2,3:2:0:0:
311,125,33736,1,2,3:2:0:0:
196,170,33903,2,0,L|190:135,1,35,2|2,3:2|3:2,0:0:0:0:
256,192,40069,12,0,42403,0:0:0:0:
142,111,42736,6,0,P|171:129|193:156,1,70,2|0,3:2|3:0,0:0:0:0:
212,246,43069,2,0,L|202:316,1,70,2|0,3:2|3:0,0:0:0:0:
310,316,43403,2,0,L|300:246,1,70,2|0,3:2|3:0,0:0:0:0:
318,156,43736,2,0,P|340:129|370:111,1,70,2|0,3:2|3:0,0:0:0:0:
438,186,44069,6,0,L|473:190,7,35,2|0|2|0|2|0|2|0,3:2|3:0|3:2|3:0|3:2|3:0|3:2|0:0,0:0:0:0:
397,197,44736,2,0,B|361:256|361:256|370:326,1,140,2|2,3:2|0:0,0:0:0:0:
280,154,45403,5,4,0:0:0:0:
196,190,45569,1,0,0:0:0:0:
185,281,45736,1,10,0:0:0:0:
105,179,45903,2,0,L|109:144,1,35,0|2,0:0|0:0,0:0:0:0:
396,204,46403,2,0,P|377:234|350:256,1,70,8|0,0:0|0:0,0:0:0:0:
235,224,46736,5,2,0:0:0:0:
235,224,46819,1,0,0:0:0:0:
235,224,46903,1,2,0:0:0:0:
275,306,47069,1,10,0:0:0:0:
310,173,47236,2,0,L|314:138,1,35,0|2,0:0|0:0,0:0:0:0:
156,364,47736,2,0,L|174:296,1,70,8|0,0:0|0:0,0:0:0:0:
207,202,48069,6,0,P|179:178|147:165,2,70,2|2|10,0:0|0:0|0:0,0:0:0:0:
264,275,48569,1,0,0:0:0:0:
348,241,48736,2,0,P|381:234|416:240,2,70,2|2|10,0:0|0:0|0:0,0:0:0:0:
267,279,49236,1,0,0:0:0:0:
174,296,49403,6,0,P|139:301|104:294,1,70,2|0,0:0|0:0,0:0:0:0:
68,211,49736,2,0,P|102:216|136:210,1,70,8|0,0:0|0:0,0:0:0:0:
185,133,50069,1,2,0:0:0:0:
185,133,50153,1,0,0:0:0:0:
185,133,50236,1,0,0:0:0:0:
269,98,50403,1,10,0:0:0:0:
269,98,50486,1,0,0:0:0:0:
269,98,50569,1,8,0:0:0:0:
299,184,50736,5,4,0:0:0:0:
329,270,50903,1,0,0:0:0:0:
243,300,51069,1,10,0:0:0:0:
303,188,51236,2,0,L|360:165,1,35,0|2,0:0|0:0,0:0:0:0:
160,382,51736,2,0,P|138:353|128:320,1,70,8|0,0:0|0:0,0:0:0:0:
180,214,52069,5,2,0:0:0:0:
180,214,52153,1,0,0:0:0:0:
180,214,52236,1,2,0:0:0:0:
91,237,52402,1,10,0:0:0:0:
129,112,52569,2,0,L|125:77,1,35,0|2,0:0|0:0,0:0:0:0:
144,368,53069,2,0,L|152:298,1,70,8|0,0:0|0:0,0:0:0:0:
248,269,53403,6,0,L|256:339,2,70,2|2|10,0:0|0:0|0:0,0:0:0:0:
236,179,53902,1,0,0:0:0:0:
160,229,54069,2,0,L|152:299,2,70,2|2|10,0:0|0:0|0:0,0:0:0:0:
236,179,54569,1,0,0:0:0:0:
306,235,54736,6,0,P|310:269|303:303,1,70,2|0,0:0|0:0,0:0:0:0:
220,266,55069,2,0,P|186:251|160:228,1,70,2|0,0:0|0:0,0:0:0:0:
236,179,55403,2,0,P|265:157|298:146,1,70,2|0,0:0|0:0,0:0:0:0:
374,194,55736,1,2,3:2:0:0:
393,178,55819,1,0,3:2:0:0:
409,160,55902,1,2,3:2:0:0:
421,138,55986,1,0,3:2:0:0:
428,114,56069,6,0,L|436:44,1,70,4|0,3:2|0:0,0:0:0:0:
351,7,56403,2,0,L|281:15,1,70,10|0,0:0|0:0,0:0:0:0:
201,59,56736,2,0,L|131:51,1,70,2|0,0:0|0:0,0:0:0:0:
51,7,57069,1,10,0:0:0:0:
3,83,57236,1,0,0:0:0:0:
81,127,57403,1,2,0:0:0:0:
29,201,57569,1,0,0:0:0:0:
162,198,57736,6,0,L|183:231,2,35,2|0|0,3:2|3:2|3:2,0:0:0:0:
156,155,57986,1,2,3:2:0:0:
115,372,58403,1,8,0:0:0:0:
98,282,58569,1,0,0:0:0:0:
205,355,58736,6,0,L|275:347,1,70,2|0,0:0|0:0,0:0:0:0:
319,267,59069,2,0,L|249:259,1,70,10|0,0:0|0:0,0:0:0:0:
191,187,59403,1,2,3:2:0:0:
179,96,59569,1,2,3:2:0:0:
269,84,59736,1,2,3:2:0:0:
282,174,59903,1,2,3:2:0:0:
358,71,60069,2,0,P|346:39|325:12,1,70,2|0,3:2|0:0,0:0:0:0:
233,7,60403,6,0,L|163:15,2,70,2|2|2,0:0|0:0|0:0,0:0:0:0:
447,63,61069,1,2,0:0:0:0:
358,71,61236,5,0,3:2:0:0:
358,71,61320,1,0,3:2:0:0:
358,71,61403,1,2,3:2:0:0:
438,142,61569,2,0,L|466:162,2,35,0|0|2,3:2|3:2|3:2,0:0:0:0:
343,192,61903,2,0,L|315:212,2,35,0|0|2,3:2|3:2|3:2,0:0:0:0:
423,263,62236,2,0,L|451:283,2,35,0|0|2,3:2|3:2|3:2,0:0:0:0:
336,321,62569,5,0,3:2:0:0:
336,321,62653,1,0,3:2:0:0:
336,321,62736,1,2,3:2:0:0:
250,287,62903,1,2,3:2:0:0:
164,346,63069,1,2,3:2:0:0:
155,241,63236,6,0,P|235:199|250:288,1,210,2|4,3:2|0:0,0:0:0:0:
310,136,64069,6,0,L|380:126,1,70,4|0,3:2|0:0,0:0:0:0:
437,196,64403,2,0,L|367:206,1,70,8|0,0:0|0:0,0:0:0:0:
334,289,64736,2,0,L|404:279,1,70
493,268,65069,1,10,0:0:0:0:
437,196,65236,1,0,0:0:0:0:
403,279,65402,6,0,P|378:341|310:358,1,140,2|8,0:0|0:0,0:0:0:0:
229,342,65902,1,2,0:0:0:0:
229,342,65986,1,0,0:0:0:0:
229,342,66069,2,0,L|159:352,1,70,2|0,0:0|0:0,0:0:0:0:
69,357,66402,2,0,L|79:287,1,70,10|0,0:0|0:0,0:0:0:0:
143,171,66736,6,0,P|169:193|187:223,2,70,2|0|10,0:0|0:0|0:0,0:0:0:0:
54,149,67236,1,0,0:0:0:0:
116,83,67402,2,0,P|150:80|184:89,2,70,2|0|10,0:0|0:0|0:0,0:0:0:0:
50,145,67902,1,0,0:0:0:0:
116,262,68069,6,0,P|151:266|185:257,1,70,2|0,0:0|0:0,0:0:0:0:
256,200,68402,1,10,0:0:0:0:
347,214,68569,1,0,0:0:0:0:
314,129,68736,2,0,L|288:64,1,70,2|0,0:0|0:0,0:0:0:0:
214,13,69069,2,0,L|188:79,1,70,10|8,0:0|0:0,0:0:0:0:
137,155,69402,6,0,P|187:201|255:200,1,140,4|10,0:0|0:0,0:0:0:0:
421,114,70069,1,2,0:0:0:0:
414,205,70236,1,0,0:0:0:0:
338,157,70402,1,10,0:0:0:0:
331,248,70569,1,0,0:0:0:0:
254,200,70736,6,0,P|245:127|288:73,1,140,2|8,0:0|0:0,0:0:0:0:
368,40,71236,1,2,0:0:0:0:
368,40,71320,1,0,0:0:0:0:
368,40,71403,2,0,L|438:50,1,70,2|0,0:0|0:0,0:0:0:0:
484,129,71736,2,0,L|414:139,1,70,10|0,0:0|0:0,0:0:0:0:
332,179,72069,5,2,0:0:0:0:
278,106,72236,1,2,0:0:0:0:
188,113,72402,2,0,L|153:117,2,35,10|0|0,0:0|0:0|0:0,0:0:0:0:
241,189,72736,5,2,0:0:0:0:
205,274,72903,1,2,0:0:0:0:
116,288,73069,2,0,L|81:292,2,35,10|0|0,0:0|0:0|0:0,0:0:0:0:
219,363,73402,5,2,3:2:0:0:
289,306,73569,1,2,3:2:0:0:
275,217,73736,1,2,3:2:0:0:
275,217,73819,1,0,3:2:0:0:
275,217,73903,1,0,3:2:0:0:
380,291,74069,5,2,3:2:0:0:
448,235,74236,1,2,3:2:0:0:
434,146,74403,1,2,3:2:0:0:
434,146,74486,1,0,3:2:0:0:
434,146,74569,1,0,3:2:0:0:
342,174,74736,6,0,L|272:184,1,70,4|0,3:2|0:0,0:0:0:0:
194,230,75069,2,0,P|216:256|248:271,1,70,8|0,0:0|0:0,0:0:0:0:
338,258,75402,2,0,L|408:248,1,70
498,240,75736,1,10,0:0:0:0:
460,323,75903,1,0,0:0:0:0:
407,248,76069,6,0,P|371:306|384:373,1,140,2|8,0:0|0:0,0:0:0:0:
459,322,76569,1,2,0:0:0:0:
459,322,76653,1,0,0:0:0:0:
459,322,76736,2,0,L|523:294,1,70,2|0,0:0|0:0,0:0:0:0:
471,220,77069,2,0,L|407:248,1,70,10|0,0:0|0:0,0:0:0:0:
285,297,77403,6,0,L|221:271,2,70,2|0|10,0:0|0:0|0:0,0:0:0:0:
371,333,77903,1,0,0:0:0:0:
321,211,78070,2,0,L|257:185,2,70,2|0|10,0:0|0:0|0:0,0:0:0:0:
407,247,78570,1,0,0:0:0:0:
285,297,78737,6,0,L|221:323,1,70,2|0,0:0|0:0,0:0:0:0:
138,362,79070,1,10,0:0:0:0:
77,295,79237,1,0,0:0:0:0:
159,255,79403,2,0,L|169:185,1,70,2|0,0:0|0:0,0:0:0:0:
237,124,79737,2,0,L|247:194,1,70,10|8,0:0|0:0,0:0:0:0:
253,284,80070,6,0,P|284:222|345:194,1,140,4|8,0:0|0:0,0:0:0:0:
463,333,80737,1,2,0:0:0:0:
404,263,80903,1,0,0:0:0:0:
436,178,81070,1,10,0:0:0:0:
377,108,81236,1,0,0:0:0:0:
287,124,81403,6,0,P|221:133|164:93,1,140,2|8,0:0|0:0,0:0:0:0:
95,16,81904,1,2,0:0:0:0:
95,16,81987,1,0,0:0:0:0:
95,16,82070,2,0,L|85:86,1,70,2|0,0:0|0:0,0:0:0:0:
100,175,82403,2,0,L|170:165,1,70,10|0,0:0|0:0,0:0:0:0:
228,236,82736,5,2,0:0:0:0:
138,252,82902,1,2,0:0:0:0:
196,322,83069,2,0,L|231:326,2,35,10|0|0,0:0|0:0|0:0,0:0:0:0:
106,338,83402,5,2,0:0:0:0:
134,256,83568,1,2,0:0:0:0:
48,268,83736,2,0,L|13:272,2,35,10|0|0,0:0|0:0|0:0,0:0:0:0:
118,166,84069,5,2,3:2:0:0:
203,197,84235,1,2,3:2:0:0:
219,286,84403,1,2,3:2:0:0:
219,286,84486,1,0,3:2:0:0:
219,286,84569,1,0,3:2:0:0:
286,230,84736,6,0,L|356:220,1,70
447,200,85069,2,0,L|451:235,2,35,2|0|2,3:2|3:2|3:2,0:0:0:0:
383,133,85403,1,4,3:2:0:0:
