osu file format v14

[General]
AudioFilename: audio.mp3
AudioLeadIn: 1000
PreviewTime: 40079
Countdown: 0
SampleSet: Soft
StackLeniency: 0.7
Mode: 0
LetterboxInBreaks: 0
WidescreenStoryboard: 0

[Editor]
Bookmarks: 2736,10746,13413,21403,24079,33913,45413,47236,56079,63236,64079,74746
DistanceSpacing: 1.2
BeatDivisor: 4
GridSize: 4
TimelineZoom: 3.199999

[Metadata]
Title:Saiyajin
TitleUnicode:Saiyajin
Artist:Thaehan
ArtistUnicode:Thaehan
Creator:pinataman
Version:Hard
Source:osu!
Tags:Power Up Dragon ball db dbz ドラゴンボール remix Featured Artist electronic
BeatmapID:1449825
BeatmapSetID:656764

[Difficulty]
HPDrainRate:5
CircleSize:3.7
OverallDifficulty:6
ApproachRate:7.5
SliderMultiplier:1.3
SliderTickRate:1

[Events]
//Background and Video events
0,0,"639668.jpg",0,0
//Break Periods
2,34186,39244
//Storyboard Layer 0 (Background)
//Storyboard Layer 1 (Fail)
//Storyboard Layer 2 (Pass)
//Storyboard Layer 3 (Foreground)
//Storyboard Sound Samples

[TimingPoints]
70,333.333333333333,4,2,1,100,1,0
736,-100,4,2,1,50,0,0
903,-100,4,2,1,100,0,0
1069,-100,4,2,1,50,0,0
1236,-100,4,2,1,100,0,0
33986,-100,4,2,1,70,0,0
40069,-100,4,2,1,80,0,0
42736,-100,4,2,1,90,0,0
45403,-100,4,2,1,100,0,1
54736,-100,4,2,1,100,0,0
56069,-100,4,2,1,100,0,0
60403,-100,4,2,1,80,0,0
61236,-100,4,2,1,100,0,0
63653,-100,4,2,1,5,0,0
63736,-100,4,2,1,100,0,0
64069,-100,4,2,1,100,0,1
85696,666.666666666667,4,2,1,100,1,0

[Colours]
Combo1 : 255,140,0
Combo2 : 0,110,255
Combo3 : 255,210,0

[HitObjects]
269,166,70,6,0,L|274:230,1,65,2|2,0:0|0:0,0:0:0:0:
242,299,403,1,2,0:0:0:0:
286,361,569,1,2,0:0:0:0:
387,241,903,1,2,0:0:0:0:
242,299,1236,6,0,P|173:274|152:221,1,130,2|2,0:0|0:0,0:0:0:0:
113,157,1736,2,0,L|107:221,1,65,2|2,0:0|0:0,0:0:0:0:
96,299,2069,2,0,L|61:302,6,32.5,0|0|0|0|0|0|0,3:0|3:0|3:0|3:0|3:0|3:0|3:0,0:0:0:0:
174,314,2736,6,0,L|179:249,1,65,4|0,3:2|0:0,0:0:0:0:
257,238,3069,2,0,L|251:302,1,65,8|0,0:0|0:0,0:0:0:0:
326,325,3403,2,0,L|331:260,1,65,0|0,0:0|0:0,0:0:0:0:
314,184,3736,1,10,0:0:0:0:
238,162,3903,1,0,0:0:0:0:
296,110,4069,6,0,P|358:120|389:175,1,130,2|8,0:0|0:0,0:0:0:0:
418,258,4569,1,2,0:0:0:0:
418,258,4653,1,0,0:0:0:0:
418,258,4736,2,0,L|482:252,1,65,2|0,0:0|0:0,0:0:0:0:
469,329,5069,2,0,L|404:334,1,65,10|0,0:0|0:0,0:0:0:0:
326,325,5403,6,0,L|331:260,2,65,2|0|10,0:0|0:0|0:0,0:0:0:0:
256,360,5903,1,0,0:0:0:0:
186,325,6069,2,0,L|180:260,2,65,2|0|10,0:0|0:0|0:0,0:0:0:0:
256,366,6569,1,0,0:0:0:0:
256,286,6736,6,0,L|256:206,1,65,2|0,0:0|0:0,0:0:0:0:
217,153,7069,1,10,0:0:0:0:
295,153,7236,1,0,0:0:0:0:
309,76,7403,2,0,P|308:42|286:5,1,65,2|0,0:0|0:0,0:0:0:0:
217,14,7736,2,0,P|203:43|203:76,1,65,10|8,0:0|0:0,0:0:0:0:
146,129,8069,6,0,P|96:83|28:84,1,130,4|8,0:0|0:0,0:0:0:0:
33,240,8736,2,0,L|97:234,1,65,2|0,0:0|0:0,0:0:0:0:
169,204,9069,2,0,L|233:209,1,65,10|0,0:0|0:0,0:0:0:0:
281,272,9403,6,0,P|233:327|165:332,1,130,2|8,0:0|0:0,0:0:0:0:
107,333,9903,1,2,0:0:0:0:
107,333,9987,1,0,0:0:0:0:
107,333,10069,2,0,L|101:268,1,65,2|0,0:0|0:0,0:0:0:0:
81,192,10403,2,0,L|86:127,1,65,10|0,0:0|0:0,0:0:0:0:
138,67,10736,5,2,0:0:0:0:
217,73,10903,1,2,0:0:0:0:
294,80,11069,2,0,L|329:83,2,32.5,10|0|0,0:0|0:0|0:0,0:0:0:0:
248,143,11403,5,2,0:0:0:0:
169,149,11570,1,2,0:0:0:0:
92,156,11736,2,0,L|56:159,2,32.5,10|0|0,0:0|0:0|0:0,0:0:0:0:
137,220,12069,5,2,3:2:0:0:
169,149,12236,1,2,3:2:0:0:
203,78,12403,2,0,L|222:37,2,32.5,2|0|0,3:2|3:0|3:0,0:0:0:0:
248,143,12736,5,2,3:2:0:0:
216,214,12903,1,2,3:2:0:0:
182,285,13070,2,0,L|163:326,2,32.5,2|0|0,3:2|0:0|0:0,0:0:0:0:
259,276,13403,6,0,L|324:271,1,65,4|0,3:2|0:0,0:0:0:0:
335,193,13736,2,0,L|400:188,1,65,8|0,0:0|0:0,0:0:0:0:
421,263,14069,2,0,L|486:258,1,65,0|0,0:0|0:0,0:0:0:0:
497,180,14403,1,10,0:0:0:0:
446,120,14570,1,0,0:0:0:0:
443,42,14736,6,0,P|388:10|329:33,1,130,2|8,0:0|0:0,0:0:0:0:
294,107,15236,1,2,0:0:0:0:
294,107,15320,1,0,0:0:0:0:
294,107,15403,2,0,L|359:112,1,65,2|0,0:0|0:0,0:0:0:0:
380,187,15736,2,0,L|315:192,1,65,10|0,0:0|0:0,0:0:0:0:
256,244,16069,6,0,L|261:309,2,65,2|0|10,0:0|0:0|0:0,0:0:0:0:
196,192,16569,1,0,0:0:0:0:
256,140,16736,2,0,L|251:75,2,65,2|0|10,0:0|0:0|0:0,0:0:0:0:
316,192,17236,1,0,0:0:0:0:
256,244,17403,6,0,L|191:249,1,65,2|0,0:0|0:0,0:0:0:0:
217,323,17736,1,10,0:0:0:0:
295,323,17903,1,0,0:0:0:0:
256,244,18069,2,0,P|230:220|217:180,1,65,2|0,0:0|0:0,0:0:0:0:
256,124,18403,2,0,P|281:147|294:187,1,65,10|8,0:0|0:0,0:0:0:0:
334,241,18736,6,0,P|390:210|417:152,1,130,4|8,0:0|0:0,0:0:0:0:
352,10,19403,2,0,L|347:75,1,65,2|0,0:0|0:0,0:0:0:0:
278,112,19736,2,0,L|273:177,1,65,10|0,0:0|0:0,0:0:0:0:
213,227,20069,6,0,P|154:252|93:233,1,130,2|8,0:0|0:0,0:0:0:0:
117,164,20570,1,2,0:0:0:0:
117,164,20653,1,0,0:0:0:0:
117,164,20736,2,0,L|182:159,1,65,2|0,0:0|0:0,0:0:0:0:
244,111,21069,2,0,L|239:46,1,65,10|0,0:0|0:0,0:0:0:0:
169,8,21403,5,2,0:0:0:0:
106,53,21569,1,2,0:0:0:0:
113,131,21736,2,0,L|117:166,2,32.5,10|0|0,0:0|0:0|0:0,0:0:0:0:
174,82,22069,5,2,0:0:0:0:
237,127,22235,1,2,0:0:0:0:
230,205,22402,2,0,L|226:240,2,32.5,10|0|0,0:0|0:0|0:0,0:0:0:0:
301,171,22736,5,2,3:2:0:0:
364,216,22902,1,2,3:2:0:0:
357,294,23069,2,0,L|353:329,2,32.5,2|0|0,3:2|3:0|3:0,0:0:0:0:
293,247,23403,6,0,L|228:252,1,65,0|0,0:0|0:0,0:0:0:0:
170,304,23736,2,0,L|174:339,2,32.5,2|0|2,0:0|0:0|0:0,0:0:0:0:
115,248,24069,6,0,P|113:213|124:180,1,65,2|2,0:0|0:0,0:0:0:0:
161,117,24403,1,10,0:0:0:0:
232,146,24569,1,2,0:0:0:0:
285,89,24736,2,0,P|320:87|353:98,1,65,2|0,0:0|0:0,0:0:0:0:
372,170,25069,2,0,P|339:172|308:163,1,65,10|0,0:0|0:0,0:0:0:0:
232,146,25403,5,2,0:0:0:0:
254,220,25570,1,2,0:0:0:0:
200,276,25736,2,0,L|165:280,2,32.5,10|0|0,0:0|0:0|0:0,0:0:0:0:
276,294,26069,1,2,0:0:0:0:
298,368,26236,1,2,0:0:0:0:
351,311,26403,2,0,B|363:283|356:251|356:251|349:219|366:184,1,130,10|2,0:0|0:0,0:0:0:0:
413,124,26903,5,2,0:0:0:0:
413,124,26986,1,0,0:0:0:0:
413,124,27069,2,0,P|395:94|368:72,1,65,10|0,0:0|0:0,0:0:0:0:
293,80,27403,2,0,L|258:76,2,32.5,2|0|0,0:0|0:0|0:0,0:0:0:0:
262,151,27736,2,0,L|227:155,2,32.5,10|0|2,0:0|0:0|0:0,0:0:0:0:
339,145,28069,6,0,L|334:210,1,65,2|2,0:0|0:0,0:0:0:0:
328,288,28403,1,10,0:0:0:0:
253,264,28569,2,0,L|250:231,1,32.5,2|2,0:0|0:0,0:0:0:0:
283,59,29069,1,10,0:0:0:0:
214,96,29236,1,10,0:0:0:0:
139,118,29403,6,0,P|137:83|148:50,1,65,4|2,0:0|0:0,0:0:0:0:
216,20,29737,1,10,0:0:0:0:
283,59,29903,1,2,0:0:0:0:
278,137,30070,2,0,P|276:172|287:205,1,65,2|0,0:0|0:0,0:0:0:0:
359,224,30403,2,0,P|362:192|353:161,1,65,10|0,0:0|0:0,0:0:0:0:
382,88,30737,5,2,0:0:0:0:
446,132,30904,1,2,0:0:0:0:
486,65,31070,2,0,L|490:30,2,32.5,10|0|0,0:0|0:0|0:0,0:0:0:0:
450,136,31403,1,2,0:0:0:0:
382,88,31569,1,2,0:0:0:0:
324,141,31737,2,0,B|311:168|318:200|318:200|325:232|308:267,1,130,10|2,0:0|0:0,0:0:0:0:
243,307,32237,5,2,0:0:0:0:
243,307,32320,1,0,0:0:0:0:
243,307,32403,2,0,P|234:275|236:243,1,65,10|0,0:0|0:0,0:0:0:0:
206,170,32737,2,0,L|210:135,2,32.5,2|0|0,0:0|0:0|0:0,0:0:0:0:
129,156,33069,2,0,L|125:121,2,32.5,10|0|2,0:0|0:0|0:0,0:0:0:0:
151,231,33403,6,0,L|86:236,1,65,2|2,3:2|3:2,0:0:0:0:
8,242,33737,1,2,3:2:0:0:
32,317,33903,2,0,L|65:320,1,32.5,2|2,3:2|3:2,0:0:0:0:
256,192,40069,12,0,42403,0:0:0:0:
264,26,42736,6,0,P|246:55|219:77,1,65,2|0,3:2|3:0,0:0:0:0:
191,146,43069,2,0,L|261:156,1,65,2|0,3:2|3:0,0:0:0:0:
286,227,43403,2,0,L|221:236,1,65,2|0,3:2|3:0,0:0:0:0:
252,307,43736,2,0,P|268:334|293:355,1,65,2|0,3:2|3:0,0:0:0:0:
371,348,44069,6,0,L|406:344,6,32.5,2|0|2|0|2|0|2,3:2|3:0|3:2|3:0|3:2|3:0|3:2,0:0:0:0:
293,355,44736,2,0,B|249:306|249:306|237:222,1,130,2|2,3:2|0:0,0:0:0:0:
217,87,45403,5,4,0:0:0:0:
289,115,45569,1,0,0:0:0:0:
350,66,45736,1,10,0:0:0:0:
361,143,45903,2,0,L|357:178,1,32.5,0|2,0:0|0:0,0:0:0:0:
168,166,46403,2,0,L|173:231,1,65,8|0,0:0|0:0,0:0:0:0:
230,283,46736,6,0,L|262:279,2,32.5,2|0|2,0:0|0:0|0:0,0:0:0:0:
155,307,47069,1,10,0:0:0:0:
98,252,47236,2,0,L|94:217,1,32.5,0|2,0:0|0:0,0:0:0:0:
288,205,47736,2,0,L|293:140,1,65,8|0,0:0|0:0,0:0:0:0:
265,66,48069,6,8,P|297:63|329:69,2,65,2|2|10,0:0|0:0|0:0,0:0:0:0:
219,130,48569,1,0,0:0:0:0:
209,208,48736,2,0,P|177:195|152:170,2,65,2|2|10,0:0|0:0|0:0,0:0:0:0:
288,205,49236,1,0,0:0:0:0:
252,274,49403,6,0,P|217:283|182:280,1,65,2|0,0:0|0:0,0:0:0:0:
110,302,49736,2,0,P|115:268|109:234,1,65,8|0,0:0|0:0,0:0:0:0:
155,174,50069,2,0,L|187:170,2,32.5,2|0|0,0:0|0:0|0:0,0:0:0:0:
84,139,50403,2,0,L|51:135,2,32.5,10|0|8,0:0|0:0|0:0,0:0:0:0:
139,84,50736,5,4,0:0:0:0:
216,96,50903,1,0,0:0:0:0:
187,170,51069,1,10,0:0:0:0:
263,184,51236,2,0,L|298:188,1,32.5,0|2,0:0|0:0,0:0:0:0:
459,293,51736,2,0,L|394:288,1,65,8|0,0:0|0:0,0:0:0:0:
369,214,52069,6,0,L|372:181,2,32.5,2|0|2,0:0|0:0|0:0,0:0:0:0:
320,275,52402,1,10,0:0:0:0:
266,216,52569,2,0,L|262:183,1,32.5,0|2,0:0|0:0,0:0:0:0:
141,30,53069,2,0,L|146:95,1,65,8|0,0:0|0:0,0:0:0:0:
105,162,53403,6,0,L|40:167,2,65,2|2|10,0:0|0:0|0:0,0:0:0:0:
175,195,53903,1,0,0:0:0:0:
109,238,54070,2,0,L|44:243,2,65,2|2|10,0:0|0:0|0:0,0:0:0:0:
179,271,54569,1,0,0:0:0:0:
245,229,54736,6,0,P|271:207|290:178,1,65,2|2,0:0|0:0,0:0:0:0:
312,108,55069,2,0,P|330:81|356:61,1,65,2|2,0:0|0:0,0:0:0:0:
434,55,55403,1,2,0:0:0:0:
443,210,55736,2,0,L|446:243,2,32.5,2|0|2,3:2|3:2|3:2,0:0:0:0:
458,133,56069,6,0,L|393:138,1,65,4|0,3:2|0:0,0:0:0:0:
325,178,56403,2,0,L|260:173,1,65,10|0,0:0|0:0,0:0:0:0:
195,129,56736,2,0,L|130:134,1,65,2|0,0:0|0:0,0:0:0:0:
86,198,57069,1,10,0:0:0:0:
156,232,57236,1,0,0:0:0:0:
127,304,57403,2,0,P|146:329|172:349,1,65,2|0,0:0|0:0,0:0:0:0:
249,362,57736,6,0,L|252:329,3,32.5,2|0|0|2,3:2|3:2|3:2|3:2,0:0:0:0:
56,333,58403,1,8,0:0:0:0:
91,263,58569,1,0,0:0:0:0:
168,252,58736,6,0,L|233:247,1,65,2|0,0:0|0:0,0:0:0:0:
267,177,59069,2,0,L|202:172,1,65,10|0,0:0|0:0,0:0:0:0:
254,102,59403,2,0,P|288:104|319:118,1,65,2|2,3:2|3:2,0:0:0:0:
344,188,59736,2,0,P|331:220|308:246,1,65,2|2,3:2|3:2,0:0:0:0:
245,284,60069,1,2,3:2:0:0:
88,274,60403,6,0,L|23:279,2,65,2|2|2,0:0|0:0|0:0,0:0:0:0:
218,189,61069,1,2,0:0:0:0:
169,128,61236,6,0,L|196:109,2,32.5,0|0|2,3:2|3:2|3:2,0:0:0:0:
117,187,61569,2,0,L|143:207,2,32.5,0|0|2,3:2|3:2|3:2,0:0:0:0:
46,154,61903,2,0,L|34:184,2,32.5,0|0|2,3:2|3:2|3:2,0:0:0:0:
54,75,62236,2,0,L|20:74,2,32.5,0|0|2,3:2|3:2|3:2,0:0:0:0:
132,61,62569,5,0,3:2:0:0:
132,61,62653,1,0,3:2:0:0:
132,61,62736,1,2,3:2:0:0:
169,129,62903,1,2,3:2:0:0:
248,131,63069,1,2,3:2:0:0:
206,197,63236,6,0,P|237:270|281:203,1,195,2|4,3:2|0:0,0:0:0:0:
331,55,64069,6,0,L|326:120,1,65,4|0,0:0|0:0,0:0:0:0:
248,131,64402,2,0,L|254:67,1,65,8|0,0:0|0:0,0:0:0:0:
179,44,64736,2,0,L|174:109,1,65,0|0,0:0|0:0,0:0:0:0:
191,185,65069,1,10,0:0:0:0:
267,207,65236,1,0,0:0:0:0:
209,259,65402,6,0,P|147:249|116:194,1,130,2|8,0:0|0:0,0:0:0:0:
87,118,65902,1,2,0:0:0:0:
94,126,65986,1,0,0:0:0:0:
94,126,66069,2,0,L|30:132,1,65,2|0,0:0|0:0,0:0:0:0:
43,55,66402,2,0,L|108:50,1,65,10|0,0:0|0:0,0:0:0:0:
186,59,66736,6,0,L|181:124,2,65,2|0|10,0:0|0:0|0:0,0:0:0:0:
256,24,67236,1,0,0:0:0:0:
326,59,67402,2,0,L|332:124,2,65,2|0|10,0:0|0:0|0:0,0:0:0:0:
256,18,67902,1,0,0:0:0:0:
256,98,68069,6,0,L|256:178,1,65,2|0,0:0|0:0,0:0:0:0:
295,231,68402,1,10,0:0:0:0:
217,231,68569,1,0,0:0:0:0:
203,308,68736,2,0,P|204:342|226:379,1,65,2|0,0:0|0:0,0:0:0:0:
295,370,69069,2,0,P|309:341|309:308,1,65,10|8,0:0|0:0,0:0:0:0:
366,255,69402,6,0,P|416:301|484:300,1,130,4|10,0:0|0:0,0:0:0:0:
478,144,70069,2,0,L|414:150,1,65,2|0,0:0|0:0,0:0:0:0:
343,180,70402,2,0,L|279:175,1,65,10|0,0:0|0:0,0:0:0:0:
231,112,70736,6,0,P|279:57|347:52,1,130,2|8,0:0|0:0,0:0:0:0:
418,66,71236,1,2,0:0:0:0:
418,66,71320,1,0,0:0:0:0:
418,66,71402,2,0,L|424:131,1,65,2|0,0:0|0:0,0:0:0:0:
446,207,71736,2,0,L|441:272,1,65,10|0,0:0|0:0,0:0:0:0:
389,332,72069,5,2,0:0:0:0:
310,326,72236,1,2,0:0:0:0:
233,319,72402,2,0,L|198:316,2,32.5,10|0|0,0:0|0:0|0:0,0:0:0:0:
279,256,72736,5,2,0:0:0:0:
358,250,72903,1,2,0:0:0:0:
435,243,73069,2,0,L|471:240,2,32.5,10|0|0,0:0|0:0|0:0,0:0:0:0:
390,179,73402,5,2,3:2:0:0:
358,250,73569,1,2,3:2:0:0:
324,321,73736,2,0,L|305:362,2,32.5,2|0|0,3:2|3:0|3:0,0:0:0:0:
279,256,74069,5,2,3:2:0:0:
311,185,74236,1,2,3:2:0:0:
345,114,74403,2,0,L|364:73,2,32.5,2|0|0,3:2|0:0|3:0,0:0:0:0:
268,123,74736,6,0,L|203:128,1,65,4|0,3:2|0:0,0:0:0:0:
192,206,75069,2,0,L|127:211,1,65,8|0,0:0|0:0,0:0:0:0:
106,136,75402,2,0,L|41:141,1,65,0|0,0:0|0:0,0:0:0:0:
30,219,75736,1,10,0:0:0:0:
81,279,75903,1,0,0:0:0:0:
75,356,76069,6,0,P|136:372|187:335,1,130,2|8,0:0|0:0,0:0:0:0:
218,265,76569,1,2,0:0:0:0:
218,265,76653,1,0,0:0:0:0:
218,265,76736,2,0,L|153:260,1,65,2|0,0:0|0:0,0:0:0:0:
132,185,77069,2,0,L|197:180,1,65,10|0,0:0|0:0,0:0:0:0:
256,128,77402,6,0,L|251:63,2,65,2|0|10,0:0|0:0|0:0,0:0:0:0:
316,180,77902,1,0,0:0:0:0:
256,232,78069,2,0,L|261:297,2,65,2|0|10,0:0|0:0|0:0,0:0:0:0:
196,180,78569,1,0,0:0:0:0:
256,128,78736,6,0,L|321:123,1,65,2|0,0:0|0:0,0:0:0:0:
295,49,79069,1,10,0:0:0:0:
217,49,79236,1,0,0:0:0:0:
256,128,79402,2,0,P|282:152|295:192,1,65,2|0,0:0|0:0,0:0:0:0:
256,248,79736,2,0,P|231:225|218:185,1,65,10|8,0:0|0:0,0:0:0:0:
178,131,80069,6,0,P|122:162|95:220,1,130,6|10,0:0|0:0,0:0:0:0:
160,362,80736,2,0,L|165:297,1,65,2|0,0:0|0:0,0:0:0:0:
234,260,81069,2,0,L|239:195,1,65,10|0,0:0|0:0,0:0:0:0:
299,145,81402,6,0,P|358:120|419:139,1,130,2|8,0:0|0:0,0:0:0:0:
396,220,81903,1,2,0:0:0:0:
396,220,81986,1,0,0:0:0:0:
396,220,82069,2,0,L|331:225,1,65,2|0,0:0|0:0,0:0:0:0:
269,273,82402,2,0,L|274:338,1,65,10|0,0:0|0:0,0:0:0:0:
344,376,82736,5,2,0:0:0:0:
407,331,82902,1,2,0:0:0:0:
400,253,83069,2,0,L|396:218,2,32.5,10|0|0,0:0|0:0|0:0,0:0:0:0:
339,302,83402,5,2,0:0:0:0:
276,257,83568,1,0,0:0:0:0:
283,179,83736,2,0,L|287:144,2,32.5,10|0|0,0:0|0:0|0:0,0:0:0:0:
212,213,84069,5,2,3:2:0:0:
149,168,84235,1,2,3:2:0:0:
156,90,84402,2,0,L|160:55,2,32.5,2|0|0,3:2|3:2|3:0,0:0:0:0:
220,137,84736,6,0,L|285:132,1,65,0|0,0:0|0:0,0:0:0:0:
343,80,85069,2,0,L|339:45,2,32.5,2|0|2,3:2|3:2|3:2,0:0:0:0:
398,136,85403,1,4,3:2:0:0:
