osu file format v14

[General]
AudioFilename: audio.mp3
AudioLeadIn: 1000
PreviewTime: 40079
Countdown: 0
SampleSet: Soft
StackLeniency: 0.7
Mode: 0
LetterboxInBreaks: 0
WidescreenStoryboard: 0

[Editor]
Bookmarks: 13079,13413,23746,24079,33913,40069,45413,56079,64079,66913,74746,78579
DistanceSpacing: 2.7
BeatDivisor: 4
GridSize: 4
TimelineZoom: 3.999998

[Metadata]
Title:Saiyajin
TitleUnicode:Saiyajin
Artist:Thaehan
ArtistUnicode:Thaehan
Creator:pinataman
Version:Super Saiyan
Source:osu!
Tags:Power Up Dragon ball db dbz ドラゴンボール remix Featured Artist electronic
BeatmapID:1451867
BeatmapSetID:656764

[Difficulty]
HPDrainRate:6
CircleSize:4
OverallDifficulty:8.4
ApproachRate:9.2
SliderMultiplier:1.8
SliderTickRate:1

[Events]
//Background and Video events
0,0,"639668.jpg",0,0
//Break Periods
//Storyboard Layer 0 (Background)
//Storyboard Layer 1 (Fail)
//Storyboard Layer 2 (Pass)
//Storyboard Layer 3 (Foreground)
//Storyboard Sound Samples

[TimingPoints]
70,333.333333333333,4,2,1,100,1,0
736,-100,4,2,1,50,0,0
903,-100,4,2,1,100,0,0
1069,-100,4,2,1,50,0,0
1236,-100,4,2,1,100,0,0
6736,-66.6666666666667,4,2,1,100,0,0
6903,-100,4,2,1,100,0,0
17403,-66.6666666666667,4,2,1,100,0,0
17569,-100,4,2,1,100,0,0
24069,-100,4,2,1,100,0,0
33986,-133.333333333333,4,2,1,70,0,0
40069,-114.285714285714,4,2,1,80,0,0
42736,-114.285714285714,4,2,1,90,0,0
45403,-90.9090909090909,4,2,1,100,0,1
54736,-100,4,2,1,100,0,0
56069,-90.9090909090909,4,2,1,100,0,0
60403,-90.9090909090909,4,2,1,80,0,0
61236,-90.9090909090909,4,2,1,100,0,0
63236,-80,4,2,1,100,0,0
63653,-90.9090909090909,4,2,1,5,0,0
63736,-66.6666666666667,4,2,1,100,0,0
64069,-83.3333333333333,4,2,1,100,0,1
68069,-52.6315789473684,4,2,1,100,0,1
68236,-83.3333333333333,4,2,1,100,0,1
78736,-52.6315789473684,4,2,1,100,0,1
78903,-83.3333333333333,4,2,1,100,0,1
85696,666.666666666667,4,2,1,100,1,0

[Colours]
Combo1 : 255,140,0
Combo2 : 0,110,255
Combo3 : 255,210,0

[HitObjects]
347,154,70,5,2,0:0:0:0:
165,154,236,1,2,0:0:0:0:
256,285,403,1,2,0:0:0:0:
300,66,569,2,0,P|342:53|385:64,1,90,2|0,0:0|0:0,0:0:0:0:
212,66,903,2,0,P|169:53|126:64,1,90,2|0,0:0|0:0,0:0:0:0:
336,334,1236,6,0,L|425:321,1,90,2|0,0:0|0:0,0:0:0:0:
456,169,1569,1,2,0:0:0:0:
366,247,1736,1,2,0:0:0:0:
256,201,1903,1,2,0:0:0:0:
383,35,2069,2,0,L|376:81,1,45,0|0,3:2|3:0,0:0:0:0:
347,128,2236,2,0,L|397:134,1,45,0|0,3:0|3:0,0:0:0:0:
300,53,2403,2,0,L|250:47,1,45,0|0,3:0|3:0,0:0:0:0:
262,156,2569,2,0,L|255:201,1,45,0|0,3:0|3:0,0:0:0:0:
159,305,2736,6,0,L|145:212,1,90,4|0,3:2|0:0,0:0:0:0:
177,54,3069,2,8,L|189:143,1,90,8|0,0:0|0:0,0:0:0:0:
244,289,3403,2,0,L|255:199,1,90
312,62,3736,1,10,0:0:0:0:
368,200,3903,1,0,0:0:0:0:
203,46,4069,6,0,P|196:133|255:199,1,180,2|8,0:0|0:0,0:0:0:0:
408,280,4569,1,2,0:0:0:0:
391,306,4653,1,0,0:0:0:0:
366,324,4736,2,0,P|323:337|280:328,1,90,2|0,0:0|0:0,0:0:0:0:
132,267,5069,2,0,P|175:280|218:271,1,90,10|0,0:0|0:0,0:0:0:0:
328,157,5403,5,2,0:0:0:0:
321,239,5569,1,0,0:0:0:0:
334,85,5736,1,10,0:0:0:0:
315,311,5903,1,0,0:0:0:0:
235,180,6069,5,2,0:0:0:0:
321,239,6235,1,0,0:0:0:0:
176,139,6403,1,10,0:0:0:0:
380,280,6569,1,0,0:0:0:0:
404,103,6736,6,0,B|400:129|400:129|374:136|374:136|370:163|370:163|390:179|390:179|386:207,1,135.000005149842,2|0,0:0|0:0,0:0:0:0:
348,358,7069,5,10,0:0:0:0:
457,262,7236,1,0,0:0:0:0:
206,299,7403,1,2,0:0:0:0:
386,184,7569,1,0,0:0:0:0:
261,203,7736,1,10,0:0:0:0:
316,107,7903,1,8,0:0:0:0:
206,299,8069,6,0,P|246:314|290:309,1,90,4|0,0:0|0:0,0:0:0:0:
427,224,8403,2,0,P|386:240|341:234,1,90,8|0,0:0|0:0,0:0:0:0:
206,94,8736,1,2,0:0:0:0:
219,192,8903,1,0,0:0:0:0:
146,258,9069,1,10,0:0:0:0:
51,230,9236,1,0,0:0:0:0:
58,29,9403,6,0,P|118:93|206:93,1,180,2|8,0:0|0:0,0:0:0:0:
389,46,9903,1,2,0:0:0:0:
392,77,9986,1,0,0:0:0:0:
386,107,10069,2,0,P|370:149|337:179,1,90,2|0,0:0|0:0,0:0:0:0:
179,210,10403,1,10,0:0:0:0:
266,248,10569,1,0,0:0:0:0:
139,10,10736,5,2,0:0:0:0:
156,122,10903,1,2,0:0:0:0:
287,38,11069,1,10,0:0:0:0:
291,69,11153,1,0,0:0:0:0:
295,100,11236,2,0,L|301:144,1,45
172,233,11403,5,2,0:0:0:0:
156,122,11569,1,2,0:0:0:0:
371,233,11736,1,10,0:0:0:0:
375,202,11819,1,0,0:0:0:0:
379,171,11903,2,0,L|385:126,1,45
271,8,12069,5,2,3:2:0:0:
467,105,12236,1,2,3:2:0:0:
240,237,12403,1,2,3:2:0:0:
244,206,12486,1,0,3:0:0:0:
248,175,12569,2,0,L|254:130,1,45,0|0,3:0|3:0,0:0:0:0:
389,22,12736,5,2,3:2:0:0:
357,233,12903,1,2,3:2:0:0:
151,27,13069,1,2,3:2:0:0:
147,58,13153,1,0,3:0:0:0:
143,89,13236,1,0,3:0:0:0:
139,120,13319,1,0,3:0:0:0:
135,151,13403,6,0,L|122:240,1,90,4|0,3:2|0:0,0:0:0:0:
30,346,13736,2,0,L|17:257,1,90,8|0,0:0|0:0,0:0:0:0:
36,92,14069,2,0,L|49:181,1,90
119,330,14403,1,10,0:0:0:0:
175,177,14569,1,0,0:0:0:0:
191,382,14736,6,0,L|357:314,1,180,2|8,0:0|0:0,0:0:0:0:
436,94,15236,1,2,0:0:0:0:
446,123,15319,1,0,0:0:0:0:
445,154,15403,2,0,P|436:198|409:233,1,90,2|0,0:0|0:0,0:0:0:0:
259,265,15736,2,0,P|286:229|295:185,1,90,10|0,0:0|0:0,0:0:0:0:
284,39,16069,5,2,0:0:0:0:
203,60,16236,1,0,0:0:0:0:
354,20,16403,1,10,0:0:0:0:
133,79,16569,1,0,0:0:0:0:
280,138,16736,5,2,0:0:0:0:
203,60,16903,1,0,0:0:0:0:
331,189,17070,1,10,0:0:0:0:
151,9,17236,1,0,0:0:0:0:
394,106,17403,6,0,B|375:127|375:127|349:120|349:120|333:143|333:143|344:167|344:167|330:189,1,135.000005149842,2|0,0:0|0:0,0:0:0:0:
268,283,17736,5,10,0:0:0:0:
427,237,17903,1,0,0:0:0:0:
281,15,18069,1,2,0:0:0:0:
324,197,18236,1,0,0:0:0:0:
410,78,18403,1,10,0:0:0:0:
303,106,18569,1,8,0:0:0:0:
429,252,18736,6,0,P|402:288|363:310,1,90,4|0,0:0|0:0,0:0:0:0:
236,199,19069,2,0,P|279:187|323:196,1,90,8|0,0:0|0:0,0:0:0:0:
191,370,19403,1,2,0:0:0:0:
134,278,19569,1,0,0:0:0:0:
154,172,19736,1,10,0:0:0:0:
97,80,19903,1,0,0:0:0:0:
134,278,20069,6,0,P|227:253|259:154,1,180,2|8,0:0|0:0,0:0:0:0:
198,28,20569,1,2,0:0:0:0:
197,59,20653,1,0,0:0:0:0:
185,96,20736,2,0,P|158:133|120:154,1,90,2|0,0:0|0:0,0:0:0:0:
0,142,21069,1,10,0:0:0:0:
93,233,21236,1,0,0:0:0:0:
297,79,21403,5,2,0:0:0:0:
185,96,21569,1,2,0:0:0:0:
311,185,21736,1,10,0:0:0:0:
307,154,21819,1,0,0:0:0:0:
303,123,21903,2,0,L|297:79,1,45
94,109,22069,5,2,0:0:0:0:
111,233,22236,1,2,0:0:0:0:
297,79,22403,1,10,0:0:0:0:
266,83,22486,1,0,0:0:0:0:
235,87,22569,2,0,L|190:93,1,45
21,184,22736,5,2,3:2:0:0:
130,35,22903,1,2,3:2:0:0:
286,264,23069,1,2,3:2:0:0:
292,233,23153,1,0,3:0:0:0:
299,203,23236,2,0,L|308:158,1,45,0|0,3:0|3:0,0:0:0:0:
340,19,23403,5,0,0:0:0:0:
357,94,23569,1,0,0:0:0:0:
484,9,23736,2,0,L|478:54,1,45,2|0,0:0|0:0,0:0:0:0:
490,150,23903,2,0,L|484:195,1,45,2|0,0:0|0:0,0:0:0:0:
507,288,24069,5,2,0:0:0:0:
389,374,24236,1,2,0:0:0:0:
361,376,24319,1,0,0:0:0:0:
335,377,24402,1,10,0:0:0:0:
307,380,24485,1,0,0:0:0:0:
279,384,24569,1,2,0:0:0:0:
266,350,24652,1,0,0:0:0:0:
252,316,24736,2,0,B|270:277|270:277|265:227,1,90,2|0,0:0|0:0,0:0:0:0:
131,70,25069,2,0,B|113:109|113:109|118:159,1,90,10|0,0:0|0:0,0:0:0:0:
359,129,25403,5,2,0:0:0:0:
265,230,25569,1,2,0:0:0:0:
253,2,25736,1,10,0:0:0:0:
244,54,25819,1,0,0:0:0:0:
235,108,25903,1,0,0:0:0:0:
138,234,26069,1,2,0:0:0:0:
115,78,26236,1,2,0:0:0:0:
265,230,26403,2,0,L|354:217,1,90,10|0,0:0|0:0,0:0:0:0:
481,212,26736,5,2,0:0:0:0:
283,124,26903,1,2,0:0:0:0:
274,176,26986,1,0,0:0:0:0:
265,230,27070,1,10,0:0:0:0:
282,364,27236,1,0,0:0:0:0:
133,235,27403,1,2,0:0:0:0:
99,216,27486,1,0,0:0:0:0:
62,211,27569,1,0,0:0:0:0:
27,220,27653,1,0,0:0:0:0:
2,246,27736,2,0,L|-5:201,1,45,10|0,0:0|0:0,0:0:0:0:
70,89,27903,2,0,L|76:133,1,45,2|0,0:0|0:0,0:0:0:0:
73,306,28069,5,2,0:0:0:0:
188,280,28236,1,2,0:0:0:0:
1,321,28403,1,10,0:0:0:0:
177,125,28569,1,2,0:0:0:0:
177,125,28653,2,0,B|184:170|184:170|296:209,1,135,2|0,0:0|0:0,0:0:0:0:
371,232,29069,1,10,0:0:0:0:
291,305,29236,1,10,0:0:0:0:
268,111,29403,5,4,0:0:0:0:
132,278,29569,1,2,0:0:0:0:
159,275,29652,1,0,0:0:0:0:
186,274,29735,1,10,0:0:0:0:
213,272,29818,1,0,0:0:0:0:
241,267,29902,1,2,0:0:0:0:
254,234,29985,1,0,0:0:0:0:
268,199,30069,2,0,B|307:217|307:217|357:212,1,90,2|0,0:0|0:0,0:0:0:0:
484,43,30403,2,0,B|445:25|445:25|395:30,1,90,10|0,0:0|0:0,0:0:0:0:
189,160,30736,5,2,0:0:0:0:
346,116,30903,1,2,0:0:0:0:
257,308,31069,1,10,0:0:0:0:
266,254,31153,1,0,0:0:0:0:
275,202,31236,1,0,0:0:0:0:
201,33,31403,1,2,0:0:0:0:
266,124,31569,1,2,0:0:0:0:
84,99,31736,2,0,L|-5:86,1,90,10|0,0:0|0:0,0:0:0:0:
22,203,32069,5,2,0:0:0:0:
201,33,32236,1,2,0:0:0:0:
192,85,32319,1,0,0:0:0:0:
183,139,32403,1,10,0:0:0:0:
162,257,32569,1,0,0:0:0:0:
341,175,32736,1,2,0:0:0:0:
362,205,32819,1,0,0:0:0:0:
370,242,32903,1,0,0:0:0:0:
363,277,32986,1,0,0:0:0:0:
343,306,33069,2,0,L|388:309,1,45,10|0,0:0|0:0,0:0:0:0:
496,240,33236,2,0,L|450:236,1,45,2|0,0:0|0:0,0:0:0:0:
266,239,33403,5,2,3:2:0:0:
414,151,33569,1,2,3:2:0:0:
349,381,33736,1,2,3:2:0:0:
203,145,33903,1,2,3:2:0:0:
203,145,33986,6,0,B|208:180|208:180|132:178|102:116|121:58|159:31|201:29,1,270.000010299683,2|0,3:2|0:0,0:0:0:0:
237,41,34736,6,0,P|270:43|325:21,1,67.5000025749208,4|0,0:0|0:0,0:0:0:0:
422,6,35069,1,0,0:0:0:0:
411,127,35236,1,0,0:0:0:0:
292,149,35403,2,0,P|259:158|232:177,1,67.5000025749208
234,258,35736,2,0,P|266:248|293:229,1,67.5000025749208
163,138,36069,5,2,0:0:0:0:
164,219,36236,1,0,0:0:0:0:
238,107,36403,1,0,0:0:0:0:
293,228,36570,1,0,0:0:0:0:
347,133,36736,2,0,P|380:130|435:152,1,67.5000025749208
439,215,37069,2,0,P|405:217|372:208,1,67.5000025749208
267,152,37403,6,0,P|234:150|201:159,1,67.5000025749208,2|0,0:0|0:0,0:0:0:0:
160,228,37736,1,0,0:0:0:0:
241,228,37903,1,0,0:0:0:0:
141,328,38069,2,0,P|109:315|84:293,1,67.5000025749208
103,193,38403,2,0,P|134:205|159:227,1,67.5000025749208
216,310,38736,5,2,0:0:0:0:
292,281,38903,1,0,0:0:0:0:
397,336,39069,1,0,0:0:0:0:
485,287,39236,1,0,0:0:0:0:
377,212,39403,2,0,P|344:203|310:205,1,67.5000025749208
214,234,39736,2,0,P|181:236|148:227,1,67.5000025749208
33,257,40069,6,0,P|31:217|39:179,1,78.7500007510185,2|0,0:0|0:0,0:0:0:0:
160,102,40403,1,0,0:0:0:0:
214,234,40569,1,0,0:0:0:0:
328,147,40736,2,0,P|289:141|250:147,1,78.7500007510185,2|0,0:0|0:0,0:0:0:0:
214,234,41069,2,0,P|252:240|291:234,1,78.7500007510185
422,164,41403,5,2,0:0:0:0:
385,250,41570,1,0,0:0:0:0:
365,87,41736,1,0,0:0:0:0:
459,78,41903,1,0,0:0:0:0:
327,172,42069,2,0,P|288:166|253:149,1,78.7500007510185,2|0,0:0|0:0,0:0:0:0:
206,65,42403,2,0,P|166:67|130:81,1,78.7500007510185
7,133,42736,5,2,3:2:0:0:
22,111,42903,1,0,3:0:0:0:
99,240,43069,1,2,3:2:0:0:
111,214,43236,1,0,3:0:0:0:
246,278,43403,1,2,3:2:0:0:
249,252,43570,1,0,3:0:0:0:
382,232,43736,1,2,3:2:0:0:
376,205,43903,1,0,3:0:0:0:
99,240,44069,5,2,3:2:0:0:
132,261,44152,1,0,3:0:0:0:
168,277,44235,1,2,3:2:0:0:
206,283,44319,1,0,3:0:0:0:
246,278,44402,1,2,3:2:0:0:
284,274,44485,1,0,3:0:0:0:
323,279,44569,1,2,3:2:0:0:
359,295,44652,1,0,3:0:0:0:
392,318,44736,2,0,P|429:306|462:284,1,78.7500007510185,2|0,3:2|0:0,0:0:0:0:
489,177,45069,2,0,P|456:198|418:210,1,78.7500007510185,2|0,0:0|0:0,0:0:0:0:
205,68,45403,5,4,0:0:0:0:
145,203,45569,1,0,0:0:0:0:
58,84,45736,1,10,0:0:0:0:
296,190,45903,1,0,0:0:0:0:
296,190,45986,2,0,B|250:235|250:235|233:240|233:240|182:291,1,148.50000453186,2|0,0:0|0:0,0:0:0:0:
115,370,46403,1,8,0:0:0:0:
293,308,46569,1,0,0:0:0:0:
242,88,46736,5,2,0:0:0:0:
231,125,46819,1,0,0:0:0:0:
221,163,46902,1,2,0:0:0:0:
186,288,47069,1,10,0:0:0:0:
100,24,47236,1,0,0:0:0:0:
100,24,47319,2,0,B|116:85|116:85|130:101|130:101|145:163,1,148.50000453186,2|0,0:0|0:0,0:0:0:0:
178,280,47736,1,8,0:0:0:0:
282,186,47903,1,0,0:0:0:0:
41,255,48069,5,2,0:0:0:0:
152,170,48236,1,2,0:0:0:0:
152,170,48319,1,0,0:0:0:0:
152,170,48403,1,10,0:0:0:0:
187,303,48569,1,0,0:0:0:0:
11,123,48736,5,2,0:0:0:0:
152,170,48903,1,2,0:0:0:0:
152,170,48986,1,0,0:0:0:0:
152,170,49069,1,10,0:0:0:0:
41,255,49236,1,0,0:0:0:0:
209,68,49403,6,0,B|212:97|212:97|228:132|228:132|232:164,1,99.0000030212403,2|0,0:0|0:0,0:0:0:0:
333,286,49736,2,0,B|328:255|328:255|336:217|336:217|331:185,1,99.0000030212403,8|0,0:0|0:0,0:0:0:0:
469,22,50069,5,2,0:0:0:0:
465,45,50153,1,0,0:0:0:0:
462,70,50236,1,0,0:0:0:0:
460,94,50319,1,0,0:0:0:0:
441,125,50403,6,0,L|449:174,1,49.5000015106202,8|0,0:0|0:0,0:0:0:0:
451,255,50569,2,0,L|404:237,1,49.5000015106202,8|0,0:0|0:0,0:0:0:0:
361,162,50736,5,4,0:0:0:0:
336,317,50903,1,0,0:0:0:0:
459,263,51069,1,10,0:0:0:0:
219,278,51236,1,0,0:0:0:0:
219,278,51319,2,0,B|280:262|280:262|296:248|296:248|363:231,1,148.50000453186,2|0,0:0|0:0,0:0:0:0:
464,176,51736,1,8,0:0:0:0:
406,300,51903,1,0,0:0:0:0:
331,89,52069,5,2,0:0:0:0:
320,126,52152,1,0,0:0:0:0:
310,164,52235,1,2,0:0:0:0:
275,289,52402,1,10,0:0:0:0:
402,37,52569,1,0,0:0:0:0:
402,37,52653,2,0,B|418:98|418:98|432:114|432:114|447:176,1,148.50000453186,2|0,0:0|0:0,0:0:0:0:
393,282,53069,1,8,0:0:0:0:
511,277,53236,1,0,0:0:0:0:
305,104,53403,5,2,0:0:0:0:
335,230,53569,1,2,0:0:0:0:
335,230,53653,1,0,0:0:0:0:
335,230,53736,1,10,0:0:0:0:
429,140,53903,1,0,0:0:0:0:
240,318,54069,5,2,0:0:0:0:
335,230,54236,1,2,0:0:0:0:
335,230,54320,1,0,0:0:0:0:
335,230,54403,1,10,0:0:0:0:
365,355,54569,1,0,0:0:0:0:
112,363,54736,6,0,L|63:355,1,45,2|0,0:0|0:0,0:0:0:0:
91,288,54903,2,0,L|42:280,1,45,2|0,0:0|0:0,0:0:0:0:
70,213,55069,2,0,L|21:205,1,45,2|0,0:0|0:0,0:0:0:0:
49,138,55236,2,0,L|0:130,1,45,2|0,0:0|0:0,0:0:0:0:
28,63,55403,5,2,0:0:0:0:
484,63,55736,1,2,3:2:0:0:
478,98,55819,1,0,3:2:0:0:
473,134,55902,1,2,3:2:0:0:
468,169,55986,1,0,3:2:0:0:
463,205,56069,6,0,P|423:235|376:244,1,99.0000030212403,4|0,3:2|0:0,0:0:0:0:
208,282,56403,2,0,P|250:306|299:309,1,99.0000030212403,10|0,0:0|0:0,0:0:0:0:
307,121,56736,2,0,P|282:163|279:212,1,99.0000030212403,2|0,0:0|0:0,0:0:0:0:
395,341,57069,1,10,0:0:0:0:
375,191,57236,1,0,0:0:0:0:
259,362,57403,1,2,0:0:0:0:
279,212,57570,1,0,0:0:0:0:
67,332,57736,5,2,3:2:0:0:
34,319,57819,1,0,3:2:0:0:
30,286,57902,1,0,3:2:0:0:
57,264,57986,2,0,L|35:104,1,148.50000453186,2|0,3:2|0:0,0:0:0:0:
131,43,58403,1,8,0:0:0:0:
147,160,58569,1,0,0:0:0:0:
326,90,58736,6,0,P|376:90|418:112,1,99.0000030212403,2|0,0:0|0:0,0:0:0:0:
422,291,59069,2,0,P|373:290|330:267,1,99.0000030212403,10|0,0:0|0:0,0:0:0:0:
137,56,59403,1,2,3:2:0:0:
108,223,59569,1,2,3:2:0:0:
356,180,59736,1,2,3:2:0:0:
273,32,59902,1,2,3:2:0:0:
247,297,60069,2,0,L|230:200,1,99.0000030212403,2|0,3:2|0:0,0:0:0:0:
314,105,60403,5,2,0:0:0:0:
376,215,60569,1,2,0:0:0:0:
466,125,60736,2,0,P|506:212|469:301,1,198.000006042481,2|2,0:0|0:0,0:0:0:0:
195,200,61236,5,0,3:2:0:0:
156,206,61320,1,0,3:2:0:0:
117,212,61403,1,2,3:2:0:0:
245,252,61569,5,0,3:2:0:0:
239,291,61652,1,0,3:2:0:0:
233,330,61736,1,2,3:2:0:0:
300,149,61903,5,0,3:2:0:0:
327,121,61986,1,0,3:2:0:0:
355,93,62070,1,2,3:2:0:0:
309,221,62236,5,0,3:2:0:0:
344,238,62320,1,0,3:2:0:0:
380,256,62403,1,2,3:2:0:0:
229,136,62569,5,0,3:2:0:0:
211,101,62653,1,0,3:2:0:0:
193,66,62736,1,2,3:2:0:0:
331,20,62903,1,2,3:2:0:0:
107,94,63069,1,2,3:2:0:0:
373,147,63236,6,0,B|391:122|374:88|320:67|262:103|273:213|350:237|408:213,1,281.25,2|0,3:2|0:0,0:0:0:0:
409,221,63736,6,0,B|386:286|386:286|329:317|329:317|306:381,1,202.500007724762,4|0,0:0|0:0,0:0:0:0:
112,327,64069,6,0,L|146:224,1,107.999996704102,4|0,0:0|0:0,0:0:0:0:
304,107,64403,2,0,L|269:4,1,107.999996704102,8|0,0:0|0:0,0:0:0:0:
74,7,64736,2,0,L|108:109,1,107.999996704102
231,246,65069,1,10,0:0:0:0:
200,84,65236,1,0,0:0:0:0:
250,345,65403,6,0,P|361:315|394:229,1,215.999993408203,2|8,0:0|0:0,0:0:0:0:
374,24,65903,1,2,0:0:0:0:
365,60,65986,1,0,0:0:0:0:
343,91,66069,2,0,P|298:117|245:118,1,107.999996704102,2|0,0:0|0:0,0:0:0:0:
38,51,66403,2,0,P|82:24|135:23,1,107.999996704102,10|0,0:0|0:0,0:0:0:0:
256,192,66736,5,2,0:0:0:0:
173,274,66902,1,0,0:0:0:0:
256,99,67069,1,10,0:0:0:0:
391,328,67236,1,0,0:0:0:0:
256,192,67403,5,2,0:0:0:0:
344,103,67569,1,0,0:0:0:0:
156,192,67736,1,10,0:0:0:0:
401,340,67903,1,0,0:0:0:0:
434,62,68069,6,0,B|420:94|420:94|387:99|387:99|377:131|377:131|400:155|400:155|390:187,1,170.999995433807,2|0,0:0|0:0,0:0:0:0:
318,285,68403,5,10,0:0:0:0:
486,291,68569,1,0,0:0:0:0:
184,244,68736,1,2,0:0:0:0:
344,103,68903,1,0,0:0:0:0:
144,165,69069,1,10,0:0:0:0:
265,54,69236,1,8,0:0:0:0:
334,295,69403,6,0,P|387:296|433:270,1,107.999996704102,4|0,0:0|0:0,0:0:0:0:
443,79,69736,2,0,P|389:77|343:103,1,107.999996704102,10|0,0:0|0:0,0:0:0:0:
171,258,70069,1,2,0:0:0:0:
118,125,70236,1,0,0:0:0:0:
250,73,70403,1,10,0:0:0:0:
303,205,70569,1,0,0:0:0:0:
37,109,70736,6,0,L|248:148,1,215.999993408203,2|8,0:0|0:0,0:0:0:0:
443,189,71236,1,2,0:0:0:0:
434,146,71319,1,0,0:0:0:0:
407,111,71403,2,0,P|359:85|305:90,1,107.999996704102,2|0,0:0|0:0,0:0:0:0:
189,257,71736,1,10,0:0:0:0:
388,266,71903,1,0,0:0:0:0:
143,84,72069,5,2,0:0:0:0:
355,65,72236,1,2,0:0:0:0:
278,330,72403,1,10,0:0:0:0:
276,303,72486,1,0,0:0:0:0:
274,276,72569,2,0,L|269:219,1,53.9999983520508
143,84,72736,5,2,0:0:0:0:
161,297,72903,1,2,0:0:0:0:
408,162,73070,1,10,0:0:0:0:
381,164,73153,1,0,0:0:0:0:
353,166,73236,2,0,L|296:169,1,53.9999983520508
161,297,73403,5,2,3:2:0:0:
375,278,73570,1,2,3:2:0:0:
239,32,73736,1,2,3:2:0:0:
241,59,73819,1,0,3:0:0:0:
243,86,73902,2,0,L|248:143,1,53.9999983520508,0|0,3:0|3:0,0:0:0:0:
161,297,74069,5,2,3:2:0:0:
239,32,74236,1,2,3:2:0:0:
375,278,74403,1,2,3:2:0:0:
379,238,74486,1,0,3:0:0:0:
383,197,74569,1,0,3:0:0:0:
387,157,74652,1,0,3:0:0:0:
392,116,74736,6,0,L|289:82,1,107.999996704102,4|0,3:2|0:0,0:0:0:0:
98,121,75069,2,0,L|201:155,1,107.999996704102,8|0,0:0|0:0,0:0:0:0:
379,238,75403,2,0,L|276:272,1,107.999996704102
177,65,75736,1,10,0:0:0:0:
187,247,75903,1,0,0:0:0:0:
335,58,76069,6,0,P|403:136|378:237,1,215.999993408203,2|8,0:0|0:0,0:0:0:0:
184,323,76569,1,2,0:0:0:0:
210,296,76652,1,0,0:0:0:0:
218,258,76736,2,0,P|218:205|189:161,1,107.999996704102,2|0,0:0|0:0,0:0:0:0:
0,238,77069,2,0,P|51:253|103:240,1,107.999996704102,10|0,0:0|0:0,0:0:0:0:
303,177,77403,5,2,0:0:0:0:
218,258,77569,1,0,0:0:0:0:
396,182,77736,1,10,0:0:0:0:
173,39,77903,1,0,0:0:0:0:
303,177,78070,5,2,0:0:0:0:
393,92,78236,1,0,0:0:0:0:
300,279,78403,1,10,0:0:0:0:
161,28,78570,1,0,0:0:0:0:
128,336,78736,6,0,B|145:307|145:307|180:306|180:306|197:277|197:277|178:250|178:250|191:218,1,170.999995433807,2|0,0:0|0:0,0:0:0:0:
324,95,79069,5,10,0:0:0:0:
280,212,79236,1,0,0:0:0:0:
17,53,79403,1,2,0:0:0:0:
227,129,79569,1,0,0:0:0:0:
48,219,79736,1,10,0:0:0:0:
96,81,79903,1,8,0:0:0:0:
232,289,80069,6,0,P|218:238|179:202,1,107.999996704102,6|0,0:0|0:0,0:0:0:0:
3,311,80403,2,0,P|55:323|105:306,1,107.999996704102,10|0,0:0|0:0,0:0:0:0:
96,81,80736,1,2,0:0:0:0:
177,201,80903,1,0,0:0:0:0:
251,63,81070,1,10,0:0:0:0:
342,204,81236,1,0,0:0:0:0:
103,161,81403,6,0,P|49:263|92:345,1,215.999993408203,2|8,0:0|0:0,0:0:0:0:
326,338,81903,1,2,0:0:0:0:
283,349,81986,1,0,0:0:0:0:
245,342,82070,2,0,P|202:308|185:257,1,107.999996704102,2|0,0:0|0:0,0:0:0:0:
255,122,82403,1,10,0:0:0:0:
103,161,82569,1,0,0:0:0:0:
376,275,82736,5,2,0:0:0:0:
407,83,82903,1,2,0:0:0:0:
125,238,83070,1,10,0:0:0:0:
153,236,83153,1,0,0:0:0:0:
181,234,83236,2,0,L|240:229,1,53.9999983520508
415,91,83403,5,2,0:0:0:0:
376,275,83570,1,2,0:0:0:0:
73,163,83736,1,10,0:0:0:0:
101,161,83819,1,0,0:0:0:0:
129,159,83902,2,0,L|188:154,1,53.9999983520508
415,91,84069,5,2,3:2:0:0:
376,275,84236,1,2,3:2:0:0:
118,77,84403,1,2,3:2:0:0:
146,75,84486,1,0,3:2:0:0:
174,73,84569,2,0,L|233:68,1,53.9999983520508,0|0,3:0|3:0,0:0:0:0:
415,91,84736,5,0,0:0:0:0:
327,50,84903,1,0,0:0:0:0:
322,340,85069,1,2,3:2:0:0:
372,335,85152,1,0,3:2:0:0:
398,290,85235,1,2,3:2:0:0:
375,242,85318,1,0,3:2:0:0:
323,235,85402,1,4,3:2:0:0:
