osu file format v14

[General]
AudioFilename: audio.mp3
AudioLeadIn: 1000
PreviewTime: 40079
Countdown: 0
SampleSet: Soft
StackLeniency: 0.7
Mode: 0
LetterboxInBreaks: 0
WidescreenStoryboard: 0

[Editor]
Bookmarks: 7736,13413,24079,33913,45413,56079,60079,64079,74746,81403
DistanceSpacing: 1
BeatDivisor: 4
GridSize: 8
TimelineZoom: 2.1

[Metadata]
Title:Saiyajin
TitleUnicode:Saiyajin
Artist:Thaehan
ArtistUnicode:Thaehan
Creator:pinataman
Version:Normal
Source:osu!
Tags:Power Up Dragon ball db dbz ドラゴンボール remix Featured Artist electronic
BeatmapID:1484422
BeatmapSetID:656764

[Difficulty]
HPDrainRate:4
CircleSize:3
OverallDifficulty:4
ApproachRate:5
SliderMultiplier:1.1
SliderTickRate:1

[Events]
//Background and Video events
0,0,"639668.jpg",0,0
//Break Periods
2,34935,38869
//Storyboard Layer 0 (Background)
//Storyboard Layer 1 (Fail)
//Storyboard Layer 2 (Pass)
//Storyboard Layer 3 (Foreground)
//Storyboard Sound Samples

[TimingPoints]
70,333.333333333333,4,2,1,100,1,0
33986,-100,4,2,1,70,0,0
40069,-100,4,2,1,80,0,0
42736,-100,4,2,1,90,0,0
45403,-100,4,2,1,100,0,1
54736,-100,4,2,1,100,0,0
64069,-100,4,2,1,100,0,1
85696,666.666666666667,4,2,1,100,1,0

[Colours]
Combo1 : 255,140,0
Combo2 : 0,110,255
Combo3 : 255,210,0

[HitObjects]
337,125,70,6,0,L|347:53,2,55,2|2|2,0:0|0:0|0:0,0:0:0:0:
331,179,569,1,2,0:0:0:0:
241,242,903,1,2,0:0:0:0:
179,150,1236,6,0,P|135:117|81:113,1,110,2|2,0:0|0:0,0:0:0:0:
38,147,1736,2,0,L|27:218,1,55,2|2,0:0|0:0,0:0:0:0:
42,255,2069,2,0,B|94:270|94:270|136:329,1,110,0|0,3:2|3:0,0:0:0:0:
228,357,2736,6,0,L|249:234,1,110,4|8,3:2|0:0,0:0:0:0:
215,143,3403,1,0,0:0:0:0:
278,53,3736,2,0,L|332:60,1,55,10|0,0:0|0:0,0:0:0:0:
384,79,4069,6,0,P|419:120|427:174,1,110,2|8,0:0|0:0,0:0:0:0:
364,265,4736,1,2,0:0:0:0:
394,372,5069,1,10,0:0:0:0:
284,361,5403,6,0,L|229:353,1,55,2|0,0:0|0:0,0:0:0:0:
174,345,5736,1,10,0:0:0:0:
171,235,6069,2,0,L|226:227,1,55,2|0,0:0|0:0,0:0:0:0:
281,219,6403,1,10,0:0:0:0:
345,130,6736,5,2,0:0:0:0:
235,119,7069,1,10,0:0:0:0:
189,22,7403,1,2,0:0:0:0:
124,111,7736,2,0,L|116:165,1,55,10|8,0:0|0:0,0:0:0:0:
115,220,8069,6,0,P|156:255|210:263,1,110,4|8,0:0|0:0,0:0:0:0:
315,225,8736,2,0,L|322:279,1,55,2|0,0:0|0:0,0:0:0:0:
356,322,9069,2,0,L|410:329,1,55,10|0,0:0|0:0,0:0:0:0:
463,313,9403,6,0,P|486:263|480:210,1,110,2|8,0:0|0:0,0:0:0:0:
457,166,9903,1,2,0:0:0:0:
457,166,10069,2,0,P|403:172|354:148,1,110,2|10,0:0|0:0,0:0:0:0:
274,72,10736,5,2,0:0:0:0:
252,122,10903,1,2,0:0:0:0:
230,172,11069,1,10,0:0:0:0:
141,236,11403,2,0,L|86:243,2,55,2|2|10,0:0|0:0|0:0,0:0:0:0:
241,280,12069,5,2,3:2:0:0:
291,302,12236,1,2,3:2:0:0:
341,324,12402,1,2,3:2:0:0:
449,312,12736,2,0,L|502:335,2,55,2|2|2,3:2|3:2|3:2,0:0:0:0:
385,225,13403,6,0,B|368:172|368:172|387:120,1,110,4|8,3:2|0:0,0:0:0:0:
431,20,14069,1,0,0:0:0:0:
322,34,14403,2,0,L|267:41,1,55,10|0,0:0|0:0,0:0:0:0:
218,66,14736,6,0,P|194:115|200:168,1,110,2|8,0:0|0:0,0:0:0:0:
261,260,15403,1,2,0:0:0:0:
211,357,15736,1,10,0:0:0:0:
321,351,16069,6,0,L|376:344,1,55,2|0,0:0|0:0,0:0:0:0:
430,336,16403,1,10,0:0:0:0:
430,226,16736,2,0,L|375:233,1,55,2|0,0:0|0:0,0:0:0:0:
321,241,17070,1,10,0:0:0:0:
230,303,17403,5,2,0:0:0:0:
203,197,17736,1,10,0:0:0:0:
100,157,18069,1,2,0:0:0:0:
101,47,18403,2,0,L|156:40,1,55,10|8,0:0|0:0,0:0:0:0:
211,37,18736,6,0,P|256:67|278:117,1,110,4|8,0:0|0:0,0:0:0:0:
199,194,19403,2,0,L|192:249,1,55,2|0,0:0|0:0,0:0:0:0:
200,302,19736,2,0,L|207:357,1,55,10|0,0:0|0:0,0:0:0:0:
257,379,20069,6,0,P|310:372|352:338,1,110,2|8,0:0|0:0,0:0:0:0:
381,293,20570,1,2,0:0:0:0:
381,293,20736,2,0,P|346:250|340:197,1,110,2|10,0:0|0:0,0:0:0:0:
354,87,21403,5,2,0:0:0:0:
299,71,21570,1,2,0:0:0:0:
246,55,21736,1,10,0:0:0:0:
136,56,22069,2,0,L|108:7,2,55,2|2|10,0:0|0:0|0:0,0:0:0:0:
85,153,22736,5,2,3:2:0:0:
69,207,22903,1,2,3:2:0:0:
54,261,23069,1,2,3:2:0:0:
142,327,23403,2,0,L|127:380,2,55
178,223,24069,5,2,0:0:0:0:
282,188,24403,1,10,0:0:0:0:
365,259,24736,2,0,P|363:286|351:310,1,55,2|0,0:0|0:0,0:0:0:0:
320,356,25069,2,0,P|296:370|269:374,1,55,10|0,0:0|0:0,0:0:0:0:
221,346,25403,6,0,L|214:291,1,55,2|2,0:0|0:0,0:0:0:0:
207,236,25736,1,10,0:0:0:0:
128,159,26069,2,0,L|121:214,1,55,2|2,0:0|0:0,0:0:0:0:
114,269,26402,1,10,0:0:0:0:
34,193,26736,6,0,P|30:138|56:90,1,110,2|10,0:0|0:0,0:0:0:0:
165,88,27403,1,2,0:0:0:0:
239,7,27736,1,10,0:0:0:0:
336,56,28069,6,0,L|329:111,2,55,2|2|10,0:0|0:0|0:0,0:0:0:0:
390,45,28569,2,0,P|415:55|442:54,1,55,2|0,0:0|0:0,0:0:0:0:
485,156,29069,2,0,L|478:211,1,55,10|10,0:0|0:0,0:0:0:0:
472,265,29403,5,4,0:0:0:0:
363,281,29736,1,10,0:0:0:0:
264,233,30069,2,0,P|236:232|211:243,1,55,2|0,0:0|0:0,0:0:0:0:
165,273,30403,2,0,P|148:294|143:321,1,55,10|0,0:0|0:0,0:0:0:0:
122,372,30736,6,0,L|67:365,1,55,2|2,0:0|0:0,0:0:0:0:
20,336,31070,1,10,0:0:0:0:
63,237,31403,2,0,L|118:244,1,55,2|2,0:0|0:0,0:0:0:0:
165,273,31737,1,10,0:0:0:0:
269,237,32069,6,0,P|303:195|309:141,1,110,2|10,0:0|0:0,0:0:0:0:
244,51,32736,1,2,0:0:0:0:
199,151,33069,1,10,0:0:0:0:
92,181,33403,6,0,L|85:126,2,55,2|2|2,3:2|3:2|3:2,0:0:0:0:
98,235,33903,1,2,3:2:0:0:
144,264,34069,6,0,B|178:269|178:269|212:252|212:252|249:256|249:256|282:240|282:240|318:244|318:244|351:228,1,220,2|0,0:0|0:0,0:0:0:0:
256,192,40069,12,2,42069,0:0:0:0:
319,119,42736,5,2,3:2:0:0:
210,103,43069,1,2,3:2:0:0:
194,212,43403,1,2,3:2:0:0:
303,227,43736,1,2,3:2:0:0:
213,291,44069,6,0,P|225:374|267:301,1,220,0|0,3:0|0:0,0:0:0:0:
258,80,45403,6,0,L|186:70,1,55,4|0,0:0|0:0,0:0:0:0:
154,89,45736,1,10,0:0:0:0:
154,89,45903,2,0,B|142:118|146:142|146:142|150:166|139:195,1,110,2|0,0:0|0:0,0:0:0:0:
123,249,46403,1,8,0:0:0:0:
228,277,46736,6,0,P|253:286|271:307,1,55,2|0,0:0|0:0,0:0:0:0:
309,355,47069,1,10,0:0:0:0:
309,355,47236,2,0,B|340:358|362:347|362:347|384:336|415:340,1,110,2|0,0:0|0:0,0:0:0:0:
471,347,47736,1,8,0:0:0:0:
459,237,48069,6,0,P|422:201|353:211,1,110,2|10,0:0|0:0,0:0:0:0:
320,229,48569,1,0,0:0:0:0:
320,229,48736,2,0,P|266:231|227:194,1,110,2|10,0:0|0:0,0:0:0:0:
215,140,49236,1,0,0:0:0:0:
171,106,49403,5,2,0:0:0:0:
67,142,49736,1,8,0:0:0:0:
104,245,50069,2,0,B|127:257|127:257|155:258,1,55,2|0,0:0|0:0,0:0:0:0:
211,257,50403,1,8,0:0:0:0:
275,168,50736,6,0,L|259:116,1,55,4|0,0:0|0:0,0:0:0:0:
246,67,51069,1,10,0:0:0:0:
246,67,51236,2,0,B|276:62|295:47|295:47|314:31|345:28,1,110,2|0,0:0|0:0,0:0:0:0:
401,29,51736,1,8,0:0:0:0:
367,132,52069,6,0,P|377:157|399:173,1,55,2|0,0:0|0:0,0:0:0:0:
455,198,52402,1,10,0:0:0:0:
455,198,52569,2,0,B|453:228|440:249|440:249|426:268|425:301,1,110,2|0,0:0|0:0,0:0:0:0:
414,356,53069,1,8,0:0:0:0:
306,331,53403,6,0,P|280:286|308:222,1,110,2|10,0:0|0:0,0:0:0:0:
311,183,53903,1,0,0:0:0:0:
311,183,54070,2,0,P|257:181|221:141,1,110,2|10,0:0|0:0,0:0:0:0:
207,89,54568,1,0,0:0:0:0:
159,60,54736,5,2,0:0:0:0:
113,159,55069,1,2,0:0:0:0:
182,243,55403,1,2,0:0:0:0:
289,225,55736,2,0,P|315:223|340:232,1,55,2|2,3:2|3:2,0:0:0:0:
391,256,56069,5,4,3:2:0:0:
422,150,56403,1,10,0:0:0:0:
316,119,56736,1,2,0:0:0:0:
256,26,57069,2,0,L|201:33,1,55,10|0,0:0|0:0,0:0:0:0:
162,71,57403,2,0,L|107:78,1,55,2|0,0:0|0:0,0:0:0:0:
68,115,57736,5,2,3:2:0:0:
68,115,57903,2,0,B|74:174|74:174|122:201|124:285,1,165,2|8,3:2|0:0,0:0:0:0:
118,372,58736,5,2,0:0:0:0:
215,322,59069,1,10,0:0:0:0:
220,212,59403,2,0,L|227:157,1,55,2|2,3:2|3:2,0:0:0:0:
264,116,59736,2,0,L|319:123,1,55,2|2,3:2|3:2,0:0:0:0:
348,168,60069,1,2,3:2:0:0:
413,307,61403,6,0,L|406:362,2,55,2|2|2,3:2|3:2|3:2,0:0:0:0:
315,261,62069,2,0,L|322:206,2,55,2|2|2,3:2|3:2|3:2,0:0:0:0:
231,333,62736,6,0,P|203:334|178:323,1,55,2|2,3:2|3:2,0:0:0:0:
130,296,63069,1,2,3:2:0:0:
104,248,63236,1,2,3:2:0:0:
281,29,64069,6,0,L|260:152,1,110,4|8,3:2|0:0,0:0:0:0:
294,243,64736,1,0,0:0:0:0:
231,333,65069,2,0,L|177:326,1,55,10|0,0:0|0:0,0:0:0:0:
125,307,65402,6,0,P|90:266|82:212,1,110,2|8,0:0|0:0,0:0:0:0:
145,121,66069,1,2,0:0:0:0:
115,14,66402,1,10,0:0:0:0:
225,25,66736,6,0,L|280:33,1,55,2|0,0:0|0:0,0:0:0:0:
335,41,67069,1,10,0:0:0:0:
339,151,67403,2,0,L|284:159,1,55,2|0,0:0|0:0,0:0:0:0:
229,167,67737,1,10,0:0:0:0:
165,256,68070,5,2,0:0:0:0:
275,267,68403,1,10,0:0:0:0:
321,364,68737,1,2,0:0:0:0:
385,275,69069,2,0,L|393:221,1,55,10|8,0:0|0:0,0:0:0:0:
394,166,69402,6,0,P|353:131|299:123,1,110,4|8,0:0|0:0,0:0:0:0:
194,161,70069,2,0,L|187:107,1,55,2|0,0:0|0:0,0:0:0:0:
153,64,70402,2,0,L|99:57,1,55,10|0,0:0|0:0,0:0:0:0:
46,73,70736,6,0,P|23:123|29:176,1,110,2|8,0:0|0:0,0:0:0:0:
52,220,71236,1,2,0:0:0:0:
52,220,71402,2,0,P|106:214|155:238,1,110,2|10,0:0|0:0,0:0:0:0:
235,314,72069,5,2,0:0:0:0:
257,264,72236,1,2,0:0:0:0:
279,214,72402,1,10,0:0:0:0:
368,150,72736,2,0,L|423:143,2,55,2|2|10,0:0|0:0|0:0,0:0:0:0:
268,106,73402,5,2,3:2:0:0:
218,84,73569,1,2,3:2:0:0:
168,62,73735,1,2,3:2:0:0:
60,74,74069,2,0,L|7:51,2,55,2|2|2,3:2|3:2|3:2,0:0:0:0:
124,161,74736,6,0,B|141:214|141:214|122:266,1,110,4|8,3:2|0:0,0:0:0:0:
78,366,75402,1,0,0:0:0:0:
187,352,75736,2,0,L|242:345,1,55,10|0,0:0|0:0,0:0:0:0:
291,320,76069,6,0,P|315:271|309:218,1,110,2|8,0:0|0:0,0:0:0:0:
248,126,76736,1,2,0:0:0:0:
298,29,77069,1,10,0:0:0:0:
188,35,77402,6,0,L|133:42,1,55,2|0,0:0|0:0,0:0:0:0:
79,50,77736,1,10,0:0:0:0:
82,159,78069,2,0,L|137:152,1,55,2|0,0:0|0:0,0:0:0:0:
191,144,78403,1,10,0:0:0:0:
282,82,78736,5,2,0:0:0:0:
306,189,79069,1,10,0:0:0:0:
409,229,79402,1,2,0:0:0:0:
408,339,79736,2,0,L|353:346,1,55,10|8,0:0|0:0,0:0:0:0:
298,349,80069,6,0,P|253:319|231:269,1,110,4|8,0:0|0:0,0:0:0:0:
310,192,80736,2,0,L|317:137,1,55,2|0,0:0|0:0,0:0:0:0:
309,84,81069,2,0,L|302:29,1,55,10|0,0:0|0:0,0:0:0:0:
252,7,81402,6,0,P|199:14|157:48,1,110,2|8,0:0|0:0,0:0:0:0:
128,93,81903,1,2,0:0:0:0:
128,93,82069,2,0,P|163:136|169:189,1,110,2|10,0:0|0:0,0:0:0:0:
155,299,82736,5,2,0:0:0:0:
210,315,82903,1,2,0:0:0:0:
263,331,83069,1,10,0:0:0:0:
373,330,83402,2,0,L|401:379,2,55,2|2|10,0:0|0:0|0:0,0:0:0:0:
424,233,84069,5,2,3:2:0:0:
440,179,84236,1,2,3:2:0:0:
455,125,84402,1,2,3:2:0:0:
367,59,84736,2,0,L|382:6,2,55
331,163,85402,1,4,0:0:0:0:
