osu file format v14

[General]
AudioFilename: audio.mp3
AudioLeadIn: 1000
PreviewTime: 40079
Countdown: 0
SampleSet: Soft
StackLeniency: 0.7
Mode: 0
LetterboxInBreaks: 0
WidescreenStoryboard: 0

[Editor]
Bookmarks: 13413,23403,23569,24079,28653,33329,33913,40069,45413,45986,56079,57736,60079,64079,74746
DistanceSpacing: 1.3
BeatDivisor: 8
GridSize: 4
TimelineZoom: 2.999999

[Metadata]
Title:Saiyajin
TitleUnicode:Saiyajin
Artist:Thaehan
ArtistUnicode:Thaehan
Creator:pinataman
Version:Insane
Source:osu!
Tags:Power Up Dragon ball db dbz ドラゴンボール remix Featured Artist electronic
BeatmapID:1449826
BeatmapSetID:656764

[Difficulty]
HPDrainRate:6
CircleSize:4
OverallDifficulty:8
ApproachRate:9
SliderMultiplier:1.6
SliderTickRate:1

[Events]
//Background and Video events
0,0,"639668.jpg",0,0
//Break Periods
//Storyboard Layer 0 (Background)
//Storyboard Layer 1 (Fail)
//Storyboard Layer 2 (Pass)
//Storyboard Layer 3 (Foreground)
//Storyboard Sound Samples

[TimingPoints]
70,333.333333333333,4,2,1,100,1,0
736,-100,4,2,1,50,0,0
903,-100,4,2,1,100,0,0
1069,-100,4,2,1,50,0,0
1236,-100,4,2,1,100,0,0
6736,-57.1428571428571,4,2,1,100,0,0
6903,-100,4,2,1,100,0,0
17403,-57.1428571428571,4,2,1,100,0,0
17569,-100,4,2,1,100,0,0
24069,-100,4,2,1,100,0,0
33986,-133.333333333333,4,2,1,70,0,0
40069,-114.285714285714,4,2,1,80,0,0
42736,-114.285714285714,4,2,1,90,0,0
45403,-90.9090909090909,4,2,1,100,0,1
54736,-100,4,2,1,100,0,0
56069,-90.9090909090909,4,2,1,100,0,0
60403,-90.9090909090909,4,2,1,80,0,0
61236,-90.9090909090909,4,2,1,100,0,0
63236,-90.9090909090909,4,2,1,100,0,0
63653,-90.9090909090909,4,2,1,5,0,0
63736,-66.6666666666667,4,2,1,100,0,0
64069,-90.9090909090909,4,2,1,100,0,1
68069,-52.6315789473684,4,2,1,100,0,1
68236,-90.9090909090909,4,2,1,100,0,1
78736,-52.6315789473684,4,2,1,100,0,1
78903,-90.9090909090909,4,2,1,100,0,1
85696,666.666666666667,4,2,1,100,1,0

[Colours]
Combo1 : 255,140,0
Combo2 : 0,110,255
Combo3 : 255,210,0

[HitObjects]
459,262,70,5,2,0:0:0:0:
339,178,236,1,2,0:0:0:0:
441,159,403,1,2,0:0:0:0:
277,265,569,2,0,L|359:279,1,80,2|0,0:0|0:0,0:0:0:0:
252,116,903,2,0,L|238:198,1,80,2|0,0:0|0:0,0:0:0:0:
189,369,1236,6,0,L|175:290,1,80,2|0,0:0|0:0,0:0:0:0:
154,188,1569,1,2,0:0:0:0:
76,257,1736,1,2,0:0:0:0:
55,154,1903,1,2,0:0:0:0:
133,85,2069,2,0,L|174:91,1,40,0|0,3:2|3:0,0:0:0:0:
217,101,2236,2,0,L|258:95,1,40,0|0,3:0|3:0,0:0:0:0:
301,89,2403,2,0,L|342:95,1,40,0|0,3:0|3:0,0:0:0:0:
385,105,2570,2,0,L|426:99,1,40,0|0,3:0|3:0,0:0:0:0:
452,133,2736,6,0,L|441:212,1,80,4|0,3:2|0:0,0:0:0:0:
358,276,3069,2,0,P|319:275|285:255,1,80,8|0,0:0|0:0,0:0:0:0:
272,150,3403,2,0,P|312:150|346:170,1,80,0|0,0:0|0:0,0:0:0:0:
441,212,3736,1,10,0:0:0:0:
456,108,3903,1,0,0:0:0:0:
345,169,4069,6,0,P|270:150|219:82,1,160,2|8,0:0|0:0,0:0:0:0:
153,22,4569,1,2,0:0:0:0:
153,22,4653,1,0,0:0:0:0:
153,22,4736,2,0,P|117:40|78:39,1,80,2|0,0:0|0:0,0:0:0:0:
16,124,5069,2,0,P|51:142|90:141,1,80,10|0,0:0|0:0,0:0:0:0:
246,80,5403,5,2,0:0:0:0:
196,152,5569,1,0,0:0:0:0:
203,239,5736,2,0,P|222:273|258:301,1,80,10|0,0:0|0:0,0:0:0:0:
384,203,6069,1,2,0:0:0:0:
298,143,6235,1,0,0:0:0:0:
196,152,6403,2,0,P|157:162|123:205,1,80,10|0,0:0|0:0,0:0:0:0:
90,316,6736,6,0,P|74:271|110:310,1,140.000001335144,2|0,0:0|0:0,0:0:0:0:
156,377,7069,5,10,0:0:0:0:
198,281,7236,1,0,0:0:0:0:
52,193,7403,1,2,0:0:0:0:
154,179,7569,1,0,0:0:0:0:
106,272,7736,1,10,0:0:0:0:
191,347,7903,1,8,0:0:0:0:
308,214,8070,6,0,P|347:215|381:235,1,80,4|0,0:0|0:0,0:0:0:0:
389,339,8403,2,0,P|348:336|315:317,1,80,8|0,0:0|0:0,0:0:0:0:
204,204,8736,1,2,0:0:0:0:
135,282,8903,1,0,0:0:0:0:
101,183,9069,1,10,0:0:0:0:
32,261,9236,1,0,0:0:0:0:
26,110,9403,6,0,P|97:79|170:105,1,160,2|8,0:0|0:0,0:0:0:0:
282,187,9902,1,2,0:0:0:0:
282,187,9985,1,0,0:0:0:0:
282,187,10069,2,0,L|271:108,1,80,2|0,0:0|0:0,0:0:0:0:
365,61,10403,1,10,0:0:0:0:
462,94,10569,1,0,0:0:0:0:
385,209,10736,5,2,0:0:0:0:
282,187,10903,1,2,0:0:0:0:
206,258,11069,1,10,0:0:0:0:
206,258,11153,1,0,0:0:0:0:
206,258,11236,2,0,L|152:251,1,40,0|0,0:0|0:0,0:0:0:0:
115,319,11403,5,2,0:0:0:0:
218,341,11570,1,2,0:0:0:0:
294,270,11736,1,10,0:0:0:0:
294,270,11820,1,0,0:0:0:0:
294,270,11903,2,0,L|348:277,1,40,0|0,0:0|0:0,0:0:0:0:
395,345,12069,5,2,3:2:0:0:
413,242,12236,1,2,3:2:0:0:
431,139,12402,1,2,3:2:0:0:
431,139,12486,1,0,3:0:0:0:
431,139,12569,2,0,L|378:132,1,40,0|0,3:0|3:0,0:0:0:0:
342,198,12736,5,2,3:2:0:0:
239,180,12903,1,2,3:2:0:0:
136,162,13069,1,2,3:2:0:0:
113,168,13152,1,0,3:0:0:0:
92,181,13235,1,0,3:0:0:0:
77,200,13319,1,0,3:0:0:0:
68,221,13403,6,0,L|57:300,1,80,4|0,3:2|0:0,0:0:0:0:
133,371,13736,2,0,L|145:292,1,80,8|0,0:0|0:0,0:0:0:0:
218,217,14069,2,0,L|230:296,1,80,0|0,0:0|0:0,0:0:0:0:
296,378,14403,1,10,0:0:0:0:
333,280,14569,1,0,0:0:0:0:
398,361,14736,6,0,P|436:292|416:217,1,160,2|8,0:0|0:0,0:0:0:0:
359,142,15236,1,2,0:0:0:0:
359,142,15319,1,0,0:0:0:0:
359,142,15403,2,0,P|333:172|297:187,1,80,2|0,0:0|0:0,0:0:0:0:
202,142,15736,2,0,P|166:157|140:187,1,80,10|0,0:0|0:0,0:0:0:0:
232,312,16069,5,2,0:0:0:0:
217,227,16236,1,0,0:0:0:0:
202,141,16403,2,0,L|221:57,1,80,10|0,0:0|0:0,0:0:0:0:
318,204,16736,1,2,0:0:0:0:
217,227,16903,1,0,0:0:0:0:
116,250,17069,2,0,L|135:166,1,80,10|0,0:0|0:0,0:0:0:0:
139,28,17403,6,0,P|184:40|132:46,1,140.000001335144,2|0,0:0|0:0,0:0:0:0:
44,122,17736,5,10,0:0:0:0:
135,173,17903,1,0,0:0:0:0:
254,28,18069,1,2,0:0:0:0:
230,129,18236,1,0,0:0:0:0:
149,25,18403,1,10,0:0:0:0:
262,37,18570,1,8,0:0:0:0:
129,125,18736,6,0,P|136:164|157:197,1,80,4|0,0:0|0:0,0:0:0:0:
264,210,19069,2,0,P|226:199|188:207,1,80,8|0,0:0|0:0,0:0:0:0:
52,251,19403,1,2,0:0:0:0:
150,282,19569,1,0,0:0:0:0:
119,380,19736,1,10,0:0:0:0:
21,349,19903,1,0,0:0:0:0:
116,217,20069,6,0,P|142:143|111:71,1,160,2|8,0:0|0:0,0:0:0:0:
15,25,20569,1,2,0:0:0:0:
15,25,20652,1,0,0:0:0:0:
15,25,20736,2,0,L|26:104,1,80,2|0,0:0|0:0,0:0:0:0:
12,207,21069,1,10,0:0:0:0:
116,217,21236,1,0,0:0:0:0:
218,91,21403,5,2,0:0:0:0:
313,130,21569,1,2,0:0:0:0:
237,206,21736,1,10,0:0:0:0:
237,206,21819,1,0,0:0:0:0:
237,206,21903,2,0,L|243:166,1,40,0|0,0:0|0:0,0:0:0:0:
258,82,22069,5,2,0:0:0:0:
381,132,22235,1,2,0:0:0:0:
282,231,22402,1,10,0:0:0:0:
282,231,22485,1,0,0:0:0:0:
282,231,22569,2,0,L|289:179,1,40,0|0,0:0|0:0,0:0:0:0:
226,48,22736,5,2,3:2:0:0:
141,160,22903,1,2,3:2:0:0:
92,29,23069,1,2,3:2:0:0:
92,29,23152,1,0,3:0:0:0:
92,29,23236,2,0,L|85:81,1,40,0|0,3:0|3:0,0:0:0:0:
54,144,23403,5,0,0:0:0:0:
47,231,23569,1,0,0:0:0:0:
141,160,23736,2,0,L|182:168,1,40,2|0,0:0|0:0,0:0:0:0:
217,189,23903,2,0,L|258:197,1,40,2|0,0:0|0:0,0:0:0:0:
298,188,24069,5,2,0:0:0:0:
416,138,24236,1,2,0:0:0:0:
431,156,24319,1,0,0:0:0:0:
441,177,24402,1,10,0:0:0:0:
448,201,24485,1,0,0:0:0:0:
449,224,24569,1,2,0:0:0:0:
446,248,24652,1,0,0:0:0:0:
438,271,24736,2,0,B|400:281|400:281|358:270,1,80,2|0,0:0|0:0,0:0:0:0:
298,188,25069,2,0,B|270:214|270:214|258:254,1,80,10|0,0:0|0:0,0:0:0:0:
350,353,25403,5,2,0:0:0:0:
246,358,25569,1,2,0:0:0:0:
360,271,25736,1,10,0:0:0:0:
360,271,25819,1,0,0:0:0:0:
360,271,25903,1,0,0:0:0:0:
264,174,26069,1,2,0:0:0:0:
206,261,26236,1,2,0:0:0:0:
360,271,26403,2,0,B|388:154|388:154|333:164,1,160,10|2,0:0|0:0,0:0:0:0:
248,63,26903,5,2,0:0:0:0:
272,58,26986,1,0,0:0:0:0:
296,54,27069,1,10,0:0:0:0:
396,27,27236,1,0,0:0:0:0:
462,149,27403,1,2,0:0:0:0:
450,169,27486,1,0,0:0:0:0:
434,187,27569,1,0,0:0:0:0:
415,202,27652,1,0,0:0:0:0:
393,211,27736,2,0,L|353:205,1,40,10|0,0:0|0:0,0:0:0:0:
281,191,27903,2,0,L|241:197,1,40,2|0,0:0|0:0,0:0:0:0:
182,250,28069,5,2,0:0:0:0:
144,113,28236,1,2,0:0:0:0:
230,192,28403,1,10,0:0:0:0:
300,101,28569,1,2,0:0:0:0:
300,101,28653,2,0,B|332:124|332:124|365:201,1,120,2|0,0:0|0:0,0:0:0:0:
331,296,29069,1,10,0:0:0:0:
433,275,29236,1,10,0:0:0:0:
261,220,29403,5,4,0:0:0:0:
185,293,29569,1,2,0:0:0:0:
161,301,29652,1,0,0:0:0:0:
138,303,29735,1,10,0:0:0:0:
114,300,29819,1,0,0:0:0:0:
93,290,29902,1,2,0:0:0:0:
73,276,29985,1,0,0:0:0:0:
58,257,30069,2,0,B|64:218|64:218|92:184,1,80,2|0,0:0|0:0,0:0:0:0:
158,106,30403,2,0,B|150:65|150:65|125:35,1,80,10|0,0:0|0:0,0:0:0:0:
22,132,30736,5,2,0:0:0:0:
22,27,30903,1,2,0:0:0:0:
91,187,31069,1,10,0:0:0:0:
91,187,31153,1,0,0:0:0:0:
91,187,31236,1,0,0:0:0:0:
238,171,31403,1,2,0:0:0:0:
158,106,31569,1,2,0:0:0:0:
173,257,31736,2,0,B|154:374|154:374|116:347,1,160,10|2,0:0|0:0,0:0:0:0:
165,181,32236,5,2,0:0:0:0:
188,180,32319,1,0,0:0:0:0:
211,187,32403,1,10,0:0:0:0:
267,273,32569,1,0,0:0:0:0:
411,207,32736,1,2,0:0:0:0:
415,183,32819,1,0,0:0:0:0:
419,159,32902,1,0,0:0:0:0:
423,136,32986,1,0,0:0:0:0:
427,112,33069,2,0,L|402:79,1,40,10|0,0:0|0:0,0:0:0:0:
323,104,33236,2,0,L|347:136,1,40,2|0,0:0|0:0,0:0:0:0:
493,176,33403,5,2,3:2:0:0:
511,54,33569,1,2,3:2:0:0:
427,112,33736,1,2,3:2:0:0:
318,23,33903,1,2,3:2:0:0:
318,23,33986,6,0,P|206:36|177:145,1,240.000009155274,2|0,3:2|0:0,0:0:0:0:
184,156,34736,6,0,P|213:158|262:138,1,60.0000022888184,4|0,0:0|0:0,0:0:0:0:
308,121,35069,1,0,0:0:0:0:
379,128,35236,1,0,0:0:0:0:
427,181,35403,2,0,P|434:210|431:239,1,60.0000022888184,0|0,0:0|0:0,0:0:0:0:
472,299,35736,2,0,P|463:328|446:352,1,60.0000022888184,0|0,0:0|0:0,0:0:0:0:
376,336,36069,6,0,P|347:334|298:354,1,60.0000022888184,2|0,0:0|0:0,0:0:0:0:
252,371,36402,1,0,0:0:0:0:
181,364,36569,1,0,0:0:0:0:
133,311,36736,2,0,P|125:281|128:252,1,60.0000022888184,0|0,0:0|0:0,0:0:0:0:
88,193,37069,2,0,P|96:164|113:139,1,60.0000022888184,0|0,0:0|0:0,0:0:0:0:
210,92,37403,6,0,P|192:117|185:146,1,60.0000022888184,2|0,0:0|0:0,0:0:0:0:
201,216,37736,1,0,0:0:0:0:
272,222,37903,1,0,0:0:0:0:
231,281,38069,2,0,P|201:287|172:283,1,60.0000022888184,0|0,0:0|0:0,0:0:0:0:
102,307,38403,2,0,P|118:332|142:350,1,60.0000022888184,0|0,0:0|0:0,0:0:0:0:
214,360,38736,6,0,P|243:357|270:344,1,60.0000022888184,2|0,0:0|0:0,0:0:0:0:
302,279,39069,1,0,0:0:0:0:
342,339,39236,1,0,0:0:0:0:
374,274,39403,2,0,P|363:245|344:221,1,60.0000022888184,0|0,0:0|0:0,0:0:0:0:
304,163,39736,2,0,P|314:134|333:110,1,60.0000022888184,0|0,0:0|0:0,0:0:0:0:
296,4,40069,6,0,P|283:37|262:66,1,70.000000667572,2|0,0:0|0:0,0:0:0:0:
182,116,40403,1,0,0:0:0:0:
155,36,40569,1,0,0:0:0:0:
190,124,40736,2,0,P|196:158|190:193,1,70.000000667572,2|0,0:0|0:0,0:0:0:0:
154,266,41069,2,0,P|188:272|222:268,1,70.000000667572,0|0,0:0|0:0,0:0:0:0:
374,217,41403,6,0,P|340:211|306:215,1,70.000000667572,2|0,0:0|0:0,0:0:0:0:
232,276,41737,1,0,0:0:0:0:
290,336,41903,1,0,0:0:0:0:
224,268,42070,2,0,P|195:248|161:238,1,70.000000667572,2|0,0:0|0:0,0:0:0:0:
79,237,42403,2,0,P|88:204|107:175,1,70.000000667572,0|0,0:0|0:0,0:0:0:0:
249,82,42736,5,2,3:2:0:0:
225,86,42903,1,0,3:0:0:0:
185,161,43069,1,2,3:2:0:0:
209,165,43236,1,0,3:0:0:0:
249,240,43402,1,2,3:2:0:0:
225,244,43569,1,0,3:0:0:0:
185,319,43736,1,2,3:2:0:0:
209,323,43903,1,0,3:0:0:0:
323,310,44069,5,2,3:2:0:0:
340,283,44152,1,0,3:0:0:0:
352,255,44235,1,2,3:2:0:0:
357,224,44319,1,0,3:0:0:0:
353,192,44402,1,2,3:2:0:0:
349,162,44485,1,0,3:0:0:0:
354,131,44569,1,2,3:2:0:0:
367,102,44652,1,0,3:0:0:0:
385,76,44736,2,0,P|414:57|450:52,1,70.000000667572,2|0,3:2|0:0,0:0:0:0:
507,111,45069,2,0,P|477:130|443:135,1,70.000000667572,2|0,0:0|0:0,0:0:0:0:
256,97,45403,5,4,0:0:0:0:
305,200,45569,1,0,0:0:0:0:
350,116,45736,1,10,0:0:0:0:
262,286,45903,1,0,0:0:0:0:
262,286,45986,2,0,B|240:276|240:276|178:217|178:217|157:208,1,132.00000402832,2|0,0:0|0:0,0:0:0:0:
44,182,46403,1,8,0:0:0:0:
84,269,46569,1,0,0:0:0:0:
125,116,46736,5,2,0:0:0:0:
125,116,46819,1,0,0:0:0:0:
125,116,46902,1,2,0:0:0:0:
44,182,47069,1,10,0:0:0:0:
44,14,47236,1,0,0:0:0:0:
44,14,47319,2,0,B|62:28|62:28|106:102|106:102|124:115,1,132.00000402832,2|0,0:0|0:0,0:0:0:0:
234,150,47736,1,8,0:0:0:0:
232,246,47903,1,0,0:0:0:0:
354,130,48069,5,2,0:0:0:0:
234,150,48236,1,2,0:0:0:0:
234,150,48319,1,0,0:0:0:0:
234,150,48403,1,10,0:0:0:0:
232,246,48569,1,0,0:0:0:0:
160,92,48736,5,2,0:0:0:0:
143,212,48903,1,2,0:0:0:0:
143,212,48986,1,0,0:0:0:0:
143,212,49070,1,10,0:0:0:0:
232,246,49236,1,0,0:0:0:0:
108,291,49403,6,0,B|114:265|114:265|134:237|134:237|142:211,1,88.000002685547,2|0,0:0|0:0,0:0:0:0:
248,161,49736,2,0,B|238:187|238:187|240:221|240:221|231:245,1,88.000002685547,8|0,0:0|0:0,0:0:0:0:
202,342,50069,5,2,0:0:0:0:
227,337,50152,1,0,0:0:0:0:
253,332,50235,1,0,0:0:0:0:
279,328,50319,1,0,0:0:0:0:
305,324,50402,5,10,0:0:0:0:
331,320,50485,1,0,0:0:0:0:
357,315,50569,1,8,0:0:0:0:
383,310,50652,1,0,0:0:0:0:
409,305,50735,5,4,0:0:0:0:
501,235,50903,1,0,0:0:0:0:
409,210,51069,1,10,0:0:0:0:
305,323,51236,1,0,0:0:0:0:
305,323,51320,2,0,B|281:323|281:323|200:295|200:295|177:297,1,132.00000402832,2|0,0:0|0:0,0:0:0:0:
65,315,51736,1,8,0:0:0:0:
109,230,51903,1,0,0:0:0:0:
79,84,52069,5,2,0:0:0:0:
79,84,52152,1,0,0:0:0:0:
79,84,52235,1,2,0:0:0:0:
35,169,52403,1,10,0:0:0:0:
175,88,52569,1,0,0:0:0:0:
175,88,52653,2,0,B|198:86|198:86|279:114|279:114|303:114,1,132.00000402832,2|0,0:0|0:0,0:0:0:0:
415,99,53069,1,8,0:0:0:0:
369,184,53236,1,0,0:0:0:0:
281,33,53403,5,2,0:0:0:0:
415,99,53569,1,2,0:0:0:0:
415,99,53653,1,0,0:0:0:0:
415,99,53736,1,10,0:0:0:0:
302,114,53903,1,0,0:0:0:0:
394,18,54069,5,2,0:0:0:0:
281,33,54236,1,2,0:0:0:0:
281,33,54319,1,0,0:0:0:0:
281,33,54403,1,10,0:0:0:0:
415,99,54569,1,0,0:0:0:0:
302,114,54736,6,0,L|257:107,1,40,2|0,0:0|0:0,0:0:0:0:
260,184,54903,2,0,L|239:223,1,40,2|0,0:0|0:0,0:0:0:0:
313,246,55069,2,0,L|344:277,1,40,2|0,0:0|0:0,0:0:0:0:
388,213,55236,2,0,L|427:192,1,40,2|0,0:0|0:0,0:0:0:0:
379,133,55403,5,2,0:0:0:0:
226,318,55736,1,2,3:2:0:0:
221,294,55819,1,0,3:2:0:0:
217,270,55902,1,2,3:2:0:0:
213,247,55986,1,0,3:2:0:0:
209,221,56069,6,0,P|175:194|132:185,1,88.000002685547,4|0,3:2|0:0,0:0:0:0:
37,120,56403,2,0,P|76:103|120:107,1,88.000002685547,10|0,0:0|0:0,0:0:0:0:
230,70,56736,2,0,P|196:43|153:34,1,88.000002685547,2|0,0:0|0:0,0:0:0:0:
44,129,57069,1,10,0:0:0:0:
65,241,57236,1,0,0:0:0:0:
127,116,57403,1,2,0:0:0:0:
149,228,57570,1,0,0:0:0:0:
291,143,57736,6,0,L|346:152,2,44.0000013427735,2|0|0,3:2|3:2|3:2,0:0:0:0:
267,131,57986,2,0,P|234:82|248:0,1,132.00000402832,2|0,3:2|0:0,0:0:0:0:
348,50,58403,1,8,0:0:0:0:
454,10,58569,1,0,0:0:0:0:
415,189,58736,6,0,P|394:226|359:251,1,88.000002685547,2|0,0:0|0:0,0:0:0:0:
244,271,59069,2,0,P|212:300|200:343,1,88.000002685547,10|0,0:0|0:0,0:0:0:0:
379,327,59403,1,2,3:2:0:0:
337,176,59569,1,2,3:2:0:0:
280,342,59736,1,2,3:2:0:0:
358,252,59902,1,2,3:2:0:0:
192,176,60069,6,0,P|165:139|160:96,1,88.000002685547,2|0,3:2|0:0,0:0:0:0:
178,11,60403,1,2,0:0:0:0:
256,51,60569,1,2,0:0:0:0:
334,11,60736,2,0,B|348:79|348:79|355:112|356:151|320:175,1,176.000005371094,2|2,0:0|0:0,0:0:0:0:
193,201,61236,5,0,3:2:0:0:
193,201,61320,1,0,3:2:0:0:
193,201,61403,1,2,3:2:0:0:
232,270,61569,2,0,L|224:324,2,44.0000013427735,0|0|2,3:2|3:2|3:2,0:0:0:0:
320,174,61903,5,0,3:2:0:0:
320,174,61986,1,0,3:2:0:0:
320,174,62070,1,2,3:2:0:0:
311,254,62236,2,0,L|360:277,2,44.0000013427735,0|0|2,3:2|3:2|3:2,0:0:0:0:
248,141,62569,5,0,3:2:0:0:
241,114,62652,1,0,3:2:0:0:
235,88,62735,1,2,3:2:0:0:
286,12,62903,1,2,3:2:0:0:
152,61,63069,1,2,3:2:0:0:
317,106,63236,6,0,P|351:204|265:262,1,220.000006713867,2|0,3:2|0:0,0:0:0:0:
223,242,63736,6,0,B|225:286|192:320|192:320|155:294|147:241,1,180.000006866455,4|0,0:0|0:0,0:0:0:0:
186,171,64069,6,0,P|228:161|268:177,1,88.000002685547,4|0,0:0|0:0,0:0:0:0:
378,213,64403,2,0,P|417:193|439:156,1,88.000002685547,8|0,0:0|0:0,0:0:0:0:
339,38,64736,2,0,P|335:81|357:119,1,88.000002685547,0|0,0:0|0:0,0:0:0:0:
498,88,65070,1,10,0:0:0:0:
507,212,65236,1,0,0:0:0:0:
356,118,65403,6,0,P|273:94|198:135,1,176.000005371094,2|8,0:0|0:0,0:0:0:0:
165,251,65903,1,2,0:0:0:0:
165,251,65986,1,0,0:0:0:0:
164,251,66070,2,0,P|200:226|244:221,1,88.000002685547,2|0,0:0|0:0,0:0:0:0:
367,269,66403,2,0,P|331:294|287:299,1,88.000002685547,10|0,0:0|0:0,0:0:0:0:
106,317,66736,5,2,0:0:0:0:
215,350,66903,1,0,0:0:0:0:
145,209,67069,2,0,P|157:167|187:136,1,88.000002685547,10|0,0:0|0:0,0:0:0:0:
312,290,67403,1,2,0:0:0:0:
180,279,67569,1,0,0:0:0:0:
282,132,67736,2,0,P|270:89|240:58,1,88.000002685547,10|0,0:0|0:0,0:0:0:0:
353,217,68069,6,0,P|414:216|384:157,1,151.999995941162,2|0,0:0|0:0,0:0:0:0:
360,48,68403,5,10,0:0:0:0:
282,132,68569,1,0,0:0:0:0:
488,163,68736,1,2,0:0:0:0:
315,203,68903,1,0,0:0:0:0:
424,106,69069,1,10,0:0:0:0:
282,132,69236,1,8,0:0:0:0:
380,255,69403,6,0,P|344:280|300:285,1,88.000002685547,4|0,0:0|0:0,0:0:0:0:
155,261,69736,2,0,P|191:236|235:231,1,88.000002685547,10|0,0:0|0:0,0:0:0:0:
322,366,70069,1,2,0:0:0:0:
380,255,70236,1,0,0:0:0:0:
310,356,70403,1,10,0:0:0:0:
315,203,70569,1,0,0:0:0:0:
210,370,70736,6,0,P|123:371|61:312,1,176.000005371094,2|8,0:0|0:0,0:0:0:0:
44,165,71236,1,2,0:0:0:0:
44,165,71319,1,0,0:0:0:0:
44,165,71403,2,0,P|76:193|119:204,1,88.000002685547,2|0,0:0|0:0,0:0:0:0:
229,173,71736,1,10,0:0:0:0:
200,283,71903,1,0,0:0:0:0:
149,93,72069,5,2,0:0:0:0:
221,165,72236,1,2,0:0:0:0:
273,67,72403,1,10,0:0:0:0:
273,67,72486,1,0,0:0:0:0:
273,66,72569,2,0,L|279:23,1,44.0000013427735,0|0,0:0|0:0,0:0:0:0:
229,173,72736,5,2,0:0:0:0:
340,146,72903,1,2,0:0:0:0:
273,67,73069,1,10,0:0:0:0:
273,67,73152,1,0,0:0:0:0:
273,66,73236,2,0,L|238:39,1,44.0000013427735,0|0,0:0|0:0,0:0:0:0:
158,193,73403,5,2,3:2:0:0:
151,78,73570,1,2,3:2:0:0:
252,228,73736,1,2,3:2:0:0:
252,228,73819,1,0,3:0:0:0:
252,228,73902,2,0,L|258:271,1,44.0000013427735,0|0,3:0|3:0,0:0:0:0:
352,149,74069,5,2,3:2:0:0:
359,34,74236,1,2,3:2:0:0:
258,184,74402,1,2,3:2:0:0:
258,184,74485,1,0,3:0:0:0:
258,184,74569,2,0,L|251:227,1,44.0000013427735,0|0,3:0|3:0,0:0:0:0:
153,156,74736,6,0,P|182:116|221:103,1,88.000002685547,4|0,3:2|0:0,0:0:0:0:
265,308,75069,2,0,P|216:302|185:274,1,88.000002685547,8|0,0:0|0:0,0:0:0:0:
340,135,75403,2,0,P|358:174|352:217,1,88.000002685547,0|0,0:0|0:0,0:0:0:0:
218,104,75736,1,10,0:0:0:0:
309,23,75902,1,0,0:0:0:0:
120,43,76069,6,0,P|105:127|154:198,1,176.000005371094,2|8,0:0|0:0,0:0:0:0:
281,155,76569,1,2,0:0:0:0:
281,155,76653,1,0,0:0:0:0:
281,155,76736,2,0,P|241:139|217:103,1,88.000002685547,2|0,0:0|0:0,0:0:0:0:
297,4,77070,2,0,P|338:19|362:55,1,88.000002685547,10|0,0:0|0:0,0:0:0:0:
332,212,77403,5,2,0:0:0:0:
290,80,77569,1,0,0:0:0:0:
166,155,77736,2,0,L|141:70,1,88.000002685547,10|0,0:0|0:0,0:0:0:0:
3,212,78069,1,2,0:0:0:0:
34,62,78235,1,0,0:0:0:0:
166,155,78402,2,0,L|190:70,1,88.000002685547,10|0,0:0|0:0,0:0:0:0:
243,282,78736,6,0,P|186:307|198:245,1,151.999995941162,2|0,0:0|0:0,0:0:0:0:
283,170,79069,5,10,0:0:0:0:
168,155,79236,1,0,0:0:0:0:
111,322,79403,1,2,0:0:0:0:
197,246,79569,1,0,0:0:0:0:
81,157,79736,1,10,0:0:0:0:
242,122,79903,1,8,0:0:0:0:
87,240,80069,6,0,P|72:199|82:157,1,88.000002685547,6|0,0:0|0:0,0:0:0:0:
161,15,80403,2,0,P|145:55|155:98,1,88.000002685547,10|0,0:0|0:0,0:0:0:0:
243,218,80736,1,2,0:0:0:0:
303,120,80903,1,0,0:0:0:0:
416,105,81069,1,10,0:0:0:0:
498,184,81236,1,0,0:0:0:0:
379,22,81402,6,0,P|471:36|504:105,1,176.000005371094,2|8,0:0|0:0,0:0:0:0:
419,238,81903,1,2,0:0:0:0:
419,238,81986,1,0,0:0:0:0:
419,238,82070,2,0,P|413:195|386:161,1,88.000002685547,2|0,0:0|0:0,0:0:0:0:
291,95,82403,1,10,0:0:0:0:
379,22,82569,1,0,0:0:0:0:
284,201,82736,5,2,0:0:0:0:
342,299,82903,1,2,0:0:0:0:
322,161,83069,1,10,0:0:0:0:
318,165,83153,1,0,0:0:0:0:
314,169,83236,2,0,L|282:203,1,44.0000013427735,0|0,0:0|0:0,0:0:0:0:
215,271,83403,5,2,0:0:0:0:
379,103,83570,1,2,0:0:0:0:
241,190,83736,1,10,0:0:0:0:
241,190,83819,1,0,0:0:0:0:
241,190,83902,2,0,L|289:201,1,44.0000013427735,0|0,0:0|0:0,0:0:0:0:
380,224,84069,5,2,3:2:0:0:
151,166,84236,1,2,3:2:0:0:
304,76,84403,1,2,3:2:0:0:
304,76,84486,1,0,3:2:0:0:
304,76,84569,2,0,L|261:96,1,44.0000013427735,0|0,3:0|3:0,0:0:0:0:
159,157,84736,5,0,0:0:0:0:
241,190,84903,1,0,0:0:0:0:
81,124,85070,1,2,3:2:0:0:
76,154,85153,1,0,3:2:0:0:
81,185,85236,1,2,3:2:0:0:
94,212,85319,1,0,3:2:0:0:
117,231,85403,1,4,3:2:0:0:
