osu file format v14

[General]
AudioFilename: audio.mp3
AudioLeadIn: 1000
PreviewTime: 40079
Countdown: 0
SampleSet: Soft
StackLeniency: 0.7
Mode: 0
LetterboxInBreaks: 0
WidescreenStoryboard: 0

[Editor]
Bookmarks: 29069,80069
DistanceSpacing: 1
BeatDivisor: 2
GridSize: 4
TimelineZoom: 2.1

[Metadata]
Title:Saiyajin
TitleUnicode:Saiyajin
Artist:Thaehan
ArtistUnicode:Thaehan
Creator:pinataman
Version:Easy
Source:osu!
Tags:Power Up Dragon ball db dbz ドラゴンボール remix Featured Artist electronic
BeatmapID:1484421
BeatmapSetID:656764

[Difficulty]
HPDrainRate:2
CircleSize:2.5
OverallDifficulty:2.5
ApproachRate:3
SliderMultiplier:0.899999999999999
SliderTickRate:1

[Events]
//Background and Video events
0,0,"639668.jpg",0,0
//Break Periods
2,34935,38579
//Storyboard Layer 0 (Background)
//Storyboard Layer 1 (Fail)
//Storyboard Layer 2 (Pass)
//Storyboard Layer 3 (Foreground)
//Storyboard Sound Samples

[TimingPoints]
70,333.333333333333,4,2,1,100,1,0
33986,-100,4,2,1,70,0,0
40069,-100,4,2,1,80,0,0
42736,-100,4,2,1,90,0,0
45403,-100,4,2,1,100,0,1
54736,-100,4,2,1,100,0,0
64069,-100,4,2,1,100,0,1
85696,666.666666666667,4,2,1,100,1,0

[Colours]
Combo1 : 255,140,0
Combo2 : 0,110,255
Combo3 : 255,210,0

[HitObjects]
373,279,70,6,0,B|284:266|284:266|256:229,1,135,2|2,0:0|0:0,0:0:0:0:
212,151,903,1,2,0:0:0:0:
129,111,1236,2,0,P|123:177|164:228,1,135,2|2,0:0|0:0,0:0:0:0:
256,230,2069,1,2,0:0:0:0:
242,51,2736,6,0,P|330:62|395:121,1,180,4|0,0:0|0:0,0:0:0:0:
385,211,3736,1,10,0:0:0:0:
312,155,4069,2,0,P|271:138|227:144,1,89.9999999999999,2|8,0:0|0:0,0:0:0:0:
171,214,4736,1,2,0:0:0:0:
260,229,5069,1,10,0:0:0:0:
202,298,5403,6,0,L|112:310,1,89.9999999999999,2|10,0:0|0:0,0:0:0:0:
81,226,6069,2,0,L|170:213,1,89.9999999999999,2|10,0:0|0:0,0:0:0:0:
260,229,6736,2,0,L|272:139,1,89.9999999999999,2|10,0:0|0:0,0:0:0:0:
241,55,7403,1,2,0:0:0:0:
182,123,7736,1,10,0:0:0:0:
151,39,8069,6,0,P|106:33|76:157,1,180,4|2,0:0|0:0,0:0:0:0:
130,196,9069,1,10,0:0:0:0:
199,252,9403,2,0,L|288:239,1,89.9999999999999,2|8,0:0|0:0,0:0:0:0:
343,168,10069,1,2,0:0:0:0:
254,155,10403,1,10,0:0:0:0:
311,84,10736,6,0,P|356:78|396:96,1,89.9999999999999,2|10,0:0|0:0,0:0:0:0:
432,181,11403,2,0,P|437:225|464:260,1,89.9999999999999,2|10,0:0|0:0,0:0:0:0:
400,323,12069,2,0,P|364:295|320:290,1,89.9999999999999,2|10,0:0|0:0,0:0:0:0:
234,254,12736,2,0,P|216:212|222:168,1,89.9999999999999,2|10,0:0|0:0,0:0:0:0:
292,110,13403,6,0,P|361:67|353:151,1,180,4|0,0:0|0:0,0:0:0:0:
307,200,14403,1,10,0:0:0:0:
221,169,14736,2,0,P|176:163|135:180,1,89.9999999999999,2|8,0:0|0:0,0:0:0:0:
99,262,15403,1,2,0:0:0:0:
151,335,15736,1,10,0:0:0:0:
189,253,16069,6,0,L|278:265,1,89.9999999999999,2|10,0:0|0:0,0:0:0:0:
367,281,16736,2,0,L|379:191,1,89.9999999999999,2|10,0:0|0:0,0:0:0:0:
462,155,17403,2,0,L|474:244,1,89.9999999999999,2|10,0:0|0:0,0:0:0:0:
443,328,18070,1,2,0:0:0:0:
364,372,18403,1,10,0:0:0:0:
288,325,18736,6,0,P|223:324|117:384,1,180,4|2,0:0|0:0,0:0:0:0:
40,342,19736,1,10,0:0:0:0:
28,253,20069,2,0,P|53:217|93:198,1,89.9999999999999,2|8,0:0|0:0,0:0:0:0:
185,235,20736,1,2,0:0:0:0:
112,288,21070,1,10,0:0:0:0:
194,323,21403,6,0,P|235:307|263:272,1,89.9999999999999,2|8,0:0|0:0,0:0:0:0:
342,229,22069,2,0,P|312:196|269:182,1,89.9999999999999,2|10,0:0|0:0,0:0:0:0:
222,105,22736,2,0,P|232:62|261:28,1,89.9999999999999,2|10,0:0|0:0,0:0:0:0:
352,22,23403,1,0,0:0:0:0:
269,182,24069,6,0,B|302:212|302:212|349:225,2,89.9999999999999,2|10|2,0:0|0:0|0:0,0:0:0:0:
232,99,25069,1,10,0:0:0:0:
179,173,25403,2,0,B|142:200|142:200|94:208,1,89.9999999999999,2|10,0:0|0:0,0:0:0:0:
27,262,26069,2,0,B|63:289|63:289|107:296,1,89.9999999999999,2|10,0:0|0:0,0:0:0:0:
194,273,26736,5,2,0:0:0:0:
260,212,27069,1,10,0:0:0:0:
350,214,27403,2,0,B|376:250|376:250|383:294,1,89.9999999999999,2|10,0:0|0:0,0:0:0:0:
472,308,28069,2,0,L|484:218,1,89.9999999999999,2|10,0:0|0:0,0:0:0:0:
494,129,28736,1,2,0:0:0:0:
378,266,29403,6,0,B|384:310|384:310|367:357,2,89.9999999999999,4|10|2,0:0|0:0|0:0,0:0:0:0:
305,212,30403,1,10,0:0:0:0:
228,258,30736,2,0,B|215:215|215:215|225:170,1,89.9999999999999,2|10,0:0|0:0,0:0:0:0:
303,125,31403,2,0,B|271:92|271:92|228:79,1,89.9999999999999,2|10,0:0|0:0,0:0:0:0:
149,122,32070,5,2,0:0:0:0:
97,48,32403,1,10,0:0:0:0:
32,109,32736,2,0,B|22:153|22:153|34:196,1,89.9999999999999,2|10,0:0|0:0,0:0:0:0:
85,269,33403,1,2,0:0:0:0:
169,239,33736,1,10,0:0:0:0:
253,209,34069,6,0,B|282:205|282:205|309:218|309:218|339:215|339:215|366:228|366:228|395:225|395:225|422:238,1,180,2|0,0:0|0:0,0:0:0:0:
256,192,40069,12,2,44069,3:2:0:0:
317,150,45403,5,4,0:0:0:0:
304,61,45736,1,10,0:0:0:0:
393,47,46069,2,0,L|406:136,1,89.9999999999999,2|8,0:0|0:0,0:0:0:0:
417,226,46736,1,2,0:0:0:0:
506,213,47069,1,10,0:0:0:0:
495,124,47402,2,0,L|405:136,1,89.9999999999999,2|8,0:0|0:0,0:0:0:0:
333,191,48069,6,0,P|288:197|247:180,1,89.9999999999999,2|10,0:0|0:0,0:0:0:0:
204,101,48736,2,0,P|162:83|118:90,1,89.9999999999999,2|10,0:0|0:0,0:0:0:0:
31,110,49403,2,0,L|18:21,2,89.9999999999999,2|8|2,0:0|0:0|0:0,0:0:0:0:
63,194,50403,1,10,0:0:0:0:
151,175,50736,5,4,0:0:0:0:
183,259,51069,1,10,0:0:0:0:
271,240,51403,2,0,P|298:204|303:160,1,89.9999999999999,2|8,0:0|0:0,0:0:0:0:
294,71,52069,1,2,0:0:0:0:
209,39,52402,1,10,0:0:0:0:
223,128,52736,2,0,P|258:155|302:160,1,89.9999999999999,2|8,0:0|0:0,0:0:0:0:
385,120,53403,6,0,L|398:209,1,89.9999999999999,2|10,0:0|0:0,0:0:0:0:
366,293,54069,2,0,L|277:280,1,89.9999999999999,2|10,0:0|0:0,0:0:0:0:
221,209,54736,1,2,0:0:0:0:
150,265,55069,1,2,0:0:0:0:
207,336,55403,1,2,0:0:0:0:
334,211,56069,6,0,P|361:246|367:290,2,89.9999999999999,4|10|2,3:2|0:0|0:0,0:0:0:0:
257,165,57069,1,10,0:0:0:0:
289,80,57403,1,2,0:0:0:0:
200,94,57736,2,0,L|111:107,1,89.9999999999999,10|2,0:0|0:0,0:0:0:0:
49,172,58403,1,8,0:0:0:0:
109,240,58736,6,0,P|153:246|194:229,1,89.9999999999999,2|10,0:0|0:0,0:0:0:0:
257,165,59403,1,2,0:0:0:0:
314,236,59736,1,10,0:0:0:0:
371,307,60069,1,2,0:0:0:0:
70,108,61403,5,2,0:0:0:0:
58,197,61736,1,10,0:0:0:0:
142,163,62069,2,0,P|186:156|227:173,1,89.9999999999999,2|10,0:0|0:0,0:0:0:0:
285,242,62736,1,2,0:0:0:0:
315,158,63069,2,0,L|321:113,1,45,10|10,0:0|0:0,0:0:0:0:
257,332,64069,6,0,P|169:320|103:261,1,180,4|0,0:0|0:0,0:0:0:0:
115,173,65069,1,10,0:0:0:0:
188,229,65402,2,0,P|229:246|273:240,1,89.9999999999999,2|8,0:0|0:0,0:0:0:0:
329,170,66069,1,2,0:0:0:0:
240,155,66402,1,10,0:0:0:0:
298,86,66736,6,0,L|388:74,1,89.9999999999999,2|10,0:0|0:0,0:0:0:0:
419,158,67402,2,0,L|330:171,1,89.9999999999999,2|10,0:0|0:0,0:0:0:0:
240,155,68069,2,0,L|228:245,1,89.9999999999999,2|10,0:0|0:0,0:0:0:0:
259,329,68736,1,2,0:0:0:0:
318,261,69069,1,10,0:0:0:0:
349,345,69403,6,0,P|394:351|424:227,1,180,4|2,0:0|0:0,0:0:0:0:
370,188,70402,1,10,0:0:0:0:
301,132,70736,2,0,L|212:145,1,89.9999999999999,2|8,0:0|0:0,0:0:0:0:
157,216,71402,1,2,0:0:0:0:
246,229,71735,1,10,0:0:0:0:
188,301,72069,6,0,P|144:307|104:289,1,89.9999999999999,2|10,0:0|0:0,0:0:0:0:
68,203,72736,2,0,P|63:159|36:124,1,89.9999999999999,2|10,0:0|0:0,0:0:0:0:
100,61,73402,2,0,P|136:89|180:94,1,89.9999999999999,2|10,0:0|0:0,0:0:0:0:
266,130,74069,2,0,P|284:172|278:216,1,89.9999999999999,2|10,0:0|0:0,0:0:0:0:
208,273,74736,6,0,P|138:316|146:232,1,180,4|0,0:0|0:0,0:0:0:0:
193,184,75736,1,10,0:0:0:0:
278,216,76069,2,0,P|323:222|364:205,1,89.9999999999999,2|8,0:0|0:0,0:0:0:0:
400,123,76736,1,2,0:0:0:0:
348,50,77069,1,10,0:0:0:0:
310,132,77402,6,0,L|221:120,1,89.9999999999999,2|10,0:0|0:0,0:0:0:0:
133,103,78069,2,0,L|121:193,1,89.9999999999999,2|10,0:0|0:0,0:0:0:0:
38,229,78736,2,0,L|26:140,1,89.9999999999999,2|10,0:0|0:0,0:0:0:0:
57,56,79403,1,2,0:0:0:0:
136,12,79736,1,10,0:0:0:0:
212,59,80069,6,0,P|257:65|298:48,1,89.9999999999999,6|10,0:0|0:0,0:0:0:0:
377,5,80736,1,2,0:0:0:0:
453,51,81069,1,10,0:0:0:0:
452,141,81402,2,0,P|422:173|380:186,1,89.9999999999999,2|8,0:0|0:0,0:0:0:0:
294,137,82069,1,2,0:0:0:0:
374,94,82403,1,10,0:0:0:0:
297,48,82736,6,0,P|253:57|220:87,1,89.9999999999999,2|8,0:0|0:0,0:0:0:0:
142,130,83402,2,0,P|171:163|213:177,1,89.9999999999999,2|10,0:0|0:0,0:0:0:0:
251,261,84069,2,0,P|235:302|201:331,1,89.9999999999999,2|10,0:0|0:0,0:0:0:0:
110,321,84736,2,0,P|126:280|160:251,1,89.9999999999999
214,178,85403,1,4,0:0:0:0:
