osu file format v14

[General]
AudioFilename: audio.mp3
AudioLeadIn: 0
PreviewTime: -1
Countdown: 1
SampleSet: Normal
StackLeniency: 0.2
Mode: 0
LetterboxInBreaks: 0
WidescreenStoryboard: 1

[Editor]
DistanceSpacing: 2.1
BeatDivisor: 4
GridSize: 8
TimelineZoom: 3.499999

[Metadata]
Title:Saiyajin
TitleUnicode:Saiyajin
Artist:Thaehan
ArtistUnicode:Thaehan
Creator:mqno
Version:saijaian
Source:
Tags:
BeatmapID:1697696
BeatmapSetID:645855

[Difficulty]
HPDrainRate:7
CircleSize:4
OverallDifficulty:9
ApproachRate:9.5
SliderMultiplier:1.4
SliderTickRate:1

[Events]
//Background and Video events
0,0,"13745c4b4446d7f9b1059644437f4e57.jpg",0,0
//Break Periods
//Storyboard Layer 0 (Background)
//Storyboard Layer 1 (Fail)
//Storyboard Layer 2 (Pass)
//Storyboard Layer 3 (Foreground)
//Storyboard Sound Samples

[TimingPoints]
80,333.333333333333,4,1,1,60,1,0
5079,-66.6666666666667,4,1,1,60,0,0
10079,-76.9230769230769,4,1,1,60,0,0
13413,-66.6666666666667,4,1,1,60,0,0
13746,-76.9230769230769,4,1,1,60,0,0
34079,-250,4,1,1,60,0,0
34746,-125,4,1,1,60,0,0
40079,-100,4,1,1,60,0,0
42746,-83.3333333333333,4,1,1,60,0,0
44079,-76.9230769230769,4,1,1,60,0,0
45413,-71.4285714285714,4,1,1,60,0,1
50079,-100,4,1,1,60,0,1
50746,-71.4285714285714,4,1,1,60,0,1
54746,-71.4285714285714,4,1,1,60,0,0
56079,-66.6666666666667,4,1,1,60,0,0
61079,-100,4,1,1,60,0,0
63246,-66.6666666666667,4,1,1,60,0,0
64079,-62.5,4,1,1,60,0,1
66079,-83.3333333333333,4,1,1,60,0,1
66413,-52.6315789473684,4,1,1,60,0,1
69413,-58.8235294117647,4,1,1,60,0,1
74746,-52.6315789473684,4,1,1,60,0,1
85413,-52.6315789473684,4,1,1,30,0,1
85696,666.666666666667,4,1,1,60,1,0

[HitObjects]
113,124,80,5,0,0:0:0:0:
178,186,246,1,0,0:0:0:0:
178,186,413,1,0,0:0:0:0:
304,56,579,1,0,0:0:0:0:
178,186,913,5,0,0:0:0:0:
250,131,1246,6,0,P|289:165|293:217,1,105
278,225,1579,1,0,0:0:0:0:
91,194,1746,1,0,0:0:0:0:
183,88,1913,1,0,0:0:0:0:
171,329,2079,5,0,0:0:0:0:
136,321,2163,1,0,0:0:0:0:
111,296,2246,1,0,0:0:0:0:
100,262,2329,1,0,0:0:0:0:
102,226,2413,1,0,0:0:0:0:
111,192,2496,1,0,0:0:0:0:
107,157,2579,1,0,0:0:0:0:
96,127,2663,1,0,0:0:0:0:
26,124,2746,6,0,P|62:64|132:66,1,140
196,184,3246,2,0,B|260:172|260:172|303:182|303:182|339:175,1,140
415,62,3746,5,0,0:0:0:0:
246,284,3912,1,0,0:0:0:0:
386,288,4079,2,0,P|413:227|386:163,1,140
309,82,4579,5,0,0:0:0:0:
273,66,4663,1,0,0:0:0:0:
234,69,4746,2,0,P|201:89|195:160,1,105
201,168,5079,2,0,B|241:227|241:227|240:247|240:247|289:309,1,157.500006008148
354,84,5413,5,0,0:0:0:0:
180,218,5579,1,0,0:0:0:0:
400,222,5746,1,0,0:0:0:0:
231,19,5913,1,0,0:0:0:0:
400,222,6079,5,0,0:0:0:0:
195,138,6246,1,0,0:0:0:0:
403,44,6413,1,0,0:0:0:0:
403,263,6579,1,0,0:0:0:0:
402,21,6746,5,0,0:0:0:0:
235,196,6913,1,0,0:0:0:0:
475,199,7079,1,0,0:0:0:0:
290,42,7246,1,0,0:0:0:0:
377,267,7413,1,0,0:0:0:0:
220,263,7580,1,0,0:0:0:0:
444,43,7746,1,0,0:0:0:0:
220,263,7913,6,0,B|255:222|255:222|270:217|270:217|317:168,1,105.000004005432
395,181,8246,2,0,B|354:146|354:146|349:131|349:131|300:84,1,105.000004005432
273,43,8579,2,0,B|253:62|253:62|250:69|250:69|220:92,1,52.5000020027161
143,176,8746,5,0,0:0:0:0:
160,202,8829,1,0,0:0:0:0:
187,218,8913,1,0,0:0:0:0:
218,219,8996,1,0,0:0:0:0:
240,190,9079,2,0,L|241:132,2,52.5000020027161
64,313,9413,6,0,B|113:291|113:291|153:341|194:336|194:336|213:309|249:311,1,210.000008010865
314,335,9829,1,0,0:0:0:0:
309,261,9913,1,0,0:0:0:0:
304,187,9996,1,0,0:0:0:0:
299,113,10079,2,0,P|271:148|219:169,1,90.9999958343508
128,184,10413,2,0,P|150:224|193:245,1,90.9999958343508
395,128,10746,5,0,0:0:0:0:
219,337,10913,1,0,0:0:0:0:
326,225,11079,1,0,0:0:0:0:
326,183,11163,1,0,0:0:0:0:
324,142,11246,1,0,0:0:0:0:
214,60,11413,5,0,0:0:0:0:
210,331,11579,1,0,0:0:0:0:
326,225,11746,1,0,0:0:0:0:
326,183,11830,1,0,0:0:0:0:
324,142,11913,1,0,0:0:0:0:
75,253,12079,5,0,0:0:0:0:
419,85,12246,1,0,0:0:0:0:
256,301,12413,1,0,0:0:0:0:
255,251,12496,1,0,0:0:0:0:
255,201,12579,1,0,0:0:0:0:
256,18,12746,5,0,0:0:0:0:
458,343,12913,1,0,0:0:0:0:
195,270,13079,1,0,0:0:0:0:
194,219,13163,1,0,0:0:0:0:
193,169,13246,1,0,0:0:0:0:
192,119,13329,1,0,0:0:0:0:
191,68,13413,6,0,B|240:67|240:67|279:119|262:177,1,157.500006008148
80,241,13746,2,0,B|77:198|77:198|87:142,1,90.9999958343508
269,75,14079,2,0,B|309:75|309:75|322:83|322:83|366:82,1,90.9999958343508
449,337,14413,1,0,0:0:0:0:
419,44,14579,1,0,0:0:0:0:
374,159,14746,6,0,B|371:225|371:225|377:241|377:241|375:300,1,136.499993751526
301,308,15079,2,0,L|302:254,1,45.4999979171754
230,200,15246,2,0,L|228:255,1,45.4999979171754
156,334,15413,2,0,B|156:270|156:270|151:252|151:252|153:157,1,136.499993751526
253,177,15746,2,0,P|226:115|151:99,1,136.499993751526
45,250,16079,5,0,0:0:0:0:
317,228,16246,1,0,0:0:0:0:
45,250,16413,1,0,0:0:0:0:
210,34,16579,1,0,0:0:0:0:
198,307,16746,5,0,0:0:0:0:
210,34,16913,1,0,0:0:0:0:
456,148,17079,1,0,0:0:0:0:
185,105,17246,1,0,0:0:0:0:
321,341,17413,5,0,0:0:0:0:
329,69,17579,1,0,0:0:0:0:
115,239,17746,1,0,0:0:0:0:
433,249,17913,1,0,0:0:0:0:
187,33,18079,5,0,0:0:0:0:
206,351,18246,1,0,0:0:0:0:
353,67,18413,1,0,0:0:0:0:
228,308,18579,1,0,0:0:0:0:
353,67,18746,2,0,P|324:105|282:128,1,90.9999958343508
164,65,19079,2,0,P|126:86|107:133,1,90.9999958343508
382,115,19413,5,0,0:0:0:0:
116,170,19579,1,0,0:0:0:0:
196,280,19746,1,0,0:0:0:0:
237,9,19913,1,0,0:0:0:0:
238,212,20079,6,0,P|286:213|322:188,1,90.9999958343508
60,109,20413,1,0,0:0:0:0:
285,37,20579,1,0,0:0:0:0:
341,84,20663,1,0,0:0:0:0:
396,130,20746,2,0,B|386:165|386:165|399:216|399:216|386:273,1,136.499993751526
297,218,21079,2,0,B|257:191|249:148|249:148|225:155|192:152,1,136.499993751526
219,42,21413,5,0,0:0:0:0:
238,331,21579,1,0,0:0:0:0:
319,248,21746,1,0,0:0:0:0:
328,199,21830,1,0,0:0:0:0:
337,150,21913,1,0,0:0:0:0:
76,89,22079,5,0,0:0:0:0:
457,121,22246,1,0,0:0:0:0:
209,197,22413,1,0,0:0:0:0:
218,246,22496,1,0,0:0:0:0:
227,295,22580,1,0,0:0:0:0:
370,303,22746,6,0,L|432:268,3,45.4999979171754
317,184,23079,2,0,L|348:130,3,45.4999979171754
219,71,23413,2,0,B|264:137|197:173|197:173|185:174|142:159|91:206|104:265,1,272.999987503052
169,313,24079,5,0,0:0:0:0:
224,313,24163,1,0,0:0:0:0:
274,292,24246,1,0,0:0:0:0:
311,252,24329,1,0,0:0:0:0:
237,224,24413,2,0,P|250:184|291:157,1,90.9999958343508
443,167,24746,5,0,0:0:0:0:
365,342,24913,1,0,0:0:0:0:
365,61,25079,1,0,0:0:0:0:
365,252,25246,1,0,0:0:0:0:
495,149,25413,1,0,0:0:0:0:
251,146,25579,1,0,0:0:0:0:
375,358,25746,5,0,0:0:0:0:
375,321,25829,1,0,0:0:0:0:
375,284,25913,1,0,0:0:0:0:
375,247,25996,1,0,0:0:0:0:
375,210,26079,1,0,0:0:0:0:
375,358,26246,1,0,0:0:0:0:
374,47,26413,2,0,P|322:86|250:86,1,136.499993751526
175,36,26746,5,0,0:0:0:0:
174,308,26913,1,0,0:0:0:0:
174,276,26996,1,0,0:0:0:0:
182,245,27079,1,0,0:0:0:0:
196,216,27163,1,0,0:0:0:0:
221,196,27246,6,0,L|268:200,1,45.4999979171754
284,328,27413,1,0,0:0:0:0:
319,321,27496,1,0,0:0:0:0:
348,299,27579,1,0,0:0:0:0:
365,266,27663,1,0,0:0:0:0:
333,215,27746,5,0,0:0:0:0:
336,156,27829,1,0,0:0:0:0:
367,105,27913,1,0,0:0:0:0:
422,83,27996,1,0,0:0:0:0:
479,94,28079,5,0,0:0:0:0:
434,190,28246,1,0,0:0:0:0:
283,43,28413,1,0,0:0:0:0:
248,248,28579,2,0,L|262:197,2,45.4999979171754
185,287,28829,6,0,L|156:249,1,45.4999979171754
92,292,28996,2,0,L|85:244,1,45.4999979171754
6,255,29163,2,0,L|24:210,1,45.4999979171754
77,88,29329,1,0,0:0:0:0:
77,88,29413,6,0,L|187:92,1,90.9999958343508
180,120,29663,1,0,0:0:0:0:
199,145,29746,1,0,0:0:0:0:
229,154,29829,1,0,0:0:0:0:
260,150,29913,1,0,0:0:0:0:
285,131,29996,1,0,0:0:0:0:
297,101,30079,5,0,0:0:0:0:
288,328,30246,1,0,0:0:0:0:
91,212,30413,1,0,0:0:0:0:
288,328,30579,1,0,0:0:0:0:
348,61,30746,1,0,0:0:0:0:
288,328,30913,1,0,0:0:0:0:
331,134,31079,5,0,0:0:0:0:
323,165,31163,1,0,0:0:0:0:
315,195,31246,1,0,0:0:0:0:
308,225,31329,1,0,0:0:0:0:
301,256,31413,1,0,0:0:0:0:
348,61,31579,1,0,0:0:0:0:
196,192,31746,2,0,B|179:252|179:252|170:263|170:263|153:329,1,136.499993751526
263,323,32079,5,0,0:0:0:0:
322,242,32246,1,0,0:0:0:0:
329,211,32329,1,0,0:0:0:0:
326,179,32412,2,0,P|312:137|271:110,1,90.9999958343508
92,126,32746,5,0,0:0:0:0:
76,163,32829,1,0,0:0:0:0:
77,204,32913,1,0,0:0:0:0:
98,238,32996,1,0,0:0:0:0:
130,262,33079,1,0,0:0:0:0:
151,297,33163,1,0,0:0:0:0:
152,337,33246,1,0,0:0:0:0:
130,371,33329,1,0,0:0:0:0:
91,356,33413,5,0,0:0:0:0:
299,181,33579,1,0,0:0:0:0:
292,317,33746,1,0,0:0:0:0:
307,43,33913,1,0,0:0:0:0:
271,50,33996,1,0,0:0:0:0:
246,76,34079,2,0,B|246:178,1,98
250,305,34746,6,0,P|277:307|308:298,1,56
394,214,35079,2,0,P|406:190|406:153,1,56
375,41,35413,2,0,P|346:34|316:42,1,56
318,163,35746,1,0,0:0:0:0:
317,286,35913,1,0,0:0:0:0:
194,289,36079,6,0,P|161:275|137:256,1,56
87,153,36413,2,0,P|91:122|101:95,1,56
206,159,36746,2,0,P|237:165|266:159,1,56
338,64,37079,1,0,0:0:0:0:
217,39,37246,1,0,0:0:0:0:
233,229,37413,5,0,0:0:0:0:
390,122,37579,1,0,0:0:0:0:
217,39,37746,1,0,0:0:0:0:
203,229,37913,1,0,0:0:0:0:
359,121,38079,1,0,0:0:0:0:
190,31,38246,1,0,0:0:0:0:
165,220,38413,1,0,0:0:0:0:
235,133,38579,1,0,0:0:0:0:
45,154,38746,6,0,P|36:185|40:218,1,56
92,306,39079,2,0,P|116:318|152:317,1,56
260,165,39413,1,0,0:0:0:0:
168,247,39579,1,0,0:0:0:0:
267,84,39746,1,0,0:0:0:0:
168,247,39913,1,0,0:0:0:0:
378,55,40079,6,0,P|412:61|442:93,1,70
324,168,40413,2,0,P|321:204|332:235,1,70
439,325,40746,1,0,0:0:0:0:
409,123,40913,1,0,0:0:0:0:
239,233,41079,1,0,0:0:0:0:
421,226,41246,1,0,0:0:0:0:
323,71,41413,6,0,P|290:58|254:58,1,70
308,232,41746,2,0,P|313:268|303:305,1,70
108,206,42079,2,0,P|142:193|177:193,1,70
457,192,42413,2,0,P|446:226|419:250,1,70
266,315,42746,5,0,0:0:0:0:
487,96,42913,1,0,0:0:0:0:
189,183,43079,5,0,0:0:0:0:
499,199,43246,1,0,0:0:0:0:
378,107,43413,1,0,0:0:0:0:
376,357,43579,1,0,0:0:0:0:
152,207,43746,1,0,0:0:0:0:
452,248,43913,1,0,0:0:0:0:
208,334,44079,1,0,0:0:0:0:
168,312,44163,5,0,0:0:0:0:
147,270,44246,1,0,0:0:0:0:
144,224,44329,1,0,0:0:0:0:
157,181,44413,1,0,0:0:0:0:
186,146,44496,1,0,0:0:0:0:
206,105,44579,1,0,0:0:0:0:
204,59,44663,1,0,0:0:0:0:
182,19,44746,5,0,0:0:0:0:
84,97,44913,1,0,0:0:0:0:
449,10,45079,1,0,0:0:0:0:
226,240,45246,1,0,0:0:0:0:
306,93,45413,5,0,0:0:0:0:
298,375,45579,1,0,0:0:0:0:
306,93,45746,1,0,0:0:0:0:
226,240,45913,1,0,0:0:0:0:
208,247,45996,1,0,0:0:0:0:
189,249,46079,2,0,P|140:234|112:174,1,97.9999970092774
70,67,46413,2,0,B|115:62|115:62|129:65|129:65|181:57,1,97.9999970092774
101,191,46746,5,0,0:0:0:0:
98,225,46829,1,0,0:0:0:0:
96,259,46913,1,0,0:0:0:0:
94,293,46996,1,0,0:0:0:0:
131,315,47079,1,0,0:0:0:0:
214,32,47246,1,0,0:0:0:0:
213,282,47413,1,0,0:0:0:0:
214,32,47579,1,0,0:0:0:0:
106,99,47746,2,0,P|145:128|202:118,1,97.9999970092774
318,48,48079,5,0,0:0:0:0:
23,37,48246,1,0,0:0:0:0:
25,66,48329,1,0,0:0:0:0:
27,95,48413,1,0,0:0:0:0:
242,209,48579,1,0,0:0:0:0:
219,63,48746,5,0,0:0:0:0:
80,260,48913,1,0,0:0:0:0:
78,290,48996,1,0,0:0:0:0:
76,320,49079,1,0,0:0:0:0:
305,64,49246,1,0,0:0:0:0:
161,31,49413,6,0,B|156:157,1,97.9999970092774
228,196,49746,2,0,P|179:218|126:212,1,97.9999970092774
130,65,50079,2,0,L|154:99,1,35
281,67,50246,2,0,L|257:101,1,35
278,228,50413,2,0,L|253:193,1,35
126,225,50580,2,0,L|150:191,1,35
257,101,50746,5,0,0:0:0:0:
254,375,50913,1,0,0:0:0:0:
167,269,51079,1,0,0:0:0:0:
435,210,51246,1,0,0:0:0:0:
393,264,51329,1,0,0:0:0:0:
349,317,51413,2,0,L|238:336,1,97.9999970092774
281,239,51746,2,0,P|296:185|289:143,1,97.9999970092774
200,83,52079,5,0,0:0:0:0:
199,113,52162,1,0,0:0:0:0:
199,144,52245,1,0,0:0:0:0:
198,174,52329,1,0,0:0:0:0:
198,205,52412,1,0,0:0:0:0:
200,83,52579,1,0,0:0:0:0:
195,357,52746,2,0,P|243:352|285:309,1,97.9999970092774
383,202,53079,2,0,P|342:176|292:178,1,97.9999970092774
151,245,53413,5,0,0:0:0:0:
463,242,53579,1,0,0:0:0:0:
463,201,53663,1,0,0:0:0:0:
464,161,53746,1,0,0:0:0:0:
276,101,53913,1,0,0:0:0:0:
317,371,54079,5,0,0:0:0:0:
463,242,54246,1,0,0:0:0:0:
463,201,54330,1,0,0:0:0:0:
464,161,54413,1,0,0:0:0:0:
183,252,54580,1,0,0:0:0:0:
353,338,54746,5,0,0:0:0:0:
401,98,54912,1,0,0:0:0:0:
158,133,55079,1,0,0:0:0:0:
363,266,55246,1,0,0:0:0:0:
325,102,55413,1,0,0:0:0:0:
308,84,55496,5,0,0:0:0:0:
283,69,55579,1,0,0:0:0:0:
253,64,55663,1,0,0:0:0:0:
218,61,55746,1,0,0:0:0:0:
184,58,55829,1,0,0:0:0:0:
139,56,55913,1,0,0:0:0:0:
85,52,55996,1,0,0:0:0:0:
25,84,56079,6,0,P|53:124|127:131,1,105.000004005432
265,224,56413,2,0,B|265:180|265:180|272:172|272:172|272:119,1,105.000004005432
138,38,56746,2,0,B|139:86|139:86|148:98|148:98|148:153,1,105.000004005432
136,350,57079,5,0,0:0:0:0:
138,38,57246,1,0,0:0:0:0:
136,332,57413,5,0,0:0:0:0:
137,59,57579,1,0,0:0:0:0:
284,301,57746,5,0,0:0:0:0:
260,281,57829,1,0,0:0:0:0:
235,261,57913,1,0,0:0:0:0:
211,241,57996,1,0,0:0:0:0:
186,222,58079,2,0,B|151:192|151:192|135:189|135:189|92:148,1,105.000004005432
82,312,58413,5,0,0:0:0:0:
362,76,58579,1,0,0:0:0:0:
153,44,58746,2,0,P|166:97|217:127,1,105.000004005432
471,196,59079,2,0,P|475:144|445:103,1,105.000004005432
192,181,59413,1,0,0:0:0:0:
415,335,59579,1,0,0:0:0:0:
321,66,59746,1,0,0:0:0:0:
390,239,59913,1,0,0:0:0:0:
233,16,60079,2,0,B|255:88|255:88|250:107|250:107|278:183,1,157.500006008148
319,290,60413,5,0,0:0:0:0:
478,83,60579,1,0,0:0:0:0:
400,49,60746,2,0,B|360:61|360:61|338:59|338:59|291:72,1,105.000004005432
94,254,61079,2,0,L|104:300,1,35
197,210,61246,5,0,0:0:0:0:
236,195,61329,1,0,0:0:0:0:
275,180,61413,1,0,0:0:0:0:
154,49,61579,5,0,0:0:0:0:
151,96,61663,1,0,0:0:0:0:
148,143,61746,1,0,0:0:0:0:
294,335,61913,5,0,0:0:0:0:
296,282,61996,1,0,0:0:0:0:
298,229,62079,1,0,0:0:0:0:
351,58,62246,5,0,0:0:0:0:
298,82,62330,1,0,0:0:0:0:
247,106,62413,1,0,0:0:0:0:
41,206,62579,5,0,0:0:0:0:
100,226,62663,1,0,0:0:0:0:
159,246,62746,1,0,0:0:0:0:
373,133,62913,1,0,0:0:0:0:
151,38,63079,1,0,0:0:0:0:
291,362,63246,2,0,B|445:350|491:251|494:176|407:82|294:143|284:232|344:268,1,472.500018024445
477,134,64079,6,0,P|462:82|420:43,1,112
87,102,64413,2,0,B|136:111|136:111|152:109|152:109|206:119,1,112
439,232,64746,2,0,P|473:189|477:134,1,112
244,30,65079,1,0,0:0:0:0:
228,310,65246,1,0,0:0:0:0:
380,145,65413,6,0,B|305:151|305:151|237:139|237:139|153:141,1,224
341,353,65913,1,0,0:0:0:0:
357,282,65996,1,0,0:0:0:0:
373,211,66079,2,0,B|361:169|361:169|361:134|361:134|339:72,1,125.999996154785
293,21,66413,2,0,P|233:97|252:192,1,199.499994672775
485,317,66746,5,0,0:0:0:0:
305,36,66913,1,0,0:0:0:0:
140,323,67079,1,0,0:0:0:0:
305,36,67246,1,0,0:0:0:0:
303,369,67413,5,0,0:0:0:0:
35,173,67579,1,0,0:0:0:0:
474,180,67746,1,0,0:0:0:0:
35,173,67913,1,0,0:0:0:0:
343,53,68079,5,0,0:0:0:0:
85,263,68246,1,0,0:0:0:0:
394,140,68413,1,0,0:0:0:0:
16,17,68579,1,0,0:0:0:0:
239,348,68746,5,0,0:0:0:0:
16,17,68913,1,0,0:0:0:0:
19,348,69079,1,0,0:0:0:0:
320,207,69246,1,0,0:0:0:0:
116,83,69413,2,0,B|110:139|110:139|102:153|102:153|96:211,1,119.000002269745
283,348,69746,2,0,B|287:301|287:301|295:288|295:288|301:231,1,119.000002269745
116,83,70079,5,0,0:0:0:0:
272,336,70246,1,0,0:0:0:0:
337,119,70413,5,0,0:0:0:0:
55,293,70580,1,0,0:0:0:0:
350,313,70746,2,0,B|396:282|396:282|416:279|416:279|461:252,1,119.000002269745
252,33,71079,2,0,L|252:93,1,59.5000011348725
258,242,71246,5,0,0:0:0:0:
324,215,71329,1,0,0:0:0:0:
391,189,71413,2,0,P|436:98|388:44,1,178.500003404617
100,83,71746,1,0,0:0:0:0:
98,381,71913,1,0,0:0:0:0:
369,261,72079,5,0,0:0:0:0:
11,263,72246,1,0,0:0:0:0:
256,221,72413,1,0,0:0:0:0:
256,189,72496,1,0,0:0:0:0:
256,156,72579,1,0,0:0:0:0:
258,44,72746,5,0,0:0:0:0:
82,284,72913,1,0,0:0:0:0:
257,224,73079,1,0,0:0:0:0:
254,188,73162,1,0,0:0:0:0:
253,150,73246,1,0,0:0:0:0:
250,44,73412,5,0,0:0:0:0:
87,292,73579,1,0,0:0:0:0:
259,229,73746,1,0,0:0:0:0:
254,188,73829,1,0,0:0:0:0:
250,144,73912,1,0,0:0:0:0:
242,44,74079,5,0,0:0:0:0:
92,301,74246,1,0,0:0:0:0:
260,220,74413,1,0,0:0:0:0:
255,189,74496,1,0,0:0:0:0:
250,156,74579,1,0,0:0:0:0:
245,122,74662,1,0,0:0:0:0:
232,46,74746,6,0,P|151:74|131:117,1,132.999996448517
174,348,75079,2,0,B|177:297|177:297|173:264|173:264|177:203,1,132.999996448517
349,47,75413,2,0,B|345:95|345:95|349:128|349:128|346:179,1,132.999996448517
349,303,75746,1,0,0:0:0:0:
119,61,75913,1,0,0:0:0:0:
136,232,76079,2,0,B|192:258|295:273|310:198|296:138|221:138,1,265.999992897034
58,148,76579,5,0,0:0:0:0:
66,221,76663,1,0,0:0:0:0:
75,293,76746,2,0,P|150:353|231:309,1,199.499994672775
167,76,77079,2,0,L|156:276,1,199.499994672775
343,341,77413,5,0,0:0:0:0:
388,12,77579,1,0,0:0:0:0:
90,160,77746,1,0,0:0:0:0:
489,173,77913,1,0,0:0:0:0:
254,48,78079,5,0,0:0:0:0:
251,314,78246,1,0,0:0:0:0:
456,52,78413,1,0,0:0:0:0:
58,51,78579,1,0,0:0:0:0:
213,267,78746,5,0,0:0:0:0:
47,41,78913,1,0,0:0:0:0:
220,275,79079,1,0,0:0:0:0:
35,29,79246,1,0,0:0:0:0:
71,293,79413,5,0,0:0:0:0:
314,88,79579,1,0,0:0:0:0:
60,303,79746,1,0,0:0:0:0:
324,79,79913,1,0,0:0:0:0:
52,311,80079,6,0,B|96:343|96:343|176:344,1,132.999996448517
247,86,80413,2,0,B|222:137|222:137|218:161|218:161|194:210,1,132.999996448517
431,330,80746,1,0,0:0:0:0:
294,26,80913,1,0,0:0:0:0:
80,279,81079,1,0,0:0:0:0:
294,26,81246,1,0,0:0:0:0:
431,330,81413,6,0,P|361:340|303:305,1,132.999996448517
380,54,81746,2,0,L|372:133,1,66.4999982242585
270,205,81913,1,0,0:0:0:0:
217,154,81996,1,0,0:0:0:0:
165,102,82079,2,0,B|182:53|247:42|247:42|268:88|268:88|313:117,1,199.499994672775
472,90,82413,2,0,B|446:166|446:166|421:201|421:201|393:276,1,199.499994672775
76,33,82746,5,0,0:0:0:0:
395,273,82913,1,0,0:0:0:0:
200,108,83079,1,0,0:0:0:0:
200,168,83162,1,0,0:0:0:0:
201,229,83246,1,0,0:0:0:0:
77,306,83413,5,0,0:0:0:0:
458,42,83579,1,0,0:0:0:0:
201,229,83746,1,0,0:0:0:0:
200,162,83829,1,0,0:0:0:0:
199,94,83913,1,0,0:0:0:0:
81,19,84079,5,0,0:0:0:0:
328,358,84246,1,0,0:0:0:0:
201,229,84413,1,0,0:0:0:0:
199,156,84496,1,0,0:0:0:0:
197,83,84579,1,0,0:0:0:0:
30,350,84746,5,0,0:0:0:0:
508,10,84913,1,0,0:0:0:0:
321,335,85079,1,0,0:0:0:0:
321,254,85163,1,0,0:0:0:0:
321,174,85246,1,0,0:0:0:0:
321,94,85329,1,0,0:0:0:0:
321,13,85413,2,0,P|254:15|196:51,1,132.999996448517
