osu file format v14

[General]
AudioFilename: audio.mp3
AudioLeadIn: 0
PreviewTime: 63983
Countdown: 0
SampleSet: Normal
StackLeniency: 0.7
Mode: 1
LetterboxInBreaks: 0
WidescreenStoryboard: 0

[Editor]
DistanceSpacing: 0.8
BeatDivisor: 4
GridSize: 32
TimelineZoom: 2.6

[Metadata]
Title:Saiyajin
TitleUnicode:Saiyajin
Artist:Thaehan
ArtistUnicode:Thaehan
Creator:Yales
Version:inc's Oni
Source:osu!
Tags:dragon ball kid goku electronic old nostalgia rip krillin kamehameha super saiyan remix incandescence Taikocracy Rhytoly eiri- Ayyri Loki featured artists Power Up
BeatmapID:1812968
BeatmapSetID:866557

[Difficulty]
HPDrainRate:6
CircleSize:2
OverallDifficulty:6
ApproachRate:10
SliderMultiplier:1.4
SliderTickRate:1

[Events]
//Background and Video events
0,0,"BG.jpg",0,0
//Break Periods
//Storyboard Layer 0 (Background)
//Storyboard Layer 1 (Fail)
//Storyboard Layer 2 (Pass)
//Storyboard Layer 3 (Foreground)
//Storyboard Sound Samples

[TimingPoints]
67,333.333333333333,4,1,0,80,1,0
2733,-100,4,1,0,80,0,1
13066,-100,4,1,0,80,0,0
13400,-100,4,1,0,80,0,1
23733,-100,4,1,0,80,0,0
34733,-111.111111111111,4,1,0,80,0,0
42733,-108.695652173913,4,1,0,80,0,0
42900,-106.382978723404,4,1,0,80,0,0
43400,-104.166666666667,4,1,0,80,0,0
43566,-102.040816326531,4,1,0,80,0,0
44066,-100,4,1,0,80,0,0
64066,-100,4,1,0,80,0,1
74400,-100,4,1,0,80,0,0
74733,-100,4,1,0,80,0,1
85400,-100,4,1,0,80,0,0
85790,375,7,1,0,80,1,8
88314,333.333333333333,4,1,0,80,1,0

[HitObjects]
256,192,67,5,8,0:0:0:0:
256,192,233,1,8,0:0:0:0:
256,192,400,1,0,0:0:0:0:
256,192,566,1,8,0:0:0:0:
256,192,900,1,0,0:0:0:0:
256,192,1233,1,8,0:0:0:0:
256,192,1566,1,0,0:0:0:0:
256,192,1733,1,8,0:0:0:0:
256,192,1900,1,8,0:0:0:0:
256,192,2066,1,0,0:0:0:0:
256,192,2150,1,0,0:0:0:0:
256,192,2233,1,0,0:0:0:0:
256,192,2400,1,8,0:0:0:0:
256,192,2566,1,0,0:0:0:0:
256,192,2650,1,0,0:0:0:0:
256,192,2733,1,8,0:0:0:0:
256,192,3066,1,0,0:0:0:0:
256,192,3233,1,8,0:0:0:0:
256,192,3316,1,8,0:0:0:0:
256,192,3400,1,0,0:0:0:0:
256,192,3566,1,0,0:0:0:0:
256,192,3733,1,8,0:0:0:0:
256,192,3900,1,8,0:0:0:0:
256,192,4066,1,0,0:0:0:0:
256,192,4400,1,0,0:0:0:0:
256,192,4566,1,8,0:0:0:0:
256,192,4650,1,0,0:0:0:0:
256,192,4733,1,0,0:0:0:0:
256,192,4900,1,0,0:0:0:0:
256,192,5066,1,8,0:0:0:0:
256,192,5400,1,0,0:0:0:0:
256,192,5566,1,0,0:0:0:0:
256,192,5650,1,0,0:0:0:0:
256,192,5733,1,8,0:0:0:0:
256,192,5900,1,0,0:0:0:0:
256,192,6066,1,8,0:0:0:0:
256,192,6233,1,8,0:0:0:0:
256,192,6316,1,0,0:0:0:0:
256,192,6400,1,0,0:0:0:0:
256,192,6483,1,0,0:0:0:0:
256,192,6566,1,8,0:0:0:0:
256,192,6733,1,0,0:0:0:0:
256,192,6900,1,0,0:0:0:0:
256,192,6983,1,0,0:0:0:0:
256,192,7066,1,8,0:0:0:0:
256,192,7233,1,0,0:0:0:0:
256,192,7400,1,8,0:0:0:0:
256,192,7483,1,0,0:0:0:0:
256,192,7566,1,8,0:0:0:0:
256,192,7733,1,0,0:0:0:0:
256,192,7900,1,0,0:0:0:0:
256,192,8066,1,8,0:0:0:0:
256,192,8400,1,0,0:0:0:0:
256,192,8566,1,0,0:0:0:0:
256,192,8650,1,0,0:0:0:0:
256,192,8733,1,8,0:0:0:0:
256,192,8900,1,0,0:0:0:0:
256,192,9066,1,8,0:0:0:0:
256,192,9233,1,8,0:0:0:0:
256,192,9400,1,0,0:0:0:0:
256,192,9733,1,0,0:0:0:0:
256,192,9900,1,0,0:0:0:0:
256,192,9983,1,0,0:0:0:0:
256,192,10066,1,8,0:0:0:0:
256,192,10400,1,8,0:0:0:0:
256,192,10566,1,0,0:0:0:0:
256,192,10733,1,8,0:0:0:0:
256,192,10900,1,8,0:0:0:0:
256,192,11066,1,0,0:0:0:0:
256,192,11150,1,0,0:0:0:0:
256,192,11233,1,0,0:0:0:0:
256,192,11316,1,0,0:0:0:0:
256,192,11400,1,8,0:0:0:0:
256,192,11566,1,8,0:0:0:0:
256,192,11733,1,0,0:0:0:0:
256,192,11816,1,0,0:0:0:0:
256,192,11900,1,8,0:0:0:0:
256,192,11983,1,0,0:0:0:0:
256,192,12066,1,8,0:0:0:0:
256,192,12233,1,8,0:0:0:0:
256,192,12400,1,0,0:0:0:0:
256,192,12483,1,0,0:0:0:0:
256,192,12566,1,0,0:0:0:0:
256,192,12650,1,0,0:0:0:0:
256,192,12733,1,8,0:0:0:0:
256,192,12900,1,8,0:0:0:0:
256,192,13066,1,0,0:0:0:0:
256,192,13400,1,12,0:0:0:0:
256,192,13733,1,0,0:0:0:0:
256,192,13900,1,8,0:0:0:0:
256,192,13983,1,8,0:0:0:0:
256,192,14066,1,0,0:0:0:0:
256,192,14233,1,8,0:0:0:0:
256,192,14400,1,0,0:0:0:0:
256,192,14566,1,0,0:0:0:0:
256,192,14733,1,8,0:0:0:0:
256,192,15066,1,0,0:0:0:0:
256,192,15233,1,8,0:0:0:0:
256,192,15316,1,8,0:0:0:0:
256,192,15400,1,0,0:0:0:0:
256,192,15566,1,0,0:0:0:0:
256,192,15733,1,8,0:0:0:0:
256,192,16066,1,0,0:0:0:0:
256,192,16233,1,0,0:0:0:0:
256,192,16316,1,0,0:0:0:0:
256,192,16400,1,8,0:0:0:0:
256,192,16566,1,0,0:0:0:0:
256,192,16733,1,8,0:0:0:0:
256,192,16900,1,8,0:0:0:0:
256,192,16983,1,8,0:0:0:0:
256,192,17066,1,0,0:0:0:0:
256,192,17150,1,0,0:0:0:0:
256,192,17233,1,8,0:0:0:0:
256,192,17400,1,0,0:0:0:0:
256,192,17566,1,8,0:0:0:0:
256,192,17650,1,0,0:0:0:0:
256,192,17733,1,8,0:0:0:0:
256,192,17900,1,0,0:0:0:0:
256,192,18066,1,8,0:0:0:0:
256,192,18150,1,8,0:0:0:0:
256,192,18233,1,0,0:0:0:0:
256,192,18400,1,8,0:0:0:0:
256,192,18566,1,0,0:0:0:0:
256,192,18733,1,8,0:0:0:0:
256,192,19066,1,0,0:0:0:0:
256,192,19233,1,8,0:0:0:0:
256,192,19316,1,0,0:0:0:0:
256,192,19400,1,8,0:0:0:0:
256,192,19566,1,0,0:0:0:0:
256,192,19733,1,8,0:0:0:0:
256,192,19900,1,8,0:0:0:0:
256,192,20066,1,0,0:0:0:0:
256,192,20400,1,8,0:0:0:0:
256,192,20566,1,0,0:0:0:0:
256,192,20650,1,0,0:0:0:0:
256,192,20733,1,8,0:0:0:0:
256,192,21066,1,8,0:0:0:0:
256,192,21233,1,0,0:0:0:0:
256,192,21400,1,8,0:0:0:0:
256,192,21566,1,8,0:0:0:0:
256,192,21733,1,0,0:0:0:0:
256,192,21816,1,0,0:0:0:0:
256,192,21900,1,0,0:0:0:0:
256,192,21983,1,0,0:0:0:0:
256,192,22066,1,8,0:0:0:0:
256,192,22233,1,8,0:0:0:0:
256,192,22400,1,0,0:0:0:0:
256,192,22483,1,0,0:0:0:0:
256,192,22566,1,8,0:0:0:0:
256,192,22650,1,0,0:0:0:0:
256,192,22733,1,8,0:0:0:0:
256,192,22900,1,8,0:0:0:0:
256,192,23066,1,0,0:0:0:0:
256,192,23150,1,0,0:0:0:0:
256,192,23233,1,0,0:0:0:0:
256,192,23316,1,0,0:0:0:0:
256,192,23400,1,8,0:0:0:0:
256,192,23566,1,8,0:0:0:0:
256,192,23733,1,0,0:0:0:0:
256,192,24066,1,8,0:0:0:0:
256,192,24233,1,0,0:0:0:0:
256,192,24400,1,8,0:0:0:0:
256,192,24483,1,8,0:0:0:0:
256,192,24566,1,0,0:0:0:0:
256,192,24650,1,0,0:0:0:0:
256,192,24733,1,8,0:0:0:0:
256,192,24900,1,0,0:0:0:0:
256,192,25066,1,8,0:0:0:0:
256,192,25150,1,8,0:0:0:0:
256,192,25233,1,8,0:0:0:0:
256,192,25400,1,0,0:0:0:0:
256,192,25566,1,0,0:0:0:0:
256,192,25733,1,8,0:0:0:0:
256,192,26066,1,8,0:0:0:0:
256,192,26233,1,8,0:0:0:0:
256,192,26400,1,0,0:0:0:0:
256,192,26733,1,8,0:0:0:0:
256,192,26900,1,0,0:0:0:0:
256,192,26983,1,0,0:0:0:0:
256,192,27066,1,8,0:0:0:0:
256,192,27233,1,0,0:0:0:0:
256,192,27400,1,8,0:0:0:0:
256,192,27483,1,0,0:0:0:0:
256,192,27566,1,8,0:0:0:0:
256,192,27650,1,8,0:0:0:0:
256,192,27733,1,0,0:0:0:0:
256,192,27900,1,0,0:0:0:0:
256,192,28066,1,8,0:0:0:0:
256,192,28233,1,8,0:0:0:0:
256,192,28400,1,0,0:0:0:0:
256,192,28566,1,0,0:0:0:0:
256,192,28650,1,8,0:0:0:0:
256,192,29066,1,8,0:0:0:0:
256,192,29233,1,0,0:0:0:0:
256,192,29400,1,8,0:0:0:0:
256,192,29566,1,0,0:0:0:0:
256,192,29733,1,8,0:0:0:0:
256,192,29816,1,0,0:0:0:0:
256,192,29900,1,0,0:0:0:0:
256,192,29983,1,0,0:0:0:0:
256,192,30066,1,8,0:0:0:0:
256,192,30233,1,0,0:0:0:0:
256,192,30400,1,8,0:0:0:0:
256,192,30483,1,8,0:0:0:0:
256,192,30566,1,8,0:0:0:0:
256,192,30733,1,0,0:0:0:0:
256,192,30900,1,0,0:0:0:0:
256,192,31066,1,8,0:0:0:0:
256,192,31400,1,8,0:0:0:0:
256,192,31566,1,8,0:0:0:0:
256,192,31733,1,0,0:0:0:0:
256,192,32066,1,8,0:0:0:0:
256,192,32233,1,0,0:0:0:0:
256,192,32316,1,0,0:0:0:0:
256,192,32400,1,8,0:0:0:0:
256,192,32566,1,0,0:0:0:0:
256,192,32733,1,8,0:0:0:0:
256,192,32816,1,0,0:0:0:0:
256,192,32900,1,8,0:0:0:0:
256,192,32983,1,0,0:0:0:0:
256,192,33066,1,0,0:0:0:0:
256,192,33233,1,8,0:0:0:0:
256,192,33400,1,0,0:0:0:0:
256,192,33566,1,0,0:0:0:0:
256,192,33733,1,8,0:0:0:0:
256,192,33900,1,0,0:0:0:0:
256,192,33983,1,8,0:0:0:0:
256,192,34733,5,0,0:0:0:0:
256,192,34900,1,0,0:0:0:0:
256,192,35066,1,8,0:0:0:0:
256,192,35233,1,0,0:0:0:0:
256,192,35400,1,8,0:0:0:0:
256,192,35566,1,8,0:0:0:0:
256,192,35733,1,0,0:0:0:0:
256,192,35900,1,0,0:0:0:0:
256,192,36066,1,8,0:0:0:0:
256,192,36233,1,0,0:0:0:0:
256,192,36400,1,8,0:0:0:0:
256,192,36566,1,8,0:0:0:0:
256,192,36733,1,0,0:0:0:0:
256,192,37066,1,8,0:0:0:0:
256,192,37233,1,8,0:0:0:0:
256,192,37400,1,0,0:0:0:0:
256,192,37566,1,0,0:0:0:0:
256,192,37733,1,8,0:0:0:0:
256,192,37900,1,0,0:0:0:0:
256,192,38066,1,8,0:0:0:0:
256,192,38233,1,8,0:0:0:0:
256,192,38400,1,0,0:0:0:0:
256,192,38566,1,0,0:0:0:0:
256,192,38733,1,8,0:0:0:0:
256,192,38900,1,0,0:0:0:0:
256,192,39066,1,8,0:0:0:0:
256,192,39233,1,8,0:0:0:0:
256,192,39400,1,0,0:0:0:0:
256,192,39733,1,0,0:0:0:0:
256,192,39900,1,8,0:0:0:0:
256,192,40066,1,0,0:0:0:0:
256,192,40233,1,0,0:0:0:0:
256,192,40400,1,8,0:0:0:0:
256,192,40566,1,0,0:0:0:0:
256,192,40733,1,8,0:0:0:0:
256,192,40900,1,8,0:0:0:0:
256,192,41066,1,0,0:0:0:0:
256,192,41233,1,0,0:0:0:0:
256,192,41316,1,0,0:0:0:0:
256,192,41400,1,8,0:0:0:0:
256,192,41566,1,0,0:0:0:0:
256,192,41733,1,8,0:0:0:0:
256,192,41900,1,8,0:0:0:0:
256,192,42066,1,0,0:0:0:0:
256,192,42400,1,8,0:0:0:0:
256,192,42566,1,0,0:0:0:0:
256,192,42733,1,8,0:0:0:0:
256,192,42900,1,0,0:0:0:0:
256,192,42983,1,0,0:0:0:0:
256,192,43066,1,8,0:0:0:0:
256,192,43233,1,0,0:0:0:0:
256,192,43400,1,8,0:0:0:0:
256,192,43566,1,0,0:0:0:0:
256,192,43650,1,0,0:0:0:0:
256,192,43733,1,8,0:0:0:0:
256,192,43900,1,0,0:0:0:0:
256,192,44066,1,0,0:0:0:0:
256,192,44150,1,0,0:0:0:0:
256,192,44233,1,0,0:0:0:0:
256,192,44316,1,0,0:0:0:0:
256,192,44400,1,8,0:0:0:0:
256,192,44566,1,0,0:0:0:0:
256,192,44733,1,8,0:0:0:0:
256,192,45066,1,12,0:0:0:0:
256,192,45400,1,8,0:0:0:0:
256,192,45566,1,8,0:0:0:0:
256,192,45733,1,0,0:0:0:0:
256,192,45900,1,0,0:0:0:0:
256,192,45983,1,8,0:0:0:0:
256,192,46233,1,8,0:0:0:0:
256,192,46400,1,0,0:0:0:0:
256,192,46566,1,0,0:0:0:0:
256,192,46733,1,8,0:0:0:0:
256,192,46816,1,8,0:0:0:0:
256,192,46900,1,0,0:0:0:0:
256,192,47066,1,8,0:0:0:0:
256,192,47233,1,0,0:0:0:0:
256,192,47316,1,8,0:0:0:0:
256,192,47733,1,8,0:0:0:0:
256,192,47900,1,0,0:0:0:0:
256,192,48066,1,8,0:0:0:0:
256,192,48233,1,0,0:0:0:0:
256,192,48316,1,0,0:0:0:0:
256,192,48400,1,8,0:0:0:0:
256,192,48483,1,8,0:0:0:0:
256,192,48566,1,0,0:0:0:0:
256,192,48733,1,8,0:0:0:0:
256,192,48900,1,0,0:0:0:0:
256,192,48983,1,0,0:0:0:0:
256,192,49066,1,8,0:0:0:0:
256,192,49233,1,8,0:0:0:0:
256,192,49400,1,0,0:0:0:0:
256,192,49733,1,8,0:0:0:0:
256,192,49900,1,0,0:0:0:0:
256,192,50066,1,8,0:0:0:0:
256,192,50150,1,0,0:0:0:0:
256,192,50233,1,8,0:0:0:0:
256,192,50316,1,8,0:0:0:0:
256,192,50400,1,0,0:0:0:0:
256,192,50566,1,0,0:0:0:0:
256,192,50650,1,0,0:0:0:0:
256,192,50733,1,8,0:0:0:0:
256,192,50900,1,8,0:0:0:0:
256,192,51066,1,0,0:0:0:0:
256,192,51233,1,0,0:0:0:0:
256,192,51316,1,8,0:0:0:0:
256,192,51566,1,8,0:0:0:0:
256,192,51733,1,0,0:0:0:0:
256,192,51900,1,0,0:0:0:0:
256,192,52066,1,8,0:0:0:0:
256,192,52150,1,0,0:0:0:0:
256,192,52233,1,8,0:0:0:0:
256,192,52400,1,0,0:0:0:0:
256,192,52566,1,0,0:0:0:0:
256,192,52650,1,8,0:0:0:0:
256,192,53066,1,8,0:0:0:0:
256,192,53233,1,0,0:0:0:0:
256,192,53400,1,8,0:0:0:0:
256,192,53566,1,0,0:0:0:0:
256,192,53650,1,0,0:0:0:0:
256,192,53733,1,8,0:0:0:0:
256,192,53816,1,8,0:0:0:0:
256,192,53900,1,0,0:0:0:0:
256,192,54066,1,8,0:0:0:0:
256,192,54233,1,0,0:0:0:0:
256,192,54316,1,0,0:0:0:0:
256,192,54400,1,8,0:0:0:0:
256,192,54566,1,0,0:0:0:0:
256,192,54733,1,8,0:0:0:0:
256,192,54900,1,8,0:0:0:0:
256,192,55066,1,8,0:0:0:0:
256,192,55233,1,8,0:0:0:0:
256,192,55400,1,0,0:0:0:0:
256,192,55733,1,8,0:0:0:0:
256,192,55816,1,8,0:0:0:0:
256,192,55900,1,0,0:0:0:0:
256,192,55983,1,0,0:0:0:0:
256,192,56066,1,8,0:0:0:0:
256,192,56400,1,8,0:0:0:0:
256,192,56566,1,8,0:0:0:0:
256,192,56733,1,0,0:0:0:0:
256,192,56900,1,0,0:0:0:0:
256,192,56983,1,0,0:0:0:0:
256,192,57066,1,8,0:0:0:0:
256,192,57233,1,0,0:0:0:0:
256,192,57400,1,8,0:0:0:0:
256,192,57566,1,0,0:0:0:0:
256,192,57733,1,8,0:0:0:0:
256,192,57816,1,8,0:0:0:0:
256,192,57900,1,0,0:0:0:0:
256,192,57983,1,8,0:0:0:0:
256,192,58400,1,0,0:0:0:0:
256,192,58566,1,8,0:0:0:0:
256,192,58733,1,0,0:0:0:0:
256,192,58900,1,8,0:0:0:0:
256,192,58983,1,8,0:0:0:0:
256,192,59066,1,0,0:0:0:0:
256,192,59233,1,8,0:0:0:0:
256,192,59400,1,8,0:0:0:0:
256,192,59483,1,0,0:0:0:0:
256,192,59566,1,8,0:0:0:0:
256,192,59733,1,8,0:0:0:0:
256,192,59900,1,0,0:0:0:0:
256,192,60066,1,8,0:0:0:0:
256,192,60400,1,8,0:0:0:0:
256,192,60566,1,8,0:0:0:0:
256,192,60733,1,0,0:0:0:0:
256,192,61066,1,8,0:0:0:0:
256,192,61233,1,0,0:0:0:0:
256,192,61316,1,0,0:0:0:0:
256,192,61400,1,8,0:0:0:0:
256,192,61566,1,8,0:0:0:0:
256,192,61650,1,8,0:0:0:0:
256,192,61733,1,0,0:0:0:0:
256,192,61900,1,0,0:0:0:0:
256,192,61983,1,0,0:0:0:0:
256,192,62066,1,8,0:0:0:0:
256,192,62233,1,8,0:0:0:0:
256,192,62316,1,8,0:0:0:0:
256,192,62400,1,0,0:0:0:0:
256,192,62566,1,0,0:0:0:0:
256,192,62650,1,0,0:0:0:0:
256,192,62733,1,8,0:0:0:0:
256,192,62900,1,0,0:0:0:0:
256,192,63066,1,8,0:0:0:0:
256,192,63233,1,0,0:0:0:0:
256,192,63733,1,4,0:0:0:0:
256,192,64066,1,8,0:0:0:0:
256,192,64400,1,8,0:0:0:0:
256,192,64566,1,8,0:0:0:0:
256,192,64650,1,8,0:0:0:0:
256,192,64733,1,0,0:0:0:0:
256,192,64900,1,0,0:0:0:0:
256,192,65066,1,8,0:0:0:0:
256,192,65233,1,8,0:0:0:0:
256,192,65400,1,0,0:0:0:0:
256,192,65733,1,0,0:0:0:0:
256,192,65900,1,8,0:0:0:0:
256,192,65983,1,8,0:0:0:0:
256,192,66066,1,0,0:0:0:0:
256,192,66233,1,8,0:0:0:0:
256,192,66400,1,0,0:0:0:0:
256,192,66733,1,8,0:0:0:0:
256,192,66900,1,0,0:0:0:0:
256,192,66983,1,0,0:0:0:0:
256,192,67066,1,8,0:0:0:0:
256,192,67233,1,8,0:0:0:0:
256,192,67400,1,0,0:0:0:0:
256,192,67566,1,0,0:0:0:0:
256,192,67650,1,8,0:0:0:0:
256,192,67733,1,8,0:0:0:0:
256,192,67816,1,0,0:0:0:0:
256,192,67900,1,8,0:0:0:0:
256,192,68066,1,0,0:0:0:0:
256,192,68233,1,8,0:0:0:0:
256,192,68316,1,0,0:0:0:0:
256,192,68400,1,8,0:0:0:0:
256,192,68566,1,0,0:0:0:0:
256,192,68733,1,8,0:0:0:0:
256,192,68816,1,8,0:0:0:0:
256,192,68900,1,8,0:0:0:0:
256,192,69066,1,0,0:0:0:0:
256,192,69233,1,8,0:0:0:0:
256,192,69400,1,0,0:0:0:0:
256,192,69733,1,8,0:0:0:0:
256,192,69900,1,0,0:0:0:0:
256,192,69983,1,0,0:0:0:0:
256,192,70066,1,8,0:0:0:0:
256,192,70233,1,0,0:0:0:0:
256,192,70400,1,8,0:0:0:0:
256,192,70566,1,8,0:0:0:0:
256,192,70733,1,0,0:0:0:0:
256,192,71066,1,0,0:0:0:0:
256,192,71233,1,8,0:0:0:0:
256,192,71316,1,0,0:0:0:0:
256,192,71400,1,8,0:0:0:0:
256,192,71733,1,8,0:0:0:0:
256,192,71900,1,8,0:0:0:0:
256,192,72066,1,0,0:0:0:0:
256,192,72233,1,0,0:0:0:0:
256,192,72400,1,8,0:0:0:0:
256,192,72483,1,8,0:0:0:0:
256,192,72566,1,8,0:0:0:0:
256,192,72650,1,8,0:0:0:0:
256,192,72733,1,0,0:0:0:0:
256,192,72900,1,0,0:0:0:0:
256,192,73066,1,8,0:0:0:0:
256,192,73150,1,8,0:0:0:0:
256,192,73233,1,0,0:0:0:0:
256,192,73316,1,0,0:0:0:0:
256,192,73400,1,0,0:0:0:0:
256,192,73566,1,0,0:0:0:0:
256,192,73733,1,8,0:0:0:0:
256,192,73816,1,8,0:0:0:0:
256,192,73900,1,8,0:0:0:0:
256,192,73983,1,8,0:0:0:0:
256,192,74066,1,0,0:0:0:0:
256,192,74233,1,0,0:0:0:0:
256,192,74400,1,8,0:0:0:0:
256,192,74733,1,12,0:0:0:0:
256,192,75066,1,8,0:0:0:0:
256,192,75233,1,8,0:0:0:0:
256,192,75316,1,0,0:0:0:0:
256,192,75400,1,0,0:0:0:0:
256,192,75566,1,0,0:0:0:0:
256,192,75733,1,8,0:0:0:0:
256,192,75900,1,0,0:0:0:0:
256,192,76066,1,8,0:0:0:0:
256,192,76400,1,0,0:0:0:0:
256,192,76566,1,8,0:0:0:0:
256,192,76650,1,8,0:0:0:0:
256,192,76733,1,0,0:0:0:0:
256,192,76900,1,8,0:0:0:0:
256,192,77066,1,0,0:0:0:0:
256,192,77400,1,8,0:0:0:0:
256,192,77566,1,8,0:0:0:0:
256,192,77650,1,0,0:0:0:0:
256,192,77733,1,8,0:0:0:0:
256,192,77900,1,8,0:0:0:0:
256,192,78066,1,0,0:0:0:0:
256,192,78233,1,8,0:0:0:0:
256,192,78316,1,8,0:0:0:0:
256,192,78400,1,8,0:0:0:0:
256,192,78483,1,0,0:0:0:0:
256,192,78566,1,8,0:0:0:0:
256,192,78733,1,0,0:0:0:0:
256,192,78900,1,8,0:0:0:0:
256,192,78983,1,0,0:0:0:0:
256,192,79066,1,8,0:0:0:0:
256,192,79233,1,0,0:0:0:0:
256,192,79400,1,8,0:0:0:0:
256,192,79483,1,8,0:0:0:0:
256,192,79566,1,8,0:0:0:0:
256,192,79733,1,0,0:0:0:0:
256,192,79900,1,8,0:0:0:0:
256,192,80066,1,0,0:0:0:0:
256,192,80400,1,8,0:0:0:0:
256,192,80566,1,0,0:0:0:0:
256,192,80650,1,8,0:0:0:0:
256,192,80733,1,8,0:0:0:0:
256,192,80900,1,0,0:0:0:0:
256,192,81066,1,8,0:0:0:0:
256,192,81233,1,8,0:0:0:0:
256,192,81400,1,0,0:0:0:0:
256,192,81733,1,0,0:0:0:0:
256,192,81900,1,8,0:0:0:0:
256,192,81983,1,0,0:0:0:0:
256,192,82066,1,8,0:0:0:0:
256,192,82400,1,8,0:0:0:0:
256,192,82566,1,8,0:0:0:0:
256,192,82733,1,0,0:0:0:0:
256,192,82900,1,0,0:0:0:0:
256,192,83066,1,8,0:0:0:0:
256,192,83150,1,8,0:0:0:0:
256,192,83233,1,8,0:0:0:0:
256,192,83316,1,8,0:0:0:0:
256,192,83400,1,0,0:0:0:0:
256,192,83566,1,0,0:0:0:0:
256,192,83733,1,8,0:0:0:0:
256,192,83816,1,8,0:0:0:0:
256,192,83900,1,0,0:0:0:0:
256,192,83983,1,0,0:0:0:0:
256,192,84066,1,0,0:0:0:0:
256,192,84233,1,0,0:0:0:0:
256,192,84400,1,8,0:0:0:0:
256,192,84483,1,8,0:0:0:0:
256,192,84566,1,8,0:0:0:0:
256,192,84650,1,8,0:0:0:0:
256,192,84733,1,0,0:0:0:0:
256,192,84900,1,0,0:0:0:0:
256,192,85066,1,8,0:0:0:0:
256,192,85150,1,8,0:0:0:0:
256,192,85233,1,0,0:0:0:0:
256,192,85400,1,12,0:0:0:0:
