osu file format v14

[General]
AudioFilename: audio.mp3
AudioLeadIn: 0
PreviewTime: 45413
Countdown: 0
SampleSet: Soft
StackLeniency: 0.5
Mode: 0
LetterboxInBreaks: 0
WidescreenStoryboard: 1

[Editor]
Bookmarks: 3413,24079,45413,64079,73413,74746,80746
DistanceSpacing: 1.3
BeatDivisor: 4
GridSize: 8
TimelineZoom: 1.7

[Metadata]
Title:Saiyajin
TitleUnicode:Saiyajin
Artist:Thaehan
ArtistUnicode:Thaehan
Creator:Nimagan
Version:Hard
Source:osu!
Tags:electronic dragonball
BeatmapID:1391861
BeatmapSetID:618387

[Difficulty]
HPDrainRate:4
CircleSize:3.5
OverallDifficulty:4.5
ApproachRate:7.5
SliderMultiplier:1.3
SliderTickRate:1

[Events]
//Background and Video events
0,0,"534115.jpg",0,0
//Break Periods
//Storyboard Layer 0 (Background)
//Storyboard Layer 1 (Fail)
//Storyboard Layer 2 (Pass)
//Storyboard Layer 3 (Foreground)
//Storyboard Sound Samples

[TimingPoints]
80,333.333333333333,4,2,0,75,1,0
2579,-100,4,2,0,75,0,0
6746,-100,4,2,0,100,0,0
23413,-72.463768115942,4,2,0,100,0,0
24079,-100,4,2,0,100,0,0
27413,-100,4,2,0,80,0,0
27663,-100,4,2,0,40,0,0
27746,-100,4,2,0,80,0,0
27996,-100,4,2,0,40,0,0
28079,-100,4,2,0,80,0,0
33996,-125,4,2,0,100,0,0
34579,-100,4,2,0,40,0,0
34746,-100,4,2,0,60,0,0
40079,-100,4,2,0,68,0,0
41413,-100,4,2,0,75,0,0
45413,-100,4,2,0,100,0,1
61579,-100,4,2,0,100,0,1
64079,-100,4,2,0,100,0,0
74746,-100,4,2,0,100,0,1
85696,666.666666666667,4,2,0,100,1,0

[Colours]
Combo1 : 255,128,0
Combo2 : 0,213,0
Combo3 : 24,69,248
Combo4 : 242,24,57
Combo5 : 191,29,226

[HitObjects]
171,127,80,38,0,L|177:199,1,65,0|0,1:0|0:0,0:0:0:0:
260,204,413,2,0,L|253:131,1,65,0|0,1:0|0:0,0:0:0:0:
134,19,913,1,0,1:0:0:0:
254,139,1246,1,4,0:0:0:0:
374,259,1579,1,0,0:0:0:0:
359,338,1746,2,0,P|314:312|296:282,1,65
256,234,2079,2,0,L|119:234,1,130
236,106,2746,22,0,P|290:75|375:108,1,130,0|0,1:0|0:0,0:0:0:0:
304,163,3246,1,0,0:0:0:0:
255,228,3413,2,0,P|219:265|181:277,1,65,0|0,1:0|0:0,0:0:0:0:
179,189,3746,2,0,P|129:203|90:195,1,65
32,187,4079,38,0,B|31:115|31:115|61:41,1,130,4|0,0:0|0:0,0:0:0:0:
125,18,4579,1,0,0:0:0:0:
184,77,4746,2,0,B|233:107|233:107|304:119,1,130,0|0,1:0|0:0,0:0:0:0:
469,155,5413,22,0,P|474:206|459:243,1,65,0|0,1:0|0:0,0:0:0:0:
434,294,5746,1,0,0:0:0:0:
361,336,5913,1,0,0:0:0:0:
351,252,6079,2,0,P|304:229|263:230,1,65,0|0,1:0|0:0,0:0:0:0:
206,229,6413,1,0,0:0:0:0:
128,261,6579,1,0,0:0:0:0:
63,315,6746,38,0,B|40:273|47:239,1,65,0|0,1:0|0:0,0:0:0:0:
51,168,7079,2,0,B|64:122|93:103,1,65,0|0,1:0|0:0,0:0:0:0:
167,119,7413,2,0,L|249:127,1,65,0|0,1:0|0:0,0:0:0:0:
315,135,7746,1,0,1:0:0:0:
357,208,7913,1,0,0:0:0:0:
387,286,8079,22,0,B|324:322|324:322|245:333,1,130,4|0,0:0|0:0,0:0:0:0:
183,316,8579,1,0,0:0:0:0:
129,250,8746,2,0,L|161:179,1,65,0|0,1:0|0:0,0:0:0:0:
199,118,9079,1,0,0:0:0:0:
267,67,9246,1,0,0:0:0:0:
337,20,9413,22,0,B|384:75|384:75|408:151,1,130,0|0,1:0|0:0,0:0:0:0:
401,215,9913,1,0,0:0:0:0:
374,296,10079,2,0,L|297:336,1,65,0|0,1:0|0:0,0:0:0:0:
262,261,10413,2,0,L|339:221,1,65
278,157,10746,6,0,L|135:231,1,130
258,355,11413,2,0,L|400:280,1,130
278,157,12079,2,0,L|212:31,1,130,0|0,1:0|0:0,0:0:0:0:
69,124,12746,2,0,L|135:249,1,130,0|0,1:0|0:0,0:0:0:0:
224,142,13413,22,0,P|278:111|363:144,1,130,4|0,0:0|0:0,0:0:0:0:
292,199,13913,1,0,0:0:0:0:
243,264,14080,2,0,P|207:301|169:313,1,65,0|0,1:0|0:0,0:0:0:0:
167,225,14413,2,0,P|117:239|78:231,1,65,0|0,1:0|0:0,0:0:0:0:
31,196,14746,38,0,B|30:124|30:124|60:50,1,130,4|0,0:0|0:0,0:0:0:0:
124,27,15246,1,0,0:0:0:0:
183,86,15413,2,0,B|232:116|232:116|303:128,1,130,0|0,1:0|0:0,0:0:0:0:
477,118,16079,22,0,P|482:169|467:206,1,65,0|0,1:0|0:0,0:0:0:0:
442,257,16412,1,0,0:0:0:0:
369,299,16579,1,0,0:0:0:0:
286,284,16745,2,0,P|243:255|224:219,1,65,0|0,1:0|0:0,0:0:0:0:
194,170,17079,1,0,0:0:0:0:
183,86,17245,1,0,0:0:0:0:
241,24,17413,38,0,B|281:49|292:82,1,65,0|0,1:0|0:0,0:0:0:0:
371,69,17746,2,0,B|376:89|416:114,1,65,0|0,1:0|0:0,0:0:0:0:
490,155,18080,2,0,L|482:237,1,65,0|0,1:0|0:0,0:0:0:0:
424,279,18413,1,0,1:0:0:0:
364,219,18580,1,0,1:0:0:0:
304,278,18746,22,0,B|241:242|241:242|192:179,1,130,4|0,0:0|0:0,0:0:0:0:
178,119,19246,1,0,0:0:0:0:
208,39,19413,2,0,L|285:32,1,65,0|0,1:0|0:0,0:0:0:0:
357,33,19746,1,0,0:0:0:0:
416,92,19913,1,0,0:0:0:0:
419,194,20079,22,0,B|364:241|364:241|288:265,1,130,4|0,0:0|0:0,0:0:0:0:
224,258,20579,1,0,0:0:0:0:
143,231,20745,2,0,L|103:154,1,65,0|0,1:0|0:0,0:0:0:0:
178,119,21079,2,0,L|218:196,1,65
268,116,21413,6,0,L|333:241,1,130,0|0,1:0|0:0,0:0:0:0:
173,288,22080,2,0,L|107:162,1,130,0|0,1:0|0:0,0:0:0:0:
268,116,22746,2,0,L|393:50,1,130,0|0,1:0|0:0,0:0:0:0:
327,231,23413,6,0,L|159:317,1,179.400000273743
56,245,24079,6,0,L|77:125,1,65,0|0,1:0|0:0,0:0:0:0:
150,161,24413,2,0,L|128:280,1,65,0|0,1:0|0:0,0:0:0:0:
121,307,24746,1,0,1:0:0:0:
121,307,24913,1,0,0:0:0:0:
55,244,25079,1,0,1:0:0:0:
55,244,25246,1,0,1:0:0:0:
70,161,25413,6,0,L|91:41,1,65,0|0,1:0|0:0,0:0:0:0:
165,96,25746,2,0,L|144:216,1,65,0|0,1:0|0:0,0:0:0:0:
238,160,26079,2,0,L|259:40,1,65,0|0,1:0|0:0,0:0:0:0:
334,95,26413,2,0,L|355:215,1,97.5,0|0,1:0|0:0,0:0:0:0:
350,233,26746,6,0,L|198:259,1,130,4|0,0:0|0:0,0:0:0:0:
139,272,27246,1,0,0:0:0:0:
55,286,27413,1,0,0:0:0:0:
115,125,27746,1,0,0:0:0:0:
221,254,28079,1,8,0:0:0:0:
282,96,28412,1,8,0:0:0:0:
451,96,28746,1,8,0:0:0:0:
451,264,29079,2,0,L|451:352,1,65
365,329,29413,6,0,P|320:302|304:276,1,65,4|0,0:0|0:0,0:0:0:0:
253,232,29746,2,0,P|230:208|200:195,1,65,0|0,1:0|0:0,0:0:0:0:
121,164,30079,1,0,1:0:0:0:
121,164,30246,1,0,0:0:0:0:
52,214,30413,1,0,1:0:0:0:
52,214,30580,1,0,0:0:0:0:
129,246,30746,6,0,L|186:287,1,65,4|0,0:0|0:0,0:0:0:0:
253,232,31079,2,0,L|310:273,1,65,0|0,1:0|0:0,0:0:0:0:
365,209,31413,1,0,1:0:0:0:
305,149,31579,1,0,0:0:0:0:
220,149,31746,2,0,L|112:149,1,97.5,0|0,1:0|0:0,0:0:0:0:
80,149,32079,5,0,1:0:0:0:
57,230,32246,1,0,0:0:0:0:
57,230,32329,1,0,0:0:0:0:
57,230,32413,2,0,L|57:306,1,65
100,367,32746,1,8,0:0:0:0:
284,289,33079,1,8,0:0:0:0:
256,192,33413,12,0,34579,0:0:0:0:
98,89,34746,6,0,L|98:164,1,65
177,182,35079,2,0,L|177:107,1,65
257,89,35413,1,0,0:0:0:0:
337,118,35579,1,0,0:0:0:0:
380,191,35746,1,0,0:0:0:0:
365,275,35913,1,0,0:0:0:0:
297,330,36079,6,0,B|225:371,1,65
240,276,36413,2,0,B|168:317,1,65
102,333,36746,1,0,0:0:0:0:
47,268,36912,1,0,0:0:0:0:
47,183,37079,1,0,0:0:0:0:
102,118,37246,1,0,0:0:0:0:
179,83,37413,6,0,P|214:69|261:72,1,65
229,152,37746,2,0,P|264:166|311:163,1,65
350,107,38079,1,0,0:0:0:0:
405,172,38245,1,0,0:0:0:0:
405,257,38412,1,0,0:0:0:0:
350,322,38579,1,0,0:0:0:0:
291,260,38746,6,0,P|261:247|229:244,1,65
240,329,39079,2,0,P|211:341|179:344,1,65
100,310,39413,1,0,0:0:0:0:
45,245,39579,1,0,0:0:0:0:
44,160,39746,1,0,0:0:0:0:
100,95,39913,1,0,0:0:0:0:
179,68,40079,6,0,L|258:40,1,65
300,106,40413,2,0,L|379:78,1,65
443,62,40746,2,0,L|471:141,1,65
405,183,41080,2,0,L|433:262,1,65
345,270,41413,6,0,L|283:291,1,65
204,318,41746,2,0,L|142:339,1,65
142,255,42079,2,0,L|120:193,1,65
95,113,42412,2,0,L|73:51,1,65
158,51,42746,6,0,L|237:51,2,65,0|0|0,1:0|1:0|1:0,1:0:0:0:
189,129,43246,1,0,1:0:0:0:
219,207,43413,2,0,L|290:207,2,65,0|0|0,1:0|1:0|1:0,1:0:0:0:
142,255,43913,1,0,1:0:0:0:
71,209,44079,6,0,L|3:158,1,65,0|0,1:0|1:0,1:0:0:0:
79,109,44413,2,0,L|147:160,1,65,0|0,1:0|1:0,1:0:0:0:
219,207,44746,1,0,1:0:0:0:
219,207,45079,1,0,1:0:0:0:
219,207,45413,6,0,L|287:258,1,65,4|0,0:0|0:0,0:0:0:0:
340,197,45746,2,0,L|272:146,1,65
218,110,46079,1,0,1:0:0:0:
64,39,46413,1,0,1:0:0:0:
64,207,46746,6,0,L|64:272,1,65,4|0,0:0|0:0,0:0:0:0:
107,344,47079,1,0,0:0:0:0:
152,272,47246,1,0,0:0:0:0:
236,272,47413,1,0,1:0:0:0:
404,272,47746,1,0,1:0:0:0:
349,112,48079,6,0,L|320:37,1,65,0|0,1:0|0:0,0:0:0:0:
247,17,48413,1,0,0:0:0:0:
162,17,48579,1,0,0:0:0:0:
118,89,48746,2,0,L|147:164,1,65,0|0,1:0|0:0,0:0:0:0:
220,184,49080,1,0,0:0:0:0:
305,184,49246,1,0,0:0:0:0:
362,241,49413,5,0,1:0:0:0:
220,333,49746,1,0,1:0:0:0:
220,184,50079,2,0,L|220:95,1,65,4|0,0:0|0:0,0:0:0:0:
302,97,50413,1,0,0:0:0:0:
305,184,50579,1,0,0:0:0:0:
263,257,50746,6,0,L|220:330,1,65
145,306,51079,2,0,L|188:233,1,65
220,184,51413,1,0,1:0:0:0:
298,34,51746,1,0,1:0:0:0:
404,175,52079,6,0,L|383:236,1,65
321,292,52412,1,0,0:0:0:0:
300,210,52579,1,0,0:0:0:0:
220,184,52746,1,0,1:0:0:0:
61,132,53079,1,0,1:0:0:0:
176,256,53413,6,0,L|205:331,1,65,0|0,1:0|0:0,0:0:0:0:
278,351,53747,1,0,0:0:0:0:
363,351,53913,1,0,0:0:0:0:
407,279,54080,2,0,L|378:204,1,65,0|0,1:0|0:0,0:0:0:0:
305,184,54414,1,0,0:0:0:0:
220,184,54580,1,0,0:0:0:0:
160,124,54746,2,0,L|106:68,4,65,0|0|0|0|0,1:0|1:0|1:0|1:0|1:0,1:0:0:0:
275,247,55746,1,4,0:0:0:0:
391,124,56079,6,0,L|391:200,1,65,0|0,1:0|0:0,0:0:0:0:
467,150,56413,2,0,L|467:215,1,65
392,265,56746,2,0,L|392:330,1,65,0|0,1:0|0:0,0:0:0:0:
316,367,57079,1,0,0:0:0:0:
239,330,57246,1,0,0:0:0:0:
275,247,57413,6,0,L|275:182,1,65,0|0,1:0|0:0,0:0:0:0:
271,97,57746,2,0,B|226:37|226:37|164:25,1,130
18,97,58413,2,0,L|18:183,1,65,0|0,1:0|1:0,1:0:0:0:
47,241,58746,6,0,P|82:255|129:252,1,65,4|0,0:0|0:0,0:0:0:0:
97,172,59079,2,0,P|132:158|179:161,1,65
243,161,59413,2,0,L|311:195,1,65,0|0,1:0|0:0,0:0:0:0:
241,249,59746,2,0,L|309:283,1,65
375,313,60079,5,4,0:0:0:0:
256,192,60246,12,0,61079,0:0:0:0:
335,120,61413,5,0,0:0:0:0:
264,165,61579,2,0,L|264:206,2,32.5
193,210,61913,2,0,L|193:251,2,32.5
122,255,62246,2,0,L|122:296,2,32.5
51,300,62579,2,0,L|51:341,2,32.5
51,214,62913,1,0,0:0:0:0:
110,154,63079,2,0,L|169:112,1,65
162,116,64079,6,0,P|194:170|273:198,1,130,0|0,1:0|0:0,0:0:0:0:
338,197,64579,1,0,0:0:0:0:
397,137,64746,1,0,1:0:0:0:
253,197,65079,2,0,L|253:290,1,65
345,274,65413,6,0,P|313:333|234:353,1,130,4|0,0:0|0:0,0:0:0:0:
172,354,65913,1,0,0:0:0:0:
94,320,66079,1,0,1:0:0:0:
253,262,66413,1,0,1:0:0:0:
94,204,66746,6,0,L|117:128,1,65,0|0,1:0|0:0,0:0:0:0:
167,77,67079,1,0,0:0:0:0:
248,53,67246,1,0,0:0:0:0:
319,98,67413,2,0,L|337:175,1,65,0|0,1:0|0:0,0:0:0:0:
320,244,67746,1,0,0:0:0:0:
262,305,67913,1,0,0:0:0:0:
177,302,68079,6,0,L|94:325,1,65,0|0,1:0|0:0,0:0:0:0:
119,241,68413,2,0,L|202:218,1,65,0|0,1:0|0:0,0:0:0:0:
257,226,68746,2,0,L|320:244,1,65,0|0,1:0|0:0,0:0:0:0:
324,322,69079,2,0,L|262:305,1,65,0|0,1:0|0:0,0:0:0:0:
177,302,69413,6,0,P|115:319|54:298,1,130,4|0,0:0|0:0,0:0:0:0:
17,222,69913,1,0,0:0:0:0:
55,146,70079,1,0,1:0:0:0:
177,302,70413,2,0,P|189:257|174:212,1,65
158,160,70746,6,0,P|140:98|161:37,1,130,4|0,0:0|0:0,0:0:0:0:
244,19,71246,1,0,0:0:0:0:
326,38,71413,2,0,P|343:99|322:160,1,130,0|0,1:0|0:0,0:0:0:0:
186,239,72079,6,0,L|39:239,1,130,0|0,1:0|0:0,0:0:0:0:
189,342,72746,2,0,L|336:342,1,130,0|0,1:0|0:0,0:0:0:0:
454,239,73413,2,0,L|307:239,1,130,0|0,1:0|0:0,0:0:0:0:
189,136,74079,2,0,L|336:136,1,130,0|0,1:0|0:0,0:0:0:0:
218,263,74746,6,0,P|155:265|88:214,1,130,4|0,0:0|0:0,0:0:0:0:
54,160,75246,1,0,0:0:0:0:
73,78,75413,1,0,1:0:0:0:
101,231,75746,2,0,L|23:281,1,65
105,326,76079,6,0,P|166:353|241:322,1,130,4|0,0:0|0:0,0:0:0:0:
291,286,76579,1,0,0:0:0:0:
333,211,76745,1,0,1:0:0:0:
171,261,77079,1,0,0:0:0:0:
3,160,77413,6,0,L|26:84,1,65,0|0,1:0|0:0,0:0:0:0:
76,33,77746,1,0,0:0:0:0:
157,9,77913,1,0,0:0:0:0:
228,54,78080,2,0,L|246:131,1,65,0|0,1:0|0:0,0:0:0:0:
229,200,78413,1,0,0:0:0:0:
171,261,78580,1,0,0:0:0:0:
86,258,78746,6,0,L|3:281,1,65,0|0,1:0|0:0,0:0:0:0:
28,197,79080,2,0,L|111:174,1,65,0|0,1:0|0:0,0:0:0:0:
166,182,79413,2,0,L|229:200,1,65,0|0,1:0|0:0,0:0:0:0:
233,278,79746,2,0,L|171:261,1,65,0|0,1:0|0:0,0:0:0:0:
86,258,80079,6,0,P|69:195|90:134,1,130,4|0,0:0|0:0,0:0:0:0:
166,99,80579,1,0,0:0:0:0:
242,136,80745,1,0,1:0:0:0:
86,258,81079,2,0,P|131:270|176:255,1,65
242,299,81413,6,0,P|304:316|365:295,1,130,4|0,0:0|0:0,0:0:0:0:
383,213,81913,1,0,0:0:0:0:
361,130,82080,2,0,P|315:117|270:132,1,65,0|0,1:0|0:0,0:0:0:0:
215,134,82413,2,0,P|202:179|217:224,1,65,0|0,1:0|0:0,0:0:0:0:
276,262,82746,6,0,L|423:262,1,130,0|0,1:0|0:0,0:0:0:0:
273,365,83413,2,0,L|126:365,1,130,0|0,1:0|0:0,0:0:0:0:
15,262,84080,2,0,L|162:262,1,130,0|0,1:0|0:0,0:0:0:0:
273,159,84746,2,0,L|126:159,1,130,0|0,1:0|0:0,0:0:0:0:
29,32,85413,5,4,0:0:0:0:
