osu file format v14

[General]
AudioFilename: audio.mp3
AudioLeadIn: 0
PreviewTime: 45329
Countdown: 0
SampleSet: Normal
StackLeniency: 0.7
Mode: 3
LetterboxInBreaks: 0
SpecialStyle: 0
WidescreenStoryboard: 0

[Editor]
DistanceSpacing: 0.8
BeatDivisor: 4
GridSize: 8
TimelineZoom: 2.2

[Metadata]
Title:Saiyajin
TitleUnicode:Saiyajin
Artist:Thaehan
ArtistUnicode:Thaehan
Creator:Mage
Version:Hard
Source:osu!
Tags:AnatOWJIya Power Up Dragon ball ドラゴンボール remix Featured Artist electronic
BeatmapID:1250934
BeatmapSetID:591074

[Difficulty]
HPDrainRate:7.5
CircleSize:4
OverallDifficulty:7.3
ApproachRate:5
SliderMultiplier:1.4
SliderTickRate:1

[Events]
//Background and Video events
0,0,"bege.jpg",0,0
//Break Periods
//Storyboard Layer 0 (Background)
//Storyboard Layer 1 (Fail)
//Storyboard Layer 2 (Pass)
//Storyboard Layer 3 (Foreground)
//Storyboard Sound Samples

[TimingPoints]
80,333.333333333333,4,1,1,50,1,0
45413,-100,4,1,1,50,0,1
55413,-100,4,1,1,50,0,0
56079,-100,4,1,1,50,0,1
61413,-100,4,1,1,50,0,0

[HitObjects]
64,192,80,5,0,0:0:0:0:
192,192,80,1,8,0:0:0:0:
320,192,246,1,8,0:0:0:0:
448,192,246,1,0,0:0:0:0:
64,192,413,1,0,0:0:0:0:
192,192,413,1,8,0:0:0:0:
320,192,579,1,8,0:0:0:0:
448,192,579,1,0,0:0:0:0:
192,192,913,1,8,0:0:0:0:
320,192,913,1,0,0:0:0:0:
64,192,1246,128,0,1579:0:0:0:0:
192,192,1246,128,8,1579:0:0:0:0:
448,192,1579,1,0,0:0:0:0:
192,192,1746,1,0,0:0:0:0:
320,192,1913,1,0,0:0:0:0:
64,192,2079,1,8,0:0:0:0:
192,192,2163,1,8,0:0:0:0:
320,192,2246,1,8,0:0:0:0:
448,192,2329,1,8,0:0:0:0:
192,192,2413,1,10,0:0:0:0:
64,192,2496,1,0,0:0:0:0:
448,192,2579,1,8,0:0:0:0:
320,192,2663,1,8,0:0:0:0:
64,192,2746,128,8,3579:0:0:0:0:
192,192,2746,1,4,0:0:0:0:
320,192,3079,1,8,0:0:0:0:
448,192,3079,1,2,0:0:0:0:
192,192,3246,1,0,0:0:0:0:
448,192,3413,1,8,0:0:0:0:
448,192,3746,128,2,3913:0:0:0:0:
192,192,3746,1,8,0:0:0:0:
320,192,3913,128,0,4079:0:0:0:0:
64,192,4079,128,8,4413:0:0:0:0:
448,192,4079,1,0,0:0:0:0:
448,192,4413,1,2,0:0:0:0:
320,192,4413,1,8,0:0:0:0:
64,192,4579,1,0,0:0:0:0:
192,192,4663,1,0,0:0:0:0:
448,192,4746,128,0,5079:0:0:0:0:
320,192,4746,1,8,0:0:0:0:
64,192,5079,128,2,5413:0:0:0:0:
320,192,5079,1,8,0:0:0:0:
448,192,5413,128,0,5579:0:0:0:0:
192,192,5413,1,8,0:0:0:0:
320,192,5579,128,0,5746:0:0:0:0:
64,192,5746,128,2,5913:0:0:0:0:
448,192,5746,1,8,0:0:0:0:
192,192,5913,128,0,6079:0:0:0:0:
448,192,6079,128,0,6246:0:0:0:0:
64,192,6079,1,8,0:0:0:0:
192,192,6246,128,0,6413:0:0:0:0:
320,192,6413,128,8,6579:0:0:0:0:
448,192,6413,1,2,0:0:0:0:
64,192,6579,128,0,6746:0:0:0:0:
448,192,6746,128,0,6913:0:0:0:0:
192,192,6746,1,8,0:0:0:0:
64,192,6913,1,0,0:0:0:0:
320,192,6996,1,0,0:0:0:0:
448,192,7079,128,8,7246:0:0:0:0:
192,192,7079,1,2,0:0:0:0:
64,192,7246,128,0,7413:0:0:0:0:
320,192,7413,128,8,7579:0:0:0:0:
448,192,7413,1,0,0:0:0:0:
192,192,7579,128,0,7746:0:0:0:0:
448,192,7746,1,2,0:0:0:0:
320,192,7746,1,8,0:0:0:0:
192,192,7913,1,8,0:0:0:0:
64,192,7913,1,0,0:0:0:0:
320,192,8079,1,8,0:0:0:0:
448,192,8079,128,0,8746:0:0:0:0:
64,192,8413,1,2,0:0:0:0:
320,192,8413,1,8,0:0:0:0:
192,192,8579,1,0,0:0:0:0:
64,192,8746,128,8,8913:0:0:0:0:
320,192,8746,1,0,0:0:0:0:
192,192,8913,128,0,9079:0:0:0:0:
320,192,9079,128,8,9246:0:0:0:0:
64,192,9079,1,2,0:0:0:0:
448,192,9246,128,0,9413:0:0:0:0:
64,192,9413,128,0,9746:0:0:0:0:
192,192,9413,1,8,0:0:0:0:
448,192,9746,1,2,0:0:0:0:
320,192,9746,1,8,0:0:0:0:
64,192,9913,1,0,0:0:0:0:
192,192,9996,1,0,0:0:0:0:
320,192,10079,1,0,0:0:0:0:
448,192,10079,128,8,10413:0:0:0:0:
64,192,10413,1,2,0:0:0:0:
320,192,10413,1,8,0:0:0:0:
192,192,10579,1,0,0:0:0:0:
448,192,10746,1,0,0:0:0:0:
320,192,10746,1,8,0:0:0:0:
320,192,10913,1,0,0:0:0:0:
448,192,11079,1,10,0:0:0:0:
320,192,11163,1,0,0:0:0:0:
64,192,11246,1,0,0:0:0:0:
192,192,11329,1,0,0:0:0:0:
320,192,11413,1,8,0:0:0:0:
448,192,11413,1,0,0:0:0:0:
320,192,11579,1,0,0:0:0:0:
448,192,11746,1,10,0:0:0:0:
320,192,11829,1,0,0:0:0:0:
64,192,11913,1,0,0:0:0:0:
192,192,11996,1,0,0:0:0:0:
320,192,12079,1,8,0:0:0:0:
448,192,12079,1,0,0:0:0:0:
320,192,12246,1,8,0:0:0:0:
448,192,12246,1,0,0:0:0:0:
64,192,12413,1,10,0:0:0:0:
192,192,12496,1,0,0:0:0:0:
448,192,12579,1,8,0:0:0:0:
320,192,12663,1,0,0:0:0:0:
64,192,12746,1,0,0:0:0:0:
192,192,12746,1,8,0:0:0:0:
64,192,12913,1,0,0:0:0:0:
192,192,12913,1,8,0:0:0:0:
448,192,13079,1,10,0:0:0:0:
320,192,13163,1,8,0:0:0:0:
192,192,13246,1,8,0:0:0:0:
64,192,13329,1,8,0:0:0:0:
448,192,13413,128,4,14246:0:0:0:0:
320,192,13413,1,8,0:0:0:0:
64,192,13746,1,2,0:0:0:0:
192,192,13746,1,8,0:0:0:0:
320,192,13913,1,0,0:0:0:0:
64,192,14079,1,8,0:0:0:0:
64,192,14413,128,2,14579:0:0:0:0:
320,192,14413,1,8,0:0:0:0:
192,192,14579,128,0,14746:0:0:0:0:
448,192,14746,128,8,15079:0:0:0:0:
64,192,14746,1,0,0:0:0:0:
320,192,15079,1,2,0:0:0:0:
192,192,15079,1,8,0:0:0:0:
64,192,15246,1,0,0:0:0:0:
192,192,15329,1,0,0:0:0:0:
448,192,15413,128,8,15746:0:0:0:0:
320,192,15413,1,0,0:0:0:0:
64,192,15746,128,8,16079:0:0:0:0:
320,192,15746,1,2,0:0:0:0:
448,192,16079,128,8,16246:0:0:0:0:
192,192,16079,1,0,0:0:0:0:
64,192,16246,128,0,16413:0:0:0:0:
320,192,16413,128,8,16579:0:0:0:0:
448,192,16413,1,2,0:0:0:0:
192,192,16579,128,0,16746:0:0:0:0:
448,192,16746,128,8,16913:0:0:0:0:
64,192,16746,1,0,0:0:0:0:
320,192,16913,128,0,17079:0:0:0:0:
64,192,17079,128,8,17246:0:0:0:0:
448,192,17079,1,2,0:0:0:0:
192,192,17246,128,0,17413:0:0:0:0:
448,192,17413,128,0,17579:0:0:0:0:
320,192,17413,1,8,0:0:0:0:
64,192,17579,1,0,0:0:0:0:
192,192,17663,1,0,0:0:0:0:
320,192,17746,1,2,0:0:0:0:
448,192,17746,128,8,17913:0:0:0:0:
64,192,17913,128,0,18079:0:0:0:0:
192,192,18079,128,8,18246:0:0:0:0:
320,192,18079,1,0,0:0:0:0:
448,192,18246,128,0,18413:0:0:0:0:
64,192,18413,1,2,0:0:0:0:
192,192,18413,1,8,0:0:0:0:
448,192,18579,1,0,0:0:0:0:
320,192,18579,1,8,0:0:0:0:
192,192,18746,1,8,0:0:0:0:
64,192,18746,128,0,19413:0:0:0:0:
192,192,19079,1,8,0:0:0:0:
448,192,19079,1,2,0:0:0:0:
320,192,19246,1,0,0:0:0:0:
192,192,19413,1,0,0:0:0:0:
448,192,19413,128,8,19579:0:0:0:0:
320,192,19579,128,0,19746:0:0:0:0:
448,192,19746,1,2,0:0:0:0:
192,192,19746,128,8,19913:0:0:0:0:
64,192,19913,128,0,20079:0:0:0:0:
192,192,20079,1,8,0:0:0:0:
448,192,20079,128,0,20413:0:0:0:0:
64,192,20413,1,8,0:0:0:0:
320,192,20413,1,2,0:0:0:0:
448,192,20579,1,0,0:0:0:0:
320,192,20663,1,0,0:0:0:0:
192,192,20746,1,0,0:0:0:0:
64,192,20746,128,8,21079:0:0:0:0:
448,192,21079,1,2,0:0:0:0:
192,192,21079,1,8,0:0:0:0:
320,192,21246,1,0,0:0:0:0:
64,192,21413,1,0,0:0:0:0:
192,192,21413,1,8,0:0:0:0:
192,192,21579,1,0,0:0:0:0:
64,192,21746,1,10,0:0:0:0:
192,192,21829,1,0,0:0:0:0:
320,192,21913,1,0,0:0:0:0:
448,192,21996,1,0,0:0:0:0:
64,192,22079,1,0,0:0:0:0:
192,192,22079,1,8,0:0:0:0:
192,192,22246,1,0,0:0:0:0:
64,192,22413,1,10,0:0:0:0:
192,192,22496,1,0,0:0:0:0:
320,192,22579,1,0,0:0:0:0:
448,192,22663,1,0,0:0:0:0:
64,192,22746,1,0,0:0:0:0:
192,192,22746,1,8,0:0:0:0:
64,192,22913,1,0,0:0:0:0:
192,192,22913,1,8,0:0:0:0:
448,192,23079,1,10,0:0:0:0:
320,192,23163,1,0,0:0:0:0:
192,192,23246,1,8,0:0:0:0:
64,192,23329,1,0,0:0:0:0:
448,192,23413,1,0,0:0:0:0:
448,192,23579,1,0,0:0:0:0:
64,192,23746,1,0,0:0:0:0:
320,192,23829,1,0,0:0:0:0:
192,192,23913,1,0,0:0:0:0:
448,192,23996,1,0,0:0:0:0:
64,192,24079,1,4,0:0:0:0:
192,192,24079,1,8,0:0:0:0:
448,192,24246,1,0,0:0:0:0:
320,192,24329,1,0,0:0:0:0:
192,192,24413,1,10,0:0:0:0:
64,192,24496,1,0,0:0:0:0:
192,192,24579,1,0,0:0:0:0:
320,192,24663,1,0,0:0:0:0:
64,192,24746,1,0,0:0:0:0:
448,192,24746,1,8,0:0:0:0:
448,192,24913,1,0,0:0:0:0:
64,192,25079,1,2,0:0:0:0:
192,192,25079,1,8,0:0:0:0:
64,192,25246,1,0,0:0:0:0:
320,192,25413,1,8,0:0:0:0:
448,192,25413,1,0,0:0:0:0:
320,192,25579,1,0,0:0:0:0:
64,192,25746,1,10,0:0:0:0:
192,192,25829,1,0,0:0:0:0:
448,192,25913,1,0,0:0:0:0:
320,192,25996,1,0,0:0:0:0:
64,192,26079,1,0,0:0:0:0:
192,192,26079,1,8,0:0:0:0:
192,192,26246,1,0,0:0:0:0:
64,192,26413,128,8,26746:0:0:0:0:
448,192,26413,1,2,0:0:0:0:
320,192,26746,1,8,0:0:0:0:
448,192,26746,1,0,0:0:0:0:
192,192,26913,1,0,0:0:0:0:
320,192,26996,1,0,0:0:0:0:
448,192,27079,1,8,0:0:0:0:
64,192,27079,1,2,0:0:0:0:
192,192,27246,1,0,0:0:0:0:
448,192,27413,1,8,0:0:0:0:
320,192,27496,1,0,0:0:0:0:
64,192,27579,1,0,0:0:0:0:
192,192,27663,1,0,0:0:0:0:
448,192,27746,1,10,0:0:0:0:
320,192,27829,1,0,0:0:0:0:
192,192,27913,1,0,0:0:0:0:
64,192,27996,1,0,0:0:0:0:
320,192,28079,1,8,0:0:0:0:
448,192,28079,1,0,0:0:0:0:
320,192,28246,1,0,0:0:0:0:
64,192,28413,1,8,0:0:0:0:
448,192,28413,1,2,0:0:0:0:
192,192,28579,1,0,0:0:0:0:
320,192,28663,1,0,0:0:0:0:
64,192,28746,128,8,28913:0:0:0:0:
192,192,28913,128,0,29079:0:0:0:0:
448,192,29079,1,2,0:0:0:0:
320,192,29079,1,8,0:0:0:0:
64,192,29246,1,0,0:0:0:0:
192,192,29246,1,8,0:0:0:0:
320,192,29413,1,8,0:0:0:0:
448,192,29413,1,4,0:0:0:0:
64,192,29579,1,0,0:0:0:0:
192,192,29663,1,0,0:0:0:0:
320,192,29746,1,10,0:0:0:0:
448,192,29829,1,0,0:0:0:0:
320,192,29913,1,0,0:0:0:0:
192,192,29996,1,0,0:0:0:0:
64,192,30079,1,8,0:0:0:0:
448,192,30079,1,0,0:0:0:0:
64,192,30246,1,0,0:0:0:0:
320,192,30413,1,8,0:0:0:0:
448,192,30413,1,2,0:0:0:0:
448,192,30579,1,0,0:0:0:0:
64,192,30746,1,0,0:0:0:0:
192,192,30746,1,8,0:0:0:0:
192,192,30913,1,0,0:0:0:0:
448,192,31079,1,10,0:0:0:0:
320,192,31163,1,0,0:0:0:0:
64,192,31246,1,0,0:0:0:0:
192,192,31329,1,0,0:0:0:0:
448,192,31413,1,0,0:0:0:0:
320,192,31413,1,8,0:0:0:0:
320,192,31579,1,0,0:0:0:0:
448,192,31746,128,2,32079:0:0:0:0:
64,192,31746,1,8,0:0:0:0:
64,192,32079,1,0,0:0:0:0:
192,192,32079,1,8,0:0:0:0:
320,192,32246,1,0,0:0:0:0:
192,192,32329,1,0,0:0:0:0:
64,192,32413,1,2,0:0:0:0:
448,192,32413,1,8,0:0:0:0:
320,192,32579,1,0,0:0:0:0:
64,192,32746,1,8,0:0:0:0:
192,192,32829,1,0,0:0:0:0:
448,192,32913,1,0,0:0:0:0:
320,192,32996,1,0,0:0:0:0:
64,192,33079,1,10,0:0:0:0:
192,192,33163,1,0,0:0:0:0:
320,192,33246,1,0,0:0:0:0:
448,192,33329,1,0,0:0:0:0:
64,192,33413,1,0,0:0:0:0:
192,192,33413,1,8,0:0:0:0:
192,192,33579,1,8,0:0:0:0:
448,192,33746,1,8,0:0:0:0:
64,192,33746,1,2,0:0:0:0:
320,192,33913,1,8,0:0:0:0:
192,192,33996,1,8,0:0:0:0:
448,192,34079,128,0,34746:0:0:0:0:
64,192,34746,1,8,0:0:0:0:
320,192,34913,1,0,0:0:0:0:
64,192,35079,1,8,0:0:0:0:
192,192,35246,1,0,0:0:0:0:
64,192,35413,1,8,0:0:0:0:
448,192,35579,1,0,0:0:0:0:
64,192,35746,1,8,0:0:0:0:
192,192,35913,1,0,0:0:0:0:
320,192,36079,1,8,0:0:0:0:
64,192,36246,1,0,0:0:0:0:
320,192,36413,1,8,0:0:0:0:
448,192,36579,1,0,0:0:0:0:
320,192,36746,1,8,0:0:0:0:
192,192,36913,1,0,0:0:0:0:
320,192,37079,1,8,0:0:0:0:
64,192,37246,1,0,0:0:0:0:
192,192,37413,1,8,0:0:0:0:
448,192,37579,1,0,0:0:0:0:
192,192,37746,1,8,0:0:0:0:
64,192,37913,1,0,0:0:0:0:
192,192,38079,1,8,0:0:0:0:
320,192,38246,1,0,0:0:0:0:
192,192,38413,1,8,0:0:0:0:
64,192,38579,1,0,0:0:0:0:
448,192,38746,1,8,0:0:0:0:
320,192,38913,1,0,0:0:0:0:
448,192,39079,1,8,0:0:0:0:
64,192,39246,1,0,0:0:0:0:
448,192,39413,1,8,0:0:0:0:
192,192,39579,1,0,0:0:0:0:
448,192,39746,1,8,0:0:0:0:
320,192,39913,1,8,0:0:0:0:
64,192,40079,1,8,0:0:0:0:
192,192,40079,1,0,0:0:0:0:
448,192,40246,1,0,0:0:0:0:
64,192,40413,1,8,0:0:0:0:
320,192,40579,1,0,0:0:0:0:
64,192,40746,1,8,0:0:0:0:
192,192,40913,1,0,0:0:0:0:
64,192,41079,1,8,0:0:0:0:
320,192,41246,1,0,0:0:0:0:
448,192,41413,1,8,0:0:0:0:
192,192,41579,1,0,0:0:0:0:
448,192,41746,1,8,0:0:0:0:
64,192,41913,1,0,0:0:0:0:
448,192,42079,1,8,0:0:0:0:
192,192,42246,1,0,0:0:0:0:
448,192,42413,1,8,0:0:0:0:
320,192,42579,1,0,0:0:0:0:
192,192,42746,1,8,0:0:0:0:
64,192,42746,1,0,0:0:0:0:
192,192,42913,1,8,0:0:0:0:
448,192,43079,1,8,0:0:0:0:
320,192,43079,1,0,0:0:0:0:
448,192,43246,1,8,0:0:0:0:
64,192,43413,1,8,0:0:0:0:
192,192,43413,1,0,0:0:0:0:
64,192,43579,1,8,0:0:0:0:
320,192,43746,1,8,0:0:0:0:
448,192,43746,1,0,0:0:0:0:
320,192,43913,1,8,0:0:0:0:
64,192,44079,1,0,0:0:0:0:
192,192,44079,1,8,0:0:0:0:
448,192,44163,1,8,0:0:0:0:
320,192,44246,1,8,0:0:0:0:
192,192,44329,1,8,0:0:0:0:
64,192,44413,1,8,0:0:0:0:
448,192,44413,1,0,0:0:0:0:
320,192,44496,1,8,0:0:0:0:
192,192,44579,1,8,0:0:0:0:
64,192,44663,1,8,0:0:0:0:
320,192,44746,1,0,0:0:0:0:
448,192,44746,1,8,0:0:0:0:
192,192,44913,1,0,0:0:0:0:
320,192,45079,1,0,0:0:0:0:
64,192,45246,1,0,0:0:0:0:
320,192,45413,1,4,0:0:0:0:
448,192,45413,1,8,0:0:0:0:
320,192,45579,1,0,0:0:0:0:
192,192,45746,1,8,0:0:0:0:
64,192,45746,1,2,0:0:0:0:
320,192,45913,1,0,0:0:0:0:
192,192,45996,1,0,0:0:0:0:
64,192,46079,1,0,0:0:0:0:
448,192,46079,1,8,0:0:0:0:
192,192,46246,1,0,0:0:0:0:
64,192,46413,1,2,0:0:0:0:
320,192,46413,1,8,0:0:0:0:
448,192,46579,1,0,0:0:0:0:
64,192,46746,1,0,0:0:0:0:
192,192,46746,1,8,0:0:0:0:
448,192,46829,1,0,0:0:0:0:
64,192,46913,1,0,0:0:0:0:
192,192,47079,1,8,0:0:0:0:
320,192,47079,1,2,0:0:0:0:
448,192,47246,1,0,0:0:0:0:
320,192,47329,1,0,0:0:0:0:
192,192,47413,1,8,0:0:0:0:
64,192,47413,1,0,0:0:0:0:
320,192,47579,1,0,0:0:0:0:
64,192,47746,1,2,0:0:0:0:
448,192,47746,1,8,0:0:0:0:
192,192,47913,1,0,0:0:0:0:
448,192,48079,1,0,0:0:0:0:
320,192,48079,1,8,0:0:0:0:
192,192,48246,1,0,0:0:0:0:
320,192,48329,1,0,0:0:0:0:
192,192,48413,1,8,0:0:0:0:
64,192,48413,1,2,0:0:0:0:
448,192,48579,1,0,0:0:0:0:
64,192,48746,1,0,0:0:0:0:
192,192,48746,1,8,0:0:0:0:
320,192,48913,1,0,0:0:0:0:
192,192,48996,1,0,0:0:0:0:
320,192,49079,1,8,0:0:0:0:
448,192,49079,1,2,0:0:0:0:
64,192,49246,1,0,0:0:0:0:
320,192,49413,1,8,0:0:0:0:
448,192,49413,1,0,0:0:0:0:
192,192,49579,1,0,0:0:0:0:
64,192,49746,1,8,0:0:0:0:
448,192,49746,1,2,0:0:0:0:
320,192,49913,1,0,0:0:0:0:
64,192,50079,1,8,0:0:0:0:
192,192,50163,1,0,0:0:0:0:
320,192,50246,1,0,0:0:0:0:
448,192,50329,1,0,0:0:0:0:
64,192,50413,1,10,0:0:0:0:
192,192,50496,1,0,0:0:0:0:
448,192,50579,1,8,0:0:0:0:
320,192,50663,1,0,0:0:0:0:
64,192,50746,1,4,0:0:0:0:
192,192,50746,1,8,0:0:0:0:
192,192,50913,1,0,0:0:0:0:
320,192,51079,1,8,0:0:0:0:
64,192,51079,1,2,0:0:0:0:
448,192,51246,1,0,0:0:0:0:
320,192,51329,1,0,0:0:0:0:
192,192,51413,1,8,0:0:0:0:
64,192,51413,1,0,0:0:0:0:
320,192,51579,1,0,0:0:0:0:
448,192,51746,1,8,0:0:0:0:
64,192,51746,1,2,0:0:0:0:
192,192,51913,1,0,0:0:0:0:
320,192,52079,1,8,0:0:0:0:
448,192,52079,1,0,0:0:0:0:
192,192,52163,1,0,0:0:0:0:
320,192,52246,1,0,0:0:0:0:
64,192,52413,1,8,0:0:0:0:
448,192,52413,1,2,0:0:0:0:
192,192,52579,1,0,0:0:0:0:
320,192,52663,1,0,0:0:0:0:
448,192,52746,1,0,0:0:0:0:
64,192,52746,1,8,0:0:0:0:
192,192,52913,1,0,0:0:0:0:
320,192,53079,1,8,0:0:0:0:
64,192,53079,1,2,0:0:0:0:
448,192,53246,1,0,0:0:0:0:
64,192,53413,1,0,0:0:0:0:
192,192,53413,1,8,0:0:0:0:
320,192,53579,1,0,0:0:0:0:
192,192,53663,1,0,0:0:0:0:
320,192,53746,1,8,0:0:0:0:
448,192,53746,1,2,0:0:0:0:
64,192,53913,1,0,0:0:0:0:
448,192,54079,1,0,0:0:0:0:
320,192,54079,1,8,0:0:0:0:
192,192,54246,1,0,0:0:0:0:
320,192,54329,1,0,0:0:0:0:
192,192,54413,1,8,0:0:0:0:
64,192,54413,1,2,0:0:0:0:
448,192,54579,1,0,0:0:0:0:
192,192,54746,1,8,0:0:0:0:
64,192,54746,1,0,0:0:0:0:
320,192,54913,1,8,0:0:0:0:
448,192,54913,1,0,0:0:0:0:
192,192,55079,1,8,0:0:0:0:
64,192,55079,1,0,0:0:0:0:
448,192,55246,1,0,0:0:0:0:
320,192,55246,1,8,0:0:0:0:
448,192,55413,128,0,55746:0:0:0:0:
64,192,55413,1,8,0:0:0:0:
192,192,55746,1,8,0:0:0:0:
64,192,55746,1,0,0:0:0:0:
320,192,55829,1,8,0:0:0:0:
64,192,55913,1,8,0:0:0:0:
448,192,55913,1,0,0:0:0:0:
192,192,55996,1,8,0:0:0:0:
448,192,56079,1,4,0:0:0:0:
320,192,56079,128,8,56246:0:0:0:0:
320,192,56413,128,8,56579:0:0:0:0:
64,192,56413,1,2,0:0:0:0:
320,192,56746,128,8,56913:0:0:0:0:
192,192,56746,1,0,0:0:0:0:
192,192,57079,128,8,57246:0:0:0:0:
64,192,57079,1,2,0:0:0:0:
320,192,57246,128,0,57413:0:0:0:0:
64,192,57413,128,8,57579:0:0:0:0:
448,192,57413,1,0,0:0:0:0:
192,192,57579,128,0,57746:0:0:0:0:
448,192,57746,1,10,0:0:0:0:
320,192,57829,1,8,0:0:0:0:
192,192,57913,1,8,0:0:0:0:
64,192,57996,1,8,0:0:0:0:
320,192,58079,1,0,0:0:0:0:
192,192,58246,1,0,0:0:0:0:
320,192,58413,1,8,0:0:0:0:
448,192,58413,1,2,0:0:0:0:
64,192,58579,1,0,0:0:0:0:
192,192,58579,1,8,0:0:0:0:
448,192,58746,128,0,58913:0:0:0:0:
320,192,58746,1,8,0:0:0:0:
448,192,59079,128,8,59413:0:0:0:0:
64,192,59079,1,2,0:0:0:0:
64,192,59413,128,8,59579:0:0:0:0:
192,192,59413,1,0,0:0:0:0:
320,192,59579,128,8,59746:0:0:0:0:
448,192,59579,1,0,0:0:0:0:
192,192,59746,128,8,59913:0:0:0:0:
64,192,59746,1,2,0:0:0:0:
448,192,59913,128,8,60079:0:0:0:0:
320,192,59913,1,0,0:0:0:0:
64,192,60079,128,8,60413:0:0:0:0:
192,192,60079,1,0,0:0:0:0:
320,192,60413,128,0,60579:0:0:0:0:
192,192,60579,128,0,60746:0:0:0:0:
448,192,60746,128,0,61079:0:0:0:0:
64,192,61079,128,0,61413:0:0:0:0:
320,192,61246,1,8,0:0:0:0:
448,192,61329,1,8,0:0:0:0:
192,192,61413,1,0,0:0:0:0:
320,192,61413,1,8,0:0:0:0:
64,192,61579,1,8,0:0:0:0:
192,192,61663,1,8,0:0:0:0:
320,192,61746,1,8,0:0:0:0:
448,192,61746,1,0,0:0:0:0:
448,192,61913,1,8,0:0:0:0:
320,192,61996,1,8,0:0:0:0:
64,192,62079,1,0,0:0:0:0:
192,192,62079,1,8,0:0:0:0:
448,192,62246,1,8,0:0:0:0:
64,192,62329,1,8,0:0:0:0:
320,192,62413,1,0,0:0:0:0:
192,192,62413,1,8,0:0:0:0:
320,192,62579,1,8,0:0:0:0:
64,192,62663,1,8,0:0:0:0:
192,192,62746,1,8,0:0:0:0:
448,192,62746,1,0,0:0:0:0:
448,192,62913,1,8,0:0:0:0:
64,192,62913,1,0,0:0:0:0:
64,192,63079,1,0,0:0:0:0:
320,192,63079,1,8,0:0:0:0:
192,192,63246,1,8,0:0:0:0:
320,192,63246,1,0,0:0:0:0:
192,192,63746,128,0,64079:0:0:0:0:
448,192,64079,128,4,64913:0:0:0:0:
64,192,64079,1,8,0:0:0:0:
192,192,64413,1,8,0:0:0:0:
320,192,64413,1,2,0:0:0:0:
64,192,64579,1,0,0:0:0:0:
320,192,64746,1,8,0:0:0:0:
64,192,65079,128,2,65246:0:0:0:0:
448,192,65079,1,8,0:0:0:0:
192,192,65246,128,0,65413:0:0:0:0:
448,192,65413,128,8,65746:0:0:0:0:
64,192,65413,1,0,0:0:0:0:
320,192,65746,1,2,0:0:0:0:
192,192,65746,1,8,0:0:0:0:
64,192,65913,1,0,0:0:0:0:
192,192,65996,1,0,0:0:0:0:
448,192,66079,128,0,66413:0:0:0:0:
320,192,66079,1,8,0:0:0:0:
64,192,66413,128,2,66746:0:0:0:0:
192,192,66413,1,8,0:0:0:0:
320,192,66746,128,8,66913:0:0:0:0:
448,192,66746,1,0,0:0:0:0:
192,192,66913,128,0,67079:0:0:0:0:
448,192,67079,128,8,67246:0:0:0:0:
64,192,67079,1,2,0:0:0:0:
320,192,67246,128,0,67413:0:0:0:0:
64,192,67413,128,8,67579:0:0:0:0:
448,192,67413,1,0,0:0:0:0:
192,192,67579,128,0,67746:0:0:0:0:
448,192,67746,128,8,67913:0:0:0:0:
64,192,67746,1,2,0:0:0:0:
320,192,67913,128,0,68079:0:0:0:0:
64,192,68079,128,0,68246:0:0:0:0:
192,192,68079,1,8,0:0:0:0:
448,192,68246,1,0,0:0:0:0:
320,192,68329,1,0,0:0:0:0:
64,192,68413,128,8,68579:0:0:0:0:
192,192,68413,1,2,0:0:0:0:
320,192,68579,128,0,68746:0:0:0:0:
448,192,68746,128,8,68913:0:0:0:0:
64,192,68746,1,0,0:0:0:0:
192,192,68913,128,0,69079:0:0:0:0:
64,192,69079,1,8,0:0:0:0:
448,192,69079,1,2,0:0:0:0:
320,192,69246,1,0,0:0:0:0:
192,192,69246,1,8,0:0:0:0:
448,192,69413,1,8,0:0:0:0:
64,192,69413,128,0,70079:0:0:0:0:
192,192,69746,1,8,0:0:0:0:
448,192,69746,1,2,0:0:0:0:
320,192,69913,1,0,0:0:0:0:
448,192,70079,128,0,70246:0:0:0:0:
192,192,70079,1,8,0:0:0:0:
320,192,70246,128,0,70413:0:0:0:0:
192,192,70413,128,8,70579:0:0:0:0:
448,192,70413,1,8,0:0:0:0:
64,192,70579,128,0,70746:0:0:0:0:
448,192,70746,128,0,71246:0:0:0:0:
320,192,70746,1,8,0:0:0:0:
64,192,71079,1,2,0:0:0:0:
192,192,71079,1,8,0:0:0:0:
320,192,71246,1,0,0:0:0:0:
192,192,71329,1,0,0:0:0:0:
64,192,71413,1,0,0:0:0:0:
448,192,71413,128,8,71746:0:0:0:0:
192,192,71746,128,2,71913:0:0:0:0:
320,192,71746,1,8,0:0:0:0:
64,192,71913,128,0,72079:0:0:0:0:
320,192,72079,1,0,0:0:0:0:
448,192,72079,1,8,0:0:0:0:
448,192,72246,1,0,0:0:0:0:
320,192,72413,1,10,0:0:0:0:
448,192,72496,1,0,0:0:0:0:
64,192,72579,1,0,0:0:0:0:
192,192,72663,1,0,0:0:0:0:
320,192,72746,1,0,0:0:0:0:
448,192,72746,1,8,0:0:0:0:
448,192,72913,1,0,0:0:0:0:
320,192,73079,1,10,0:0:0:0:
448,192,73163,1,0,0:0:0:0:
64,192,73246,1,0,0:0:0:0:
192,192,73329,1,0,0:0:0:0:
320,192,73413,1,0,0:0:0:0:
448,192,73413,1,8,0:0:0:0:
448,192,73579,1,8,0:0:0:0:
320,192,73579,1,0,0:0:0:0:
192,192,73746,1,10,0:0:0:0:
64,192,73829,1,0,0:0:0:0:
448,192,73913,1,8,0:0:0:0:
320,192,73996,1,0,0:0:0:0:
64,192,74079,1,0,0:0:0:0:
192,192,74079,1,8,0:0:0:0:
192,192,74246,1,8,0:0:0:0:
64,192,74246,1,0,0:0:0:0:
448,192,74413,1,10,0:0:0:0:
320,192,74496,1,8,0:0:0:0:
192,192,74579,1,8,0:0:0:0:
64,192,74663,1,8,0:0:0:0:
320,192,74746,1,8,0:0:0:0:
448,192,74746,128,4,75579:0:0:0:0:
64,192,75079,1,2,0:0:0:0:
192,192,75079,1,8,0:0:0:0:
320,192,75246,1,0,0:0:0:0:
192,192,75413,1,8,0:0:0:0:
64,192,75746,1,2,0:0:0:0:
192,192,75746,128,8,75913:0:0:0:0:
320,192,75913,128,0,76079:0:0:0:0:
64,192,76079,128,0,76413:0:0:0:0:
448,192,76079,1,8,0:0:0:0:
192,192,76413,1,8,0:0:0:0:
320,192,76413,1,2,0:0:0:0:
448,192,76579,1,0,0:0:0:0:
320,192,76663,1,0,0:0:0:0:
192,192,76746,1,8,0:0:0:0:
64,192,76746,128,0,77079:0:0:0:0:
448,192,77079,128,2,77413:0:0:0:0:
320,192,77079,1,8,0:0:0:0:
192,192,77413,1,8,0:0:0:0:
64,192,77413,128,0,77579:0:0:0:0:
320,192,77579,128,0,77746:0:0:0:0:
64,192,77746,1,2,0:0:0:0:
192,192,77746,128,8,77913:0:0:0:0:
448,192,77913,128,0,78079:0:0:0:0:
320,192,78079,1,8,0:0:0:0:
64,192,78079,128,0,78246:0:0:0:0:
192,192,78246,128,0,78413:0:0:0:0:
64,192,78413,1,8,0:0:0:0:
448,192,78413,128,2,78579:0:0:0:0:
320,192,78579,128,0,78746:0:0:0:0:
192,192,78746,1,8,0:0:0:0:
64,192,78746,128,0,78913:0:0:0:0:
448,192,78913,1,0,0:0:0:0:
192,192,78996,1,0,0:0:0:0:
64,192,79079,128,8,79246:0:0:0:0:
320,192,79079,1,2,0:0:0:0:
448,192,79246,128,0,79413:0:0:0:0:
192,192,79413,128,0,79579:0:0:0:0:
64,192,79413,1,8,0:0:0:0:
320,192,79579,128,0,79746:0:0:0:0:
448,192,79746,1,2,0:0:0:0:
64,192,79746,1,8,0:0:0:0:
192,192,79913,1,8,0:0:0:0:
320,192,79913,1,0,0:0:0:0:
64,192,80079,1,0,0:0:0:0:
448,192,80079,128,8,80746:0:0:0:0:
320,192,80413,1,8,0:0:0:0:
64,192,80413,1,2,0:0:0:0:
192,192,80579,1,0,0:0:0:0:
64,192,80746,128,8,80913:0:0:0:0:
320,192,80746,1,0,0:0:0:0:
192,192,80913,128,0,81079:0:0:0:0:
320,192,81079,128,8,81246:0:0:0:0:
64,192,81079,1,2,0:0:0:0:
448,192,81246,128,0,81413:0:0:0:0:
192,192,81413,1,8,0:0:0:0:
64,192,81413,128,0,81913:0:0:0:0:
320,192,81746,1,8,0:0:0:0:
448,192,81746,1,2,0:0:0:0:
192,192,81913,1,0,0:0:0:0:
320,192,81996,1,0,0:0:0:0:
64,192,82079,128,0,82413:0:0:0:0:
448,192,82079,1,8,0:0:0:0:
448,192,82413,128,8,82579:0:0:0:0:
192,192,82413,1,2,0:0:0:0:
320,192,82579,128,0,82746:0:0:0:0:
64,192,82746,1,0,0:0:0:0:
192,192,82746,1,8,0:0:0:0:
64,192,82913,1,0,0:0:0:0:
192,192,83079,1,10,0:0:0:0:
64,192,83163,1,0,0:0:0:0:
320,192,83246,1,0,0:0:0:0:
448,192,83329,1,0,0:0:0:0:
64,192,83413,1,0,0:0:0:0:
192,192,83413,1,8,0:0:0:0:
64,192,83579,1,0,0:0:0:0:
192,192,83746,1,10,0:0:0:0:
64,192,83829,1,0,0:0:0:0:
320,192,83913,1,0,0:0:0:0:
448,192,83996,1,0,0:0:0:0:
64,192,84079,1,0,0:0:0:0:
192,192,84079,1,8,0:0:0:0:
192,192,84246,1,8,0:0:0:0:
64,192,84246,1,0,0:0:0:0:
320,192,84413,1,10,0:0:0:0:
448,192,84496,1,0,0:0:0:0:
192,192,84579,1,8,0:0:0:0:
64,192,84663,1,0,0:0:0:0:
448,192,84746,1,0,0:0:0:0:
448,192,84913,1,0,0:0:0:0:
64,192,85079,1,0,0:0:0:0:
192,192,85163,1,0,0:0:0:0:
320,192,85246,1,0,0:0:0:0:
448,192,85329,1,0,0:0:0:0:
64,192,85413,1,4,0:0:0:0:
192,192,85413,1,10,0:0:0:0:
