osu file format v14

[General]
AudioFilename: audio.mp3
AudioLeadIn: 0
PreviewTime: 45408
Countdown: 0
SampleSet: Soft
StackLeniency: 0.2
Mode: 0
LetterboxInBreaks: 0
WidescreenStoryboard: 0

[Editor]
Bookmarks: 2741,5408,8074,12741,13408,18741,23408,34074,36408,39741,42741,44074,45074,45408,48074,50741,54741,56074,60074,61408,63741,64074,66741,72074,74741,77408,80074,82741,85408,91691
DistanceSpacing: 0.8
BeatDivisor: 4
GridSize: 8
TimelineZoom: 6.199996

[Metadata]
Title:Saiyajin
TitleUnicode:Saiyajin
Artist:Thaehan
ArtistUnicode:Thaehan
Creator:Kotori-Chan
Version:Feel my power Goku !!!!
Source:
Tags:Power Up Dragon ball ドラゴンボール remix Featured Artist electronic Gero HikariBuru Lazer
BeatmapID:1448782
BeatmapSetID:684577

[Difficulty]
HPDrainRate:5
CircleSize:4.3
OverallDifficulty:8
ApproachRate:9
SliderMultiplier:1.8
SliderTickRate:2

[Events]
//Background and Video events
0,0,"thumb-1920-564835.jpg",0,0
//Break Periods
//Storyboard Layer 0 (Background)
//Storyboard Layer 1 (Fail)
//Storyboard Layer 2 (Pass)
//Storyboard Layer 3 (Foreground)
//Storyboard Sound Samples

[TimingPoints]
75,333.333333333333,4,2,1,55,1,0
2074,-100,4,2,2,45,0,0
2741,-100,4,2,99,55,0,0
4658,-100,4,2,45,45,0,0
4741,-100,4,2,99,55,0,0
5408,-100,4,2,1,55,0,0
6741,-100,4,2,2,45,0,0
8074,-100,4,2,90,75,0,0
8408,-100,4,2,1,55,0,0
9908,-100,4,2,2,45,0,0
10741,-100,4,2,99,55,0,0
15241,-100,4,2,88,55,0,0
15408,-100,4,2,99,55,0,0
16074,-100,4,2,1,55,0,0
17408,-100,4,2,2,45,0,0
18741,-100,4,2,99,55,0,0
19074,-100,4,2,1,55,0,0
20574,-100,4,2,2,45,0,0
21408,-100,4,2,99,55,0,0
23408,-66.6666666666667,4,2,90,75,0,0
23908,-100,4,2,99,55,0,0
28074,-100,4,2,90,55,0,0
28116,-100,4,2,1,5,0,0
28241,-100,4,2,90,55,0,0
28283,-100,4,2,1,5,0,0
28408,-100,4,2,90,55,0,0
28449,-100,4,2,1,5,0,0
28574,-100,4,2,1,55,0,0
29074,-100,4,2,30,55,0,0
29408,-100,4,2,99,55,0,0
33408,-100,4,2,90,55,0,0
33449,-100,4,2,1,5,0,0
33574,-100,4,2,90,55,0,0
33616,-100,4,2,1,5,0,0
33741,-100,4,2,90,55,0,0
33783,-100,4,2,1,5,0,0
33908,-100,4,2,55,55,0,0
33991,-200,4,2,81,55,0,0
34741,-100,4,2,99,55,0,0
36408,-100,4,2,80,100,0,0
36449,-100,4,2,99,55,0,0
44074,-100,4,2,5,55,0,0
45074,-62.5,4,2,1,55,0,0
45408,-100,4,2,80,55,0,1
45908,-100,4,2,2,45,0,1
46408,-100,4,2,1,55,0,1
47241,-100,4,2,2,45,0,1
48074,-100,4,2,1,45,0,1
49408,-100,4,2,60,55,0,1
50741,-100,4,2,1,55,0,1
51241,-100,4,2,2,45,0,1
51741,-100,4,2,1,55,0,1
52574,-100,4,2,2,45,0,1
53408,-100,4,2,1,55,0,1
54741,-66.6666666666667,4,2,10,55,0,1
55741,-100,4,2,99,55,0,1
58908,-100,4,2,13,55,0,1
59074,-100,4,2,99,55,0,1
60074,-200,4,2,81,80,0,1
61241,-200,4,2,5,55,0,1
63241,-125,4,2,5,55,0,1
63741,-50,4,2,77,55,0,1
64074,-100,4,2,99,55,0,0
65991,-100,4,2,45,45,0,0
66074,-100,4,2,99,55,0,0
66741,-100,4,2,1,55,0,0
68074,-100,4,2,2,45,0,0
69408,-100,4,2,90,75,0,0
69741,-100,4,2,1,55,0,0
71241,-100,4,2,2,45,0,0
72074,-100,4,2,99,55,0,0
76241,-100,4,2,35,55,0,0
76408,-100,4,2,99,55,0,0
77408,-100,4,2,1,55,0,0
78741,-100,4,2,2,45,0,0
80074,-100,4,2,99,55,0,0
80408,-100,4,2,1,55,0,0
81741,-100,4,2,2,45,0,0
82741,-100,4,2,1,55,0,0
85691,666.666666666667,4,2,1,70,1,0

[Colours]
Combo1 : 0,128,64
Combo2 : 255,128,64
Combo3 : 0,0,255
Combo4 : 128,0,255

[HitObjects]
256,72,75,5,2,0:0:0:0:
168,136,241,1,2,0:0:0:0:
256,196,408,1,2,0:0:0:0:
344,136,574,1,2,0:0:0:0:
256,372,908,1,2,0:0:0:0:
176,215,1241,2,0,B|231:235|256:196|256:196|281:235|336:215,1,180,4|2,0:0|0:0,0:0:0:0:
416,143,1741,1,2,0:0:0:0:
335,71,1908,1,2,0:0:0:0:
256,144,2074,5,8,0:0:0:0:
256,156,2158,1,0,0:0:0:0:
256,169,2241,1,8,0:0:0:0:
256,181,2324,1,0,0:0:0:0:
256,194,2408,1,8,0:0:0:0:
256,207,2491,1,0,0:0:0:0:
256,219,2574,1,8,0:0:0:0:
256,232,2658,1,0,0:0:0:0:
298,286,2741,6,0,P|256:272|214:286,1,90,2|0,0:0|0:0,0:0:0:0:
45,226,3074,2,0,P|87:240|129:226,1,90,8|0,0:0|0:0,0:0:0:0:
256,158,3408,2,0,B|272:115|272:115|256:74,1,90,2|0,0:0|0:0,0:0:0:0:
153,40,3741,1,8,0:0:0:0:
153,148,3908,1,0,0:0:0:0:
256,74,4074,2,0,B|320:74|320:74|360:98|360:98|432:98,1,180,2|8,0:0|0:0,0:0:0:0:
320,224,4574,5,0,0:0:0:0:
320,224,4658,1,4,0:0:0:0:
320,224,4741,2,0,L|320:316,1,90,2|0,0:0|0:0,0:0:0:0:
192,224,5074,2,0,L|192:316,1,90,8|0,0:0|0:0,0:0:0:0:
145,66,5408,5,2,0:0:0:0:
48,45,5574,1,2,0:0:0:0:
103,125,5741,2,0,P|145:139|187:125,1,90,4|0,0:0|0:0,0:0:0:0:
367,66,6074,1,2,0:0:0:0:
464,45,6241,1,2,0:0:0:0:
409,125,6408,2,0,P|367:139|325:125,1,90,8|0,0:0|0:0,0:0:0:0:
188,294,6741,5,8,0:0:0:0:
256,92,6908,1,8,0:0:0:0:
324,294,7074,1,8,0:0:0:0:
146,181,7241,1,8,0:0:0:0:
366,181,7408,1,8,0:0:0:0:
209,267,7574,1,8,0:0:0:0:
256,126,7741,1,8,0:0:0:0:
303,267,7908,1,8,0:0:0:0:
180,83,8074,6,0,P|256:42|332:83,1,180,4|0,0:0|0:0,0:0:0:0:
366,181,8574,1,2,0:0:0:0:
451,94,8741,2,0,B|435:137|435:137|451:178,1,90,2|2,0:0|0:0,0:0:0:0:
381,346,9074,2,0,B|397:303|397:303|381:262,1,90,2|2,0:0|0:0,0:0:0:0:
256,132,9408,2,0,B|256:209|256:209|260:217|260:217|252:217|252:217|256:225|256:225|256:302,1,180,8|0,0:0|0:0,0:0:0:0:
180,78,9908,1,8,0:0:0:0:
180,78,9991,1,0,0:0:0:0:
180,78,10074,2,0,B|134:78|134:78|101:108,1,90,8|8,0:0|0:0,0:0:0:0:
332,78,10408,2,0,B|378:78|378:78|411:108,1,90,8|0,0:0|0:0,0:0:0:0:
410,238,10741,5,2,0:0:0:0:
410,238,10908,1,2,0:0:0:0:
296,160,11074,1,2,0:0:0:0:
276,140,11158,1,2,0:0:0:0:
257,121,11241,1,2,0:0:0:0:
257,328,11408,5,2,0:0:0:0:
257,328,11574,1,2,0:0:0:0:
218,160,11741,1,2,0:0:0:0:
238,140,11824,1,2,0:0:0:0:
257,121,11908,1,2,0:0:0:0:
102,238,12074,5,2,0:0:0:0:
102,238,12241,1,2,0:0:0:0:
216,304,12408,1,2,0:0:0:0:
236,324,12491,1,2,0:0:0:0:
255,343,12574,1,2,0:0:0:0:
257,121,12741,5,6,0:0:0:0:
257,121,12908,1,2,0:0:0:0:
294,304,13074,1,2,0:0:0:0:
274,324,13158,1,2,0:0:0:0:
255,343,13241,1,2,0:0:0:0:
212,45,13408,6,0,B|244:45|256:38|256:38|268:45|300:45,1,90,2|0,0:0|0:0,0:0:0:0:
300,196,13741,2,0,B|268:196|256:203|256:203|244:196|212:196,1,90,8|0,0:0|0:0,0:0:0:0:
88,80,14074,2,0,P|102:122|88:164,1,90,2|0,0:0|0:0,0:0:0:0:
120,280,14408,1,8,0:0:0:0:
212,196,14574,1,0,0:0:0:0:
296,276,14741,2,0,B|388:276|388:276|432:276|464:320,1,180,2|8,0:0|0:0,0:0:0:0:
301,123,15241,5,4,0:0:0:0:
301,123,15324,1,0,0:0:0:0:
301,123,15408,2,0,B|320:135|326:159|326:159|320:183|301:195,1,90,2|0,0:0|0:0,0:0:0:0:
211,123,15741,2,0,B|192:135|186:159|186:159|192:183|211:195,1,90,8|0,0:0|0:0,0:0:0:0:
395,341,16074,5,2,0:0:0:0:
465,242,16241,1,2,0:0:0:0:
395,341,16408,2,0,B|362:308|362:308|360:263,1,90,4|0,0:0|0:0,0:0:0:0:
117,341,16741,1,2,0:0:0:0:
47,242,16908,1,2,0:0:0:0:
117,341,17074,2,0,B|149:308|149:308|151:263,1,90,8|0,0:0|0:0,0:0:0:0:
256,96,17408,5,8,0:0:0:0:
152,264,17574,1,8,0:0:0:0:
360,264,17741,1,8,0:0:0:0:
256,110,17908,5,8,0:0:0:0:
167,253,18074,1,8,0:0:0:0:
345,253,18241,1,8,0:0:0:0:
256,122,18408,5,8,0:0:0:0:
180,243,18574,1,8,0:0:0:0:
332,243,18741,6,0,B|373:242|373:242|437:168|437:168|436:128,1,180,4|2,0:0|0:0,0:0:0:0:
367,49,19241,1,2,0:0:0:0:
298,128,19408,2,0,P|256:142|214:128,1,90,2|2,0:0|0:0,0:0:0:0:
367,49,19741,2,0,P|409:35|451:49,1,90,2|2,0:0|0:0,0:0:0:0:
451,205,20074,2,0,B|396:258|396:258|388:261|388:261|394:267|394:267|385:270|385:270|330:326,1,180,8|0,0:0|0:0,0:0:0:0:
313,119,20574,5,8,0:0:0:0:
313,119,20658,1,0,0:0:0:0:
313,119,20741,2,0,B|329:160|329:160|313:203,1,90,8|8,0:0|0:0,0:0:0:0:
199,204,21074,2,0,B|183:161|183:161|199:120,1,90,8|0,0:0|0:0,0:0:0:0:
384,56,21408,5,2,0:0:0:0:
384,56,21574,1,2,0:0:0:0:
384,220,21741,1,2,0:0:0:0:
384,248,21824,1,2,0:0:0:0:
384,275,21908,1,2,0:0:0:0:
256,56,22074,5,2,0:0:0:0:
256,56,22241,1,2,0:0:0:0:
256,216,22408,1,2,0:0:0:0:
256,244,22491,1,2,0:0:0:0:
256,271,22574,1,2,0:0:0:0:
128,56,22741,5,2,0:0:0:0:
128,56,22908,1,2,0:0:0:0:
128,220,23074,1,2,0:0:0:0:
128,248,23158,1,2,0:0:0:0:
128,275,23241,1,2,0:0:0:0:
299,130,23408,6,0,P|256:228|213:130,1,270.000010299683,4|0,0:0|0:0,0:0:0:0:
256,56,23908,1,0,0:0:0:0:
375,58,24074,5,2,0:0:0:0:
389,75,24158,1,0,0:0:0:0:
404,93,24241,1,0,0:0:0:0:
419,110,24324,1,0,0:0:0:0:
407,134,24408,5,8,0:0:0:0:
421,151,24491,1,0,0:0:0:0:
436,169,24574,1,0,0:0:0:0:
451,186,24658,1,0,0:0:0:0:
497,245,24741,6,0,B|453:235|453:235|409:245,1,90,2|0,0:0|0:0,0:0:0:0:
255,175,25074,2,0,B|299:185|299:185|343:175,1,90,8|0,0:0|0:0,0:0:0:0:
427,91,25408,1,2,0:0:0:0:
427,91,25574,1,0,0:0:0:0:
312,46,25741,5,8,0:0:0:0:
275,73,25824,1,0,0:0:0:0:
238,73,25908,1,0,0:0:0:0:
201,46,25991,1,0,0:0:0:0:
156,36,26074,2,0,L|80:120,1,90,2|0,0:0|0:0,0:0:0:0:
72,244,26408,2,0,B|45:286|45:286|68:333|68:333|108:333|108:333|146:361,1,180,8|2,0:0|0:0,0:0:0:0:
256,272,26908,5,0,0:0:0:0:
256,272,26991,1,0,0:0:0:0:
256,272,27074,1,8,0:0:0:0:
374,355,27241,1,0,0:0:0:0:
312,128,27408,5,2,0:0:0:0:
275,101,27491,1,0,0:0:0:0:
238,101,27574,1,0,0:0:0:0:
201,128,27658,1,0,0:0:0:0:
201,168,27741,1,8,0:0:0:0:
238,195,27824,1,0,0:0:0:0:
275,195,27908,1,0,0:0:0:0:
312,168,27991,1,0,0:0:0:0:
312,128,28074,6,0,L|328:112,1,22.5,8|0,0:0|0:0,0:0:0:0:
200,128,28241,2,0,L|184:112,1,22.5,8|0,0:0|0:0,0:0:0:0:
327,112,28408,2,0,L|343:96,1,22.5,8|0,0:0|0:0,0:0:0:0:
208,36,28574,1,2,0:0:0:0:
208,36,28658,2,0,B|164:36|164:36|132:52|132:52|56:52,1,135,2|2,0:0|0:0,0:0:0:0:
36,192,29074,2,0,B|64:192|64:192|92:180|92:180|136:180,1,90,12|0,0:0|0:0,0:0:0:0:
208,340,29408,5,2,0:0:0:0:
225,327,29491,1,0,0:0:0:0:
245,313,29574,1,0,0:0:0:0:
263,301,29658,1,0,0:0:0:0:
258,274,29741,5,8,0:0:0:0:
276,262,29824,1,0,0:0:0:0:
295,248,29908,1,0,0:0:0:0:
314,236,29991,1,0,0:0:0:0:
376,200,30074,6,0,B|357:212|351:236|351:236|357:260|376:272,1,90,2|0,0:0|0:0,0:0:0:0:
448,136,30408,2,0,B|467:124|473:100|473:100|467:76|448:64,1,90,8|0,0:0|0:0,0:0:0:0:
344,96,30741,1,2,0:0:0:0:
344,96,30908,1,0,0:0:0:0:
220,56,31074,5,8,0:0:0:0:
208,96,31158,1,0,0:0:0:0:
164,96,31241,1,0,0:0:0:0:
176,56,31324,1,0,0:0:0:0:
140,56,31408,2,0,L|68:132,1,90,2|0,0:0|0:0,0:0:0:0:
48,268,31741,6,0,B|48:296|48:296|62:323|62:323|92:333|92:333|122:323|122:323|136:296|136:296|136:268,1,180,8|2,0:0|0:0,0:0:0:0:
256,200,32241,1,0,0:0:0:0:
256,200,32324,1,0,0:0:0:0:
256,200,32408,1,8,0:0:0:0:
376,268,32574,1,0,0:0:0:0:
331,145,32741,5,2,0:0:0:0:
310,129,32824,1,0,0:0:0:0:
289,114,32908,1,0,0:0:0:0:
269,98,32991,1,0,0:0:0:0:
243,98,33074,5,8,0:0:0:0:
223,114,33158,1,0,0:0:0:0:
202,129,33241,1,0,0:0:0:0:
181,145,33324,1,0,0:0:0:0:
163,163,33408,6,0,L|147:179,1,22.5,8|0,0:0|0:0,0:0:0:0:
349,163,33574,2,0,L|365:179,1,22.5,8|0,0:0|0:0,0:0:0:0:
147,178,33741,2,0,L|131:194,1,22.5,8|0,0:0|0:0,0:0:0:0:
352,280,33908,1,8,0:0:0:0:
352,280,33991,6,0,B|295:280|295:280|248:296|248:296|172:296,1,180,2|0,0:0|0:0,0:0:0:0:
72,248,34741,6,0,L|52:160,1,90,2|0,0:0|0:0,0:0:0:0:
184,44,35074,2,0,L|164:132,1,90,2|0,0:0|0:0,0:0:0:0:
440,248,35408,2,0,L|460:160,1,90,2|0,0:0|0:0,0:0:0:0:
328,44,35741,2,0,L|348:132,1,90,2|0,0:0|0:0,0:0:0:0:
368,316,36074,5,2,0:0:0:0:
368,316,36241,1,0,0:0:0:0:
304,220,36408,1,4,0:0:0:0:
304,220,36574,1,0,0:0:0:0:
144,316,36741,1,2,0:0:0:0:
144,316,36908,1,0,0:0:0:0:
208,220,37074,1,2,0:0:0:0:
208,220,37241,1,0,0:0:0:0:
338,108,37408,6,0,B|360:85|360:85|363:76|363:76|369:82|369:82|371:74|371:74|394:51,2,90,2|0|2,0:0|0:0|0:0,0:0:0:0:
174,108,37908,2,0,B|151:85|151:85|148:76|148:76|142:82|142:82|140:74|140:74|117:51,2,90,0|2|0,0:0|0:0|0:0,0:0:0:0:
256,232,38408,2,0,B|255:263|255:263|259:272|259:272|252:272|252:272|255:279|255:279|256:312,2,90,2|0|2,0:0|0:0|0:0,0:0:0:0:
322,60,38908,5,0,0:0:0:0:
190,60,39074,1,2,0:0:0:0:
322,63,39241,5,0,0:0:0:0:
190,63,39408,1,2,0:0:0:0:
322,66,39574,5,0,0:0:0:0:
190,66,39741,1,2,0:0:0:0:
322,69,39908,5,0,0:0:0:0:
184,168,40074,6,0,B|180:186|164:208|164:208|180:230|184:248,1,90,2|0,0:0|0:0,0:0:0:0:
328,168,40408,2,0,B|332:186|348:208|348:208|332:230|328:248,1,90,2|0,0:0|0:0,0:0:0:0:
80,264,40741,2,0,B|76:282|60:304|60:304|76:326|80:344,1,90,2|0,0:0|0:0,0:0:0:0:
432,264,41074,2,0,B|436:282|452:304|452:304|436:326|432:344,1,90,2|0,0:0|0:0,0:0:0:0:
200,92,41408,6,0,B|167:92|167:92|158:96|158:96|158:87|158:87|151:92|151:92|119:92,1,90,2|0,0:0|0:0,0:0:0:0:
312,160,41741,2,0,B|344:160|344:160|353:164|353:164|353:155|353:155|360:160|360:160|392:160,1,90,2|0,0:0|0:0,0:0:0:0:
200,228,42074,2,0,B|167:228|167:228|158:232|158:232|158:223|158:223|151:228|151:228|119:228,1,90,2|0,0:0|0:0,0:0:0:0:
312,300,42408,2,0,B|344:300|344:300|353:304|353:304|353:295|353:295|360:300|360:300|392:300,1,90,2|0,0:0|0:0,0:0:0:0:
328,48,42741,5,2,0:0:0:0:
328,200,42908,1,2,0:0:0:0:
284,68,43074,5,2,0:0:0:0:
284,220,43241,1,2,0:0:0:0:
228,68,43408,5,2,0:0:0:0:
228,220,43574,1,2,0:0:0:0:
184,48,43741,5,2,0:0:0:0:
184,200,43908,1,2,0:0:0:0:
47,165,44074,5,2,0:0:0:0:
56,177,44158,1,2,0:0:0:0:
65,189,44241,1,2,0:0:0:0:
74,201,44324,1,2,0:0:0:0:
84,213,44408,1,2,0:0:0:0:
93,225,44491,1,2,0:0:0:0:
102,237,44574,5,2,0:0:0:0:
111,250,44658,1,2,0:0:0:0:
121,262,44741,1,2,0:0:0:0:
130,274,44824,1,2,0:0:0:0:
139,286,44908,1,2,0:0:0:0:
149,298,44991,1,2,0:0:0:0:
159,311,45074,6,0,P|256:270|353:311,1,216
352,310,45408,1,10,0:0:0:0:
376,140,45574,1,2,0:0:0:0:
256,224,45741,1,2,0:0:0:0:
136,140,45908,1,8,0:0:0:0:
136,140,45991,2,0,B|100:152|88:184|88:184|100:216|136:228,1,135,8|0,0:0|0:0,0:0:0:0:
256,108,46408,5,2,0:0:0:0:
376,228,46574,1,2,0:0:0:0:
256,320,46741,1,2,0:0:0:0:
256,320,46824,1,2,0:0:0:0:
256,320,46908,1,2,0:0:0:0:
136,228,47074,1,2,0:0:0:0:
199,76,47241,1,8,0:0:0:0:
199,76,47324,2,0,B|256:40|256:40|313:76,1,135,8|8,0:0|0:0,0:0:0:0:
300,200,47741,2,0,B|256:210|256:210|212:200,1,90,8|0,0:0|0:0,0:0:0:0:
397,113,48074,5,0,0:0:0:0:
411,242,48241,2,0,P|389:325|306:347,1,180,8|0,0:0|0:0,0:0:0:0:
115,113,48741,1,0,0:0:0:0:
102,241,48908,2,0,P|123:324|206:346,1,180,8|0,0:0|0:0,0:0:0:0:
256,88,49408,2,0,B|256:165|256:165|260:173|260:173|252:173|252:173|256:181|256:181|256:258,1,180,6|0,0:0|0:0,0:0:0:0:
416,256,50074,6,0,L|451:284,3,45
372,182,50408,2,0,L|336:210,3,45
374,103,50741,5,2,0:0:0:0:
138,103,50908,1,2,0:0:0:0:
336,209,51074,1,2,0:0:0:0:
176,209,51241,1,8,0:0:0:0:
176,209,51324,2,0,B|176:285|140:249|140:353,1,135,8|0,0:0|0:0,0:0:0:0:
256,252,51741,5,2,0:0:0:0:
372,336,51908,1,2,0:0:0:0:
316,112,52074,1,2,0:0:0:0:
316,112,52158,1,2,0:0:0:0:
316,112,52241,1,2,0:0:0:0:
256,252,52408,1,2,0:0:0:0:
196,112,52574,1,8,0:0:0:0:
196,112,52658,2,0,B|172:158|172:158|163:164|163:164|172:168|172:168|164:174|164:174|140:220,1,135,8|8,0:0|0:0,0:0:0:0:
320,192,53074,2,0,B|337:218|337:218|345:224|345:224|338:229|338:229|346:232|346:232|363:259,1,90,8|0,0:0|0:0,0:0:0:0:
420,132,53408,5,0,0:0:0:0:
440,252,53574,2,0,B|376:272|380:336|380:336|312:360,1,180,8|0,0:0|0:0,0:0:0:0:
92,132,54074,1,0,0:0:0:0:
72,252,54241,2,0,B|136:272|132:336|132:336|200:360,1,180,8|0,0:0|0:0,0:0:0:0:
304,236,54741,6,0,L|328:172,1,67.5000025749208,8|0,0:0|0:0,0:0:0:0:
208,236,54908,2,0,L|184:172,1,67.5000025749208
320,152,55074,2,0,L|351:68,1,67.5000025749208
195,152,55241,2,0,L|163:68,1,67.5000025749208
256,43,55408,1,0,0:0:0:0:
256,43,55741,5,2,0:0:0:0:
256,80,55824,1,2,0:0:0:0:
256,116,55908,1,2,0:0:0:0:
256,152,55991,1,2,0:0:0:0:
297,209,56074,2,0,P|255:195|213:209,1,90,2|0,0:0|0:0,0:0:0:0:
224,292,56408,2,0,P|182:278|140:292,1,90,8|0,0:0|0:0,0:0:0:0:
135,375,56741,2,0,P|93:361|51:375,1,90,2|0,0:0|0:0,0:0:0:0:
44,216,57074,5,8,0:0:0:0:
140,292,57241,1,0,0:0:0:0:
172,157,57408,2,0,P|214:171|256:157,1,90,2|0,0:0|0:0,0:0:0:0:
350,63,57741,5,2,0:0:0:0:
379,38,57824,1,2,0:0:0:0:
348,39,57908,1,2,0:0:0:0:
378,66,57991,2,0,B|398:104|448:108|448:108|448:179,1,135,8|0,0:0|0:0,0:0:0:0:
413,321,58408,5,2,0:0:0:0:
354,221,58574,1,2,0:0:0:0:
296,315,58741,2,0,B|278:311|256:295|256:295|234:311|216:315,1,90,8|4,0:0|0:0,0:0:0:0:
174,234,59074,2,0,B|156:230|134:214|134:214|112:230|94:234,1,90,2|0,0:0|0:0,0:0:0:0:
40,156,59408,1,8,0:0:0:0:
88,40,59574,1,2,0:0:0:0:
134,170,59741,1,2,0:0:0:0:
188,34,59908,1,2,0:0:0:0:
297,111,60074,6,0,P|255:217|213:110,1,292.5,4|0,0:0|0:0,0:0:0:0:
299,111,61241,5,2,0:0:0:0:
305,116,61324,1,2,0:0:0:0:
311,122,61408,1,2,0:0:0:0:
216,188,61574,1,2,0:0:0:0:
210,193,61658,1,2,0:0:0:0:
204,199,61741,1,2,0:0:0:0:
296,270,61908,1,2,0:0:0:0:
302,275,61991,1,2,0:0:0:0:
308,281,62074,1,2,0:0:0:0:
217,352,62241,1,2,0:0:0:0:
211,357,62324,1,2,0:0:0:0:
205,363,62408,5,2,0:0:0:0:
400,343,62574,1,2,0:0:0:0:
357,188,62741,1,2,0:0:0:0:
155,188,62908,1,2,0:0:0:0:
112,343,63074,1,2,0:0:0:0:
306,306,63241,6,0,P|256:245|206:306,1,180,2|0,0:0|0:0,0:0:0:0:
256,224,63741,6,0,B|272:200|272:200|252:184|252:184|272:168|272:168|252:152|252:152|272:132|272:132|252:112|252:112|272:96|272:96|248:78|248:78|272:64|272:64|256:48|256:48|263:30,1,270,4|0,0:0|0:0,0:0:0:0:
214,107,64074,6,0,P|256:121|298:107,1,90,2|0,0:0|0:0,0:0:0:0:
463,192,64408,2,0,P|421:178|379:192,1,90,8|0,0:0|0:0,0:0:0:0:
215,277,64741,2,0,P|256:290|298:277,1,90,2|0,0:0|0:0,0:0:0:0:
379,192,65074,1,8,0:0:0:0:
256,136,65241,1,0,0:0:0:0:
133,192,65408,2,0,B|133:284|133:284|133:328|177:360,1,180,2|8,0:0|0:0,0:0:0:0:
293,209,65908,5,0,0:0:0:0:
293,209,65991,1,4,0:0:0:0:
293,209,66074,2,0,B|307:192|335:192|335:192|379:192,1,90,2|0,0:0|0:0,0:0:0:0:
216,136,66408,2,0,B|202:119|174:119|174:119|130:119,1,90,8|0,0:0|0:0,0:0:0:0:
256,276,66741,5,2,0:0:0:0:
348,340,66908,1,2,0:0:0:0:
436,276,67074,2,0,P|407:242|363:232,1,90,4|0,0:0|0:0,0:0:0:0:
256,276,67408,1,2,0:0:0:0:
164,340,67574,1,2,0:0:0:0:
76,275,67741,2,0,P|104:242|147:232,1,90,8|0,0:0|0:0,0:0:0:0:
336,124,68074,5,8,0:0:0:0:
256,276,68241,1,8,0:0:0:0:
176,124,68408,1,8,0:0:0:0:
364,232,68574,1,8,0:0:0:0:
256,56,68741,1,8,0:0:0:0:
148,232,68908,1,8,0:0:0:0:
336,124,69074,1,8,0:0:0:0:
256,276,69241,1,8,0:0:0:0:
72,168,69408,6,0,P|148:127|224:168,1,180,4|0,0:0|0:0,0:0:0:0:
328,216,69908,1,2,0:0:0:0:
296,308,70074,2,0,B|278:312|256:328|256:328|234:312|216:308,1,90,2|2,0:0|0:0,0:0:0:0:
328,216,70408,2,0,B|346:212|368:196|368:196|390:212|408:216,1,90,2|2,0:0|0:0,0:0:0:0:
256,108,70741,2,0,B|172:108|172:164|84:164,1,180,8|0,0:0|0:0,0:0:0:0:
328,216,71241,5,8,0:0:0:0:
328,216,71324,1,0,0:0:0:0:
328,216,71408,2,0,L|300:304,1,90,8|8,0:0|0:0,0:0:0:0:
184,216,71741,2,0,L|212:304,1,90,8|0,0:0|0:0,0:0:0:0:
256,108,72074,5,2,0:0:0:0:
256,108,72241,1,2,0:0:0:0:
440,252,72408,1,2,0:0:0:0:
412,268,72491,1,2,0:0:0:0:
382,282,72574,1,2,0:0:0:0:
256,108,72741,5,2,0:0:0:0:
256,108,72908,1,2,0:0:0:0:
352,292,73074,1,2,0:0:0:0:
320,300,73158,1,2,0:0:0:0:
288,305,73241,1,2,0:0:0:0:
256,108,73408,5,2,0:0:0:0:
256,108,73574,1,2,0:0:0:0:
256,307,73741,1,2,0:0:0:0:
224,306,73824,1,2,0:0:0:0:
191,302,73908,1,2,0:0:0:0:
256,108,74074,5,6,0:0:0:0:
256,108,74241,1,2,0:0:0:0:
160,295,74408,1,2,0:0:0:0:
129,285,74491,1,2,0:0:0:0:
99,273,74574,1,2,0:0:0:0:
64,88,74741,6,0,B|102:64|102:64|140:88,1,90,2|0,0:0|0:0,0:0:0:0:
256,108,75074,2,0,B|272:151|272:151|256:192,1,90,8|0,0:0|0:0,0:0:0:0:
160,295,75408,2,0,B|198:319|198:319|236:295,1,90,2|0,0:0|0:0,0:0:0:0:
356,326,75741,1,8,0:0:0:0:
405,211,75908,1,0,0:0:0:0:
341,104,76074,2,0,B|288:104|271:97|256:36|241:97|224:104|170:104,1,180,2|8,0:0|0:0,0:0:0:0:
314,241,76574,5,0,0:0:0:0:
314,241,76658,1,0,0:0:0:0:
314,241,76741,2,0,B|331:283|331:283|372:301,1,90,2|0,0:0|0:0,0:0:0:0:
198,241,77074,2,0,B|180:283|180:283|139:301,1,90,8|0,0:0|0:0,0:0:0:0:
428,92,77408,5,2,0:0:0:0:
404,204,77574,1,2,0:0:0:0:
324,132,77741,2,0,B|320:114|304:92|304:92|320:70|324:52,1,90,4|0,0:0|0:0,0:0:0:0:
84,92,78074,1,2,0:0:0:0:
108,204,78241,1,2,0:0:0:0:
188,132,78408,2,0,B|192:114|208:92|208:92|192:70|188:52,1,90,8|0,0:0|0:0,0:0:0:0:
256,292,78741,5,8,0:0:0:0:
324,132,78908,1,8,0:0:0:0:
188,132,79074,1,8,0:0:0:0:
344,320,79241,1,8,0:0:0:0:
256,172,79408,1,8,0:0:0:0:
168,320,79574,1,8,0:0:0:0:
336,223,79741,1,8,0:0:0:0:
256,80,79908,1,8,0:0:0:0:
176,223,80074,6,0,B|231:203|256:242|256:242|281:203|336:223,1,180,4|0,0:0|0:0,0:0:0:0:
440,168,80574,1,2,0:0:0:0:
392,64,80741,2,0,P|352:83|332:123,1,90,2|2,0:0|0:0,0:0:0:0:
120,64,81074,2,0,P|159:83|179:123,1,90,2|2,0:0|0:0,0:0:0:0:
256,276,81408,2,0,B|256:199|256:199|260:191|260:191|252:191|252:191|256:183|256:183|256:106,1,180,8|4,0:0|0:0,0:0:0:0:
328,244,81908,5,8,0:0:0:0:
328,244,81991,1,0,0:0:0:0:
328,244,82074,2,0,B|347:256|353:280|353:280|347:304|328:316,1,90,8|8,0:0|0:0,0:0:0:0:
184,244,82408,2,0,B|165:256|159:280|159:280|165:304|184:316,1,90,8|0,0:0|0:0,0:0:0:0:
256,80,82741,5,2,0:0:0:0:
256,80,82908,1,2,0:0:0:0:
336,276,83074,1,8,0:0:0:0:
358,298,83158,1,0,0:0:0:0:
381,321,83241,1,0,0:0:0:0:
256,80,83408,5,2,0:0:0:0:
256,80,83574,1,2,0:0:0:0:
176,276,83741,1,4,0:0:0:0:
154,298,83824,1,0,0:0:0:0:
131,321,83908,1,0,0:0:0:0:
256,80,84074,5,2,0:0:0:0:
256,80,84241,1,2,0:0:0:0:
384,192,84408,1,8,0:0:0:0:
415,192,84491,1,0,0:0:0:0:
447,192,84574,1,0,0:0:0:0:
256,80,84741,5,2,0:0:0:0:
256,80,84908,1,2,0:0:0:0:
128,192,85074,1,4,0:0:0:0:
97,192,85158,1,0,0:0:0:0:
65,192,85241,1,0,0:0:0:0:
447,192,85408,1,0,0:0:0:0:
