osu file format v14

[General]
AudioFilename: audio.mp3
AudioLeadIn: 0
PreviewTime: 45408
Countdown: 0
SampleSet: Soft
StackLeniency: 0.2
Mode: 0
LetterboxInBreaks: 0
WidescreenStoryboard: 1

[Editor]
Bookmarks: 2741,5408,8074,12741,13408,18741,23408,34074,36408,39741,42741,44741,45074,45408,48074,54741,56074,60074,61408,64074,66741,72074,74741,77408,80074,82741,85408,91691
DistanceSpacing: 1.1
BeatDivisor: 4
GridSize: 4
TimelineZoom: 2.999999

[Metadata]
Title:Saiyajin
TitleUnicode:Saiyajin
Artist:Thaehan
ArtistUnicode:Thaehan
Creator:Kotori-Chan
Version:Easy
Source:
Tags:Power Up Dragon ball ドラゴンボール remix Featured Artist electronic Gero HikariBuru Lazer
BeatmapID:1464635
BeatmapSetID:684577

[Difficulty]
HPDrainRate:2
CircleSize:3
OverallDifficulty:2
ApproachRate:3
SliderMultiplier:0.800000005960464
SliderTickRate:2

[Events]
//Background and Video events
0,0,"thumb-1920-564835.jpg",0,0
//Break Periods
//Storyboard Layer 0 (Background)
//Storyboard Layer 1 (Fail)
//Storyboard Layer 2 (Pass)
//Storyboard Layer 3 (Foreground)
//Storyboard Sound Samples

[TimingPoints]
75,333.333333333333,4,2,1,55,1,0
2074,-100,4,2,2,45,0,0
2741,-100,4,2,99,55,0,0
5408,-100,4,2,1,55,0,0
6741,-100,4,2,2,45,0,0
7741,-100,4,2,1,55,0,0
8074,-100,4,2,90,75,0,0
8741,-100,4,2,1,55,0,0
10074,-100,4,2,2,45,0,0
10741,-100,4,2,99,55,0,0
13741,-100,4,2,33,55,0,0
13908,-100,4,2,99,55,0,0
16074,-100,4,2,1,55,0,0
17408,-100,4,2,2,45,0,0
18408,-100,4,2,1,55,0,0
18741,-100,4,2,99,55,0,0
19408,-100,4,2,1,55,0,0
20741,-100,4,2,2,45,0,0
21408,-100,4,2,99,55,0,0
23408,-100,4,2,90,75,0,0
23908,-100,4,2,99,55,0,0
24408,-100,4,2,33,55,0,0
24491,-100,4,2,99,55,0,0
27074,-100,4,2,33,55,0,0
27241,-100,4,2,99,55,0,0
28074,-100,4,2,90,55,0,0
29074,-100,4,2,30,55,0,0
29408,-100,4,2,99,55,0,0
29741,-100,4,2,33,55,0,0
29908,-100,4,2,99,55,0,0
32408,-100,4,2,33,55,0,0
32574,-100,4,2,99,55,0,0
33408,-100,4,2,90,55,0,0
34074,-100,4,2,81,55,0,0
34741,-166.666666666667,4,2,99,55,0,0
36408,-100,4,2,80,100,0,0
36449,-100,4,2,99,55,0,0
44741,-100,4,2,5,55,0,0
45408,-100,4,2,1,55,0,1
45908,-100,4,2,2,45,0,1
46408,-100,4,2,1,55,0,1
47241,-100,4,2,2,45,0,1
48074,-100,4,2,1,45,0,1
49408,-100,4,2,60,55,0,1
50741,-100,4,2,1,55,0,1
51241,-100,4,2,2,45,0,1
51741,-100,4,2,1,55,0,1
52574,-100,4,2,2,45,0,1
53408,-100,4,2,1,55,0,1
54741,-66.6666666666667,4,2,10,55,0,1
55741,-100,4,2,99,55,0,1
58908,-100,4,2,13,55,0,1
59074,-100,4,2,99,55,0,1
60074,-100,4,2,81,80,0,1
61408,-100,4,2,5,55,0,1
63741,-50,4,2,77,55,0,1
64074,-100,4,2,99,55,0,0
64408,-100,4,2,33,55,0,0
64574,-100,4,2,99,55,0,0
65991,-100,4,2,45,45,0,0
66074,-100,4,2,99,55,0,0
66741,-100,4,2,1,55,0,0
68074,-100,4,2,2,45,0,0
69074,-100,4,2,1,55,0,0
69408,-100,4,2,90,75,0,0
70074,-100,4,2,1,55,0,0
71408,-100,4,2,2,45,0,0
72074,-100,4,2,99,55,0,0
77408,-100,4,2,1,55,0,0
78741,-100,4,2,2,45,0,0
79741,-100,4,2,1,55,0,0
80074,-100,4,2,99,55,0,0
80741,-100,4,2,1,55,0,0
82074,-100,4,2,2,45,0,0
82741,-100,4,2,1,55,0,0
85691,666.666666666667,4,2,1,70,1,0
88357,-200,4,2,1,70,0,0

[Colours]
Combo1 : 0,128,64
Combo2 : 255,128,64
Combo3 : 0,0,255
Combo4 : 128,0,255

[HitObjects]
203,89,75,6,0,P|256:113|309:89,1,120.00000089407,2|2,0:0|0:0,0:0:0:0:
393,63,908,1,2,0:0:0:0:
445,133,1241,2,0,L|364:231,1,120.00000089407,8|2,0:0|0:0,0:0:0:0:
336,308,2074,1,8,0:0:0:0:
164,340,2741,6,0,P|174:302|163:264,1,80.0000005960464,2|8,0:0|0:0,0:0:0:0:
76,247,3408,2,0,P|66:209|77:171,1,80.0000005960464,2|8,0:0|0:0,0:0:0:0:
116,91,4074,2,0,B|150:112|150:112|184:91,1,80.0000005960464,2|8,0:0|0:0,0:0:0:0:
257,142,4741,1,2,0:0:0:0:
329,90,5074,1,8,0:0:0:0:
416,112,5408,6,0,L|480:48,2,80.0000005960464,2|2|2,0:0|0:0|0:0,0:0:0:0:
384,192,6408,1,8,0:0:0:0:
416,272,6741,2,0,L|480:336,2,80.0000005960464,8|8|8,0:0|0:0|0:0,0:0:0:0:
328,260,7741,1,8,0:0:0:0:
256,312,8074,6,0,B|192:312|192:312|160:296|160:296|96:296,1,160.000001192093,4|2,0:0|0:0,0:0:0:0:
44,228,9074,1,2,0:0:0:0:
100,160,9408,2,0,B|128:160|128:160|156:168|156:168|188:168,1,80.0000005960464,4|2,0:0|0:0,0:0:0:0:
256,208,10074,1,8,0:0:0:0:
334,168,10408,1,8,0:0:0:0:
371,88,10741,6,0,P|409:77|447:88,1,80.0000005960464,2|2,0:0|0:0,0:0:0:0:
469,173,11408,2,0,P|458:211|469:249,1,80.0000005960464,2|2,0:0|0:0,0:0:0:0:
445,333,12074,2,0,P|407:322|369:333,1,80.0000005960464,2|2,0:0|0:0,0:0:0:0:
294,285,12741,2,0,P|256:274|218:285,1,80.0000005960464,6|2,0:0|0:0,0:0:0:0:
179,205,13408,6,0,P|256:186|333:205,1,160.000001192093,2|2,0:0|0:0,0:0:0:0:
393,268,14408,1,8,0:0:0:0:
455,205,14741,2,0,B|466:192|466:192|466:146|466:146|455:133,1,80.0000005960464,2|8,0:0|0:0,0:0:0:0:
368,114,15408,1,2,0:0:0:0:
294,66,15741,1,8,0:0:0:0:
208,84,16074,6,0,B|186:77|174:64|174:64|162:77|140:84,2,80.0000005960464,2|2|2,0:0|0:0|0:0,0:0:0:0:
256,160,17074,1,4,0:0:0:0:
304,232,17408,2,0,B|326:239|338:252|338:252|350:239|372:232,2,80.0000005960464,8|8|8,0:0|0:0|0:0,0:0:0:0:
256,304,18408,1,8,0:0:0:0:
208,232,18741,6,0,B|158:219|120:256|120:256|84:196,1,160.000001192093,4|2,0:0|0:0,0:0:0:0:
28,135,19741,1,2,0:0:0:0:
84,67,20074,2,0,L|161:87,1,80.0000005960464,4|2,0:0|0:0,0:0:0:0:
235,135,20741,1,8,0:0:0:0:
319,110,21074,1,8,0:0:0:0:
401,78,21408,6,0,B|380:112|380:112|401:146,1,80.0000005960464,2|2,0:0|0:0,0:0:0:0:
439,225,22074,2,0,B|405:246|405:246|371:225,1,80.0000005960464,2|2,0:0|0:0,0:0:0:0:
290,189,22741,2,0,B|256:168|256:168|222:189,1,80.0000005960464,2|2,0:0|0:0,0:0:0:0:
185,269,23408,2,0,P|154:290|125:267,1,80.0000005960464,4|0,0:0|0:0,0:0:0:0:
63,205,24074,6,0,B|63:124|63:124|63:72|31:52,1,160.000001192093,2|2,0:0|0:0,0:0:0:0:
111,94,25074,1,8,0:0:0:0:
187,138,25408,2,0,B|209:145|221:158|221:158|233:145|255:138,1,80.0000005960464,2|8,0:0|0:0,0:0:0:0:
326,86,26074,2,0,B|348:79|360:66|360:66|372:79|394:86,1,80.0000005960464,2|8,0:0|0:0,0:0:0:0:
482,78,26741,2,0,P|441:142|482:206,1,160.000001192093,2|2,0:0|0:0,0:0:0:0:
445,286,27741,1,8,0:0:0:0:
364,320,28074,2,0,B|323:320|323:320|291:344,2,80.0000005960464,8|8|8,0:0|0:0|0:0,0:0:0:0:
364,231,29074,1,8,0:0:0:0:
321,153,29408,6,0,B|272:159|256:193|256:193|240:159|191:153,1,160.000001192093,2|2,0:0|0:0,0:0:0:0:
147,76,30408,1,8,0:0:0:0:
62,101,30741,2,0,P|51:138|62:176,1,80.0000005960464,2|8,0:0|0:0,0:0:0:0:
116,246,31408,2,0,P|126:283|115:321,1,80.0000005960464,2|8,0:0|0:0,0:0:0:0:
202,339,32074,2,0,B|224:296|256:282|256:282|288:296|310:339,1,160.000001192093,2|2,0:0|0:0,0:0:0:0:
396,321,33074,1,8,0:0:0:0:
422,236,33408,2,0,B|463:236|463:236|495:212,2,80.0000005960464,8|8|2,0:0|0:0|0:0,0:0:0:0:
362,148,34741,6,0,B|310:148|310:148|254:44|254:44|198:148|198:148|62:148|62:148|190:236|190:236|106:368|106:368|254:284|254:284|402:368|402:368|318:236|318:236|446:148|446:148|386:148,1,1439.99996678352,0|2,0:0|0:0,0:0:0:0:
306,142,45074,5,2,0:0:0:0:
256,214,45408,2,0,B|256:241|256:241|260:249|260:249|252:249|252:249|256:257|256:257|256:284,1,80.0000005960464,2|2,0:0|0:0,0:0:0:0:
192,345,46074,1,8,0:0:0:0:
105,328,46408,1,2,0:0:0:0:
39,269,46741,2,0,B|39:242|39:242|43:234|43:234|35:234|35:234|39:226|39:226|39:199,1,80.0000005960464,8|2,0:0|0:0,0:0:0:0:
83,122,47408,1,8,0:0:0:0:
155,72,47742,1,8,0:0:0:0:
199,149,48074,2,0,P|256:196|313:149,2,160.000001192093,8|8|4,0:0|0:0|0:0,0:0:0:0:
44,228,50074,6,0,B|60:244|60:244|72:267|72:267|94:290,1,80.0000005960464
172,332,50741,2,0,B|194:325|206:312|206:312|218:325|240:332,1,80.0000005960464,2|2,0:0|0:0,0:0:0:0:
316,288,51408,1,8,0:0:0:0:
392,332,51741,1,4,0:0:0:0:
464,280,52074,2,0,B|471:258|484:246|484:246|471:234|464:212,1,80.0000005960464,2|2,0:0|0:0,0:0:0:0:
439,127,52741,1,8,0:0:0:0:
370,182,53074,1,8,0:0:0:0:
329,103,53408,2,0,B|297:81|297:81|215:81|215:81|183:103,2,160.000001192093,8|8|0,0:0|0:0|0:0,0:0:0:0:
450,337,55741,5,2,0:0:0:0:
384,278,56074,2,0,B|350:257|350:257|316:278,2,80.0000005960464,2|8|2,0:0|0:0|0:0,0:0:0:0:
450,219,57074,1,8,0:0:0:0:
409,140,57408,2,0,L|319:140,1,80.0000005960464,2|8,0:0|0:0,0:0:0:0:
243,121,58074,1,2,0:0:0:0:
180,58,58408,1,8,0:0:0:0:
109,111,58741,2,0,B|68:111|68:111|33:137,2,80.0000005960464,2|8|2,0:0|0:0|0:0,0:0:0:0:
147,190,59741,1,2,0:0:0:0:
127,274,60074,6,0,P|255:355|384:275,1,320.000002384186,4|2,0:0|0:0,0:0:0:0:
365,190,61741,1,2,0:0:0:0:
301,128,62074,1,2,0:0:0:0:
211,128,62408,1,2,0:0:0:0:
147,190,62741,2,0,P|88:200|29:190,1,120.00000089407,2|0,0:0|0:0,0:0:0:0:
220,80,64074,6,0,B|268:80|268:80|304:100|304:100|376:100,1,160.000001192093,2|2,0:0|0:0,0:0:0:0:
453,140,65074,1,8,0:0:0:0:
418,221,65408,2,0,L|322:260,1,80.0000005960464,2|8,0:0|0:0,0:0:0:0:
256,259,66074,2,0,L|256:163,1,80.0000005960464,2|8,0:0|0:0,0:0:0:0:
195,113,66741,6,0,L|120:82,2,80.0000005960464,2|2|2,0:0|0:0|0:0,0:0:0:0:
256,179,67741,1,8,0:0:0:0:
317,114,68074,2,0,L|392:83,2,80.0000005960464,8|8|8,0:0|0:0|0:0,0:0:0:0:
256,179,69074,1,4,0:0:0:0:
187,234,69408,6,0,P|256:268|324:234,1,160.000001192093,4|2,0:0|0:0,0:0:0:0:
387,171,70408,1,2,0:0:0:0:
444,236,70741,2,0,B|416:266|416:266|416:316,1,80.0000005960464,4|2,0:0|0:0,0:0:0:0:
343,354,71408,1,8,0:0:0:0:
256,368,71741,1,8,0:0:0:0:
169,354,72074,6,0,B|135:333|135:333|101:354,1,80.0000005960464,2|2,0:0|0:0,0:0:0:0:
51,280,72741,2,0,B|72:246|72:246|51:212,1,80.0000005960464,2|2,0:0|0:0,0:0:0:0:
84,130,73408,2,0,B|118:151|118:151|152:130,1,80.0000005960464,2|2,0:0|0:0,0:0:0:0:
222,76,74074,2,0,B|256:55|256:55|290:76,1,80.0000005960464,6|2,0:0|0:0,0:0:0:0:
372,112,74741,6,0,B|372:192|372:192|372:236|404:268,1,160.000001192093,2|2,0:0|0:0,0:0:0:0:
351,338,75741,1,8,0:0:0:0:
290,274,76074,2,0,B|256:253|256:253|222:274,1,80.0000005960464,2|8,0:0|0:0,0:0:0:0:
161,338,76741,1,2,0:0:0:0:
88,288,77074,1,8,0:0:0:0:
67,202,77408,6,0,L|68:111,2,80.0000005960464,2|2|2,0:0|0:0|0:0,0:0:0:0:
152,223,78408,1,8,0:0:0:0:
235,251,78741,2,0,L|236:342,2,80.0000005960464,8|8|8,0:0|0:0|0:0,0:0:0:0:
255,165,79741,1,4,0:0:0:0:
277,80,80074,6,0,B|349:115|349:115|421:80,1,160.000001192093,6|2,0:0|0:0,0:0:0:0:
479,145,81074,1,2,0:0:0:0:
411,201,81408,2,0,P|400:239|411:277,1,80.0000005960464,8|2,0:0|0:0,0:0:0:0:
334,320,82074,1,8,0:0:0:0:
256,276,82408,1,8,0:0:0:0:
178,320,82741,6,0,B|156:327|144:340|144:340|132:327|110:320,1,80.0000005960464,2|8,0:0|0:0,0:0:0:0:
76,240,83408,2,0,B|98:233|110:220|110:220|122:233|144:240,1,80.0000005960464,2|4,0:0|0:0,0:0:0:0:
222,193,84074,2,0,B|244:186|256:173|256:173|268:186|290:193,1,80.0000005960464,2|8,0:0|0:0,0:0:0:0:
361,141,84741,2,0,B|383:134|395:121|395:121|407:134|429:141,1,80.0000005960464,2|4,0:0|0:0,0:0:0:0:
490,204,85408,1,0,0:0:0:0:
