osu file format v14

[General]
AudioFilename: audio.mp3
AudioLeadIn: 0
PreviewTime:64069
Countdown: 0
SampleSet: Soft
StackLeniency: 0.2
Mode: 0
LetterboxInBreaks: 0
WidescreenStoryboard: 1

[Editor]
Bookmarks:2746,24079,34746,35413,45413,54079,54746,74746
DistanceSpacing: 1
BeatDivisor: 4
GridSize: 4
TimelineZoom: 1.700006

[Metadata]
Title:Saiyajin
TitleUnicode:Saiyajin
Artist:Thaehan
ArtistUnicode:Thaehan
Creator:-Kemsyt
Version:Easy
Source:osu!
Tags:power up osu featured artist fa loki electronic instrumental
BeatmapID:2326214
BeatmapSetID:1065458

[Difficulty]
HPDrainRate:1
CircleSize:2.5
OverallDifficulty:1
ApproachRate:2
SliderMultiplier:0.6
SliderTickRate:1

[Events]
//Background and Video events
0,0,"dbyk6gw-e82b47ba-b4ee-4d5a-a1fe-d6ba4c8c9727.png"
//Break Periods
//Storyboard Layer 0 (Background)
//Storyboard Layer 1 (Fail)
//Storyboard Layer 2 (Pass)
//Storyboard Layer 3 (Foreground)
//Storyboard Layer 4 (Overlay)
//Storyboard Sound Samples

[TimingPoints]
60,333.333333333333,4,2,1,80,1,0
15643,-100,4,2,1,5,0,0
15726,-100,4,2,1,80,0,0
15976,-100,4,2,1,5,0,0
16059,-100,4,2,1,80,0,0
26643,-100,4,2,1,5,0,0
26726,-100,4,2,1,80,0,0
29143,-100,4,2,1,5,0,0
29226,-100,4,2,1,80,0,0
29309,-100,4,2,1,5,0,0
29393,-100,4,2,1,80,0,0
31976,-100,4,2,1,5,0,0
32059,-100,4,2,1,80,0,0
34643,-100,4,2,1,5,0,0
34726,-133.333333333333,4,2,1,60,0,0
44059,-133.333333333333,4,3,1,60,0,0
45393,-100,4,2,1,80,0,0
54726,-100,4,2,2,100,0,0
55726,-100,4,2,1,80,0,0
56059,-100,4,2,1,80,0,0
62726,-100,4,2,3,80,0,0
63226,-133.333333333333,4,2,3,80,0,0
63643,-133.333333333333,4,2,1,5,0,0
63726,-66.6666666666667,4,2,1,80,0,0
63976,-66.6666666666667,4,2,1,5,0,0
64059,-100,4,2,1,80,0,0
76976,-100,4,2,1,5,0,0
77059,-100,4,2,1,80,0,0
77309,-100,4,2,1,5,0,0
77393,-100,4,2,1,80,0,0
84059,-100,4,2,1,50,0,0
84726,-100,4,2,1,30,0,0
85393,-100,4,2,1,80,0,0
85676,666.666666666667,4,2,1,80,1,0

[Colours]
Combo1 : 217,248,182
Combo2 : 128,128,255
Combo3 : 0,101,202
Combo4 : 106,208,132

[HitObjects]
124,78,2726,6,0,B|159:122|119:192|119:192|86:251|114:304,1,240,6|2,0:0|1:2,0:0:0:0:
223,254,4726,1,2,1:2:0:0:
329,310,5393,6,0,P|388:323|454:307,1,120,2|2,1:2|1:2,0:0:0:0:
510,210,6726,2,0,P|451:197|393:208,1,120,2|2,1:2|1:2,0:0:0:0:
274,191,8059,6,0,B|312:121|270:54|270:54|230:84|180:75,1,240,6|2,1:2|1:2,0:0:0:0:
61,51,10059,1,2,1:2:0:0:
114,158,10726,6,0,L|97:285,1,120,2|2,0:0|0:0,0:0:0:0:
194,348,12059,2,0,L|209:229,1,120,2|2,0:0|0:0,0:0:0:0:
227,110,13393,6,0,B|283:88|283:88|388:139|388:139|455:116,1,240,6|2,0:2|1:2,0:0:0:0:
504,224,15393,1,2,1:2:0:0:
396,277,16059,6,0,L|281:323,1,120,2|2,1:2|1:2,0:0:0:0:
184,254,17393,2,0,L|295:209,1,120,2|2,1:2|1:2,0:0:0:0:
358,107,18726,6,0,B|368:70|368:70|350:43|350:43|278:32|278:82|176:54,1,240,6|2,1:2|1:2,0:0:0:0:
68,23,20726,1,2,1:2:0:0:
110,135,21393,6,0,P|116:194|93:256,1,120,2|2,0:0|0:0,0:0:0:0:
200,311,22726,2,0,P|194:252|217:190,1,120,2|2,0:0|0:0,0:0:0:0:
311,265,24059,6,0,B|357:275|402:258|402:258|416:217|416:217|395:163|395:163|405:113,1,240,6|2,0:0|1:2,0:0:0:0:
481,26,26059,1,2,1:2:0:0:
361,39,26726,6,0,B|316:39|316:39|286:48|286:48|235:48,1,120,2|2,1:2|1:2,0:0:0:0:
138,109,28059,6,0,B|111:109|111:109|94:114|94:114|64:114,2,60,2|2|2,0:0|0:0|0:0,0:0:0:0:
257,122,29393,6,0,B|290:173|290:173|303:231|291:292|291:292|255:338,1,240,6|2,1:2|1:2,0:0:0:0:
201,231,31393,1,2,1:2:0:0:
102,300,32059,6,0,P|78:245|87:185,1,120,2|2,1:2|1:2,0:0:0:0:
182,115,33393,2,0,L|287:108,1,105,4|4,0:3|0:3,0:0:0:0:
334,197,34726,6,0,B|377:221|423:206|423:206|463:164|511:182,2,180.000006866455,2|2|2,0:0|0:0|0:0,0:0:0:0:
274,128,38059,1,2,0:0:0:0:
235,209,38726,2,0,B|192:221|192:221|144:209,1,90.0000034332277,2|2,0:0|0:0,0:0:0:0:
77,153,40059,6,0,P|71:108|83:65,2,90.0000034332277,2|2|2,0:0|0:0|0:0,0:0:0:0:
159,117,42059,2,0,L|257:112,1,90.0000034332277,2|2,0:0|0:0,0:0:0:0:
328,70,43393,1,2,0:0:0:0:
336,159,44059,6,0,B|368:209|432:206|432:206|436:275,1,180.000006866455,4|6,0:0|0:2,0:0:0:0:
341,347,46059,1,0,0:0:0:0:
237,285,46726,6,0,B|177:279|177:279|111:286,1,120,2|0,1:2|0:0,0:0:0:0:
27,206,48059,2,0,L|23:83,2,120,2|2|2,1:2|1:2|1:2,0:0:0:0:
136,156,50059,1,2,0:0:0:0:
246,202,50726,6,0,B|306:186|306:221|370:201,1,120,6|0,0:0|0:0,0:0:0:0:
466,140,52059,2,0,B|450:198|450:198|475:258,1,120,2|0,1:2|0:0,0:0:0:0:
380,329,53393,6,0,L|330:214,2,120,2|2|8,1:2|1:2|0:0,0:0:0:0:
140,318,56059,6,0,P|160:258|138:200,1,120,6|2,0:2|1:2,0:0:0:0:
23,193,57393,2,0,L|10:309,1,105,2|2,1:2|0:0,0:0:0:0:
143,269,58726,6,0,B|184:250|227:267|227:267|269:284|320:271,1,180,2|10,1:2|0:0,0:0:0:0:
363,230,60059,2,0,P|355:288|381:341,2,120,2|2|10,0:0|0:0|0:2,0:0:0:0:
455,153,62059,5,10,0:2:0:0:
359,80,62726,2,0,P|332:70|314:42,1,60,2|2,1:1|1:1,0:0:0:0:
173,145,64059,6,0,B|128:169|80:147|80:147|60:209|105:210|76:292,1,240,6|2,0:2|1:2,0:0:0:0:
189,330,66059,1,2,1:2:0:0:
295,274,66726,6,0,L|415:270,1,120,2|2,1:2|1:2,0:0:0:0:
470,163,68059,2,0,L|350:159,1,120,2|2,1:2|1:2,0:0:0:0:
249,92,69393,6,0,P|140:76|100:183,1,240,6|2,1:2|1:2,0:0:0:0:
147,290,71393,1,2,1:2:0:0:
247,224,72059,6,0,P|306:211|363:226,1,120,2|2,0:0|0:0,0:0:0:0:
425,328,73393,2,0,P|366:341|309:326,1,120,2|2,0:0|0:0,0:0:0:0:
199,276,74726,6,0,B|154:252|106:274|106:274|86:212|131:211|102:129,1,240,6|2,0:0|1:2,0:0:0:0:
29,38,76726,1,2,1:2:0:0:
148,53,77393,6,0,B|208:47|208:47|275:66,1,120,2|2,1:2|1:2,0:0:0:0:
282,182,78726,2,0,B|342:188|342:188|409:169,1,120,2|2,1:2|1:2,0:0:0:0:
444,60,80059,6,0,B|423:176|423:176|465:220|465:220|465:294,1,240,6|2,1:2|1:2,0:0:0:0:
354,327,82059,1,2,1:2:0:0:
250,266,82726,6,0,B|218:236|185:233|185:233|141:248,1,120,2|2,0:0|0:0,0:0:0:0:
55,331,84059,2,0,B|86:360|119:363|119:363|164:349,1,120,2|2,0:0|0:0,0:0:0:0:
325,330,85393,5,12,0:0:0:0:
