osu file format v14

[General]
AudioFilename: rise_up.mp3
AudioLeadIn: 0
PreviewTime: 32064
Countdown: 0
SampleSet: Normal
StackLeniency: 0.7
Mode: 1
LetterboxInBreaks: 0
WidescreenStoryboard: 0

[Editor]
DistanceSpacing: 0.9
BeatDivisor: 4
GridSize: 4
TimelineZoom: 1.4

[Metadata]
Title:Rise Up
TitleUnicode:Rise Up
Artist:Thaehan
ArtistUnicode:Thaehan
Creator:Charlotte
Version:ily4's Muzukashii
Source:
Tags:Midsoul iloveyou4ever Nardoxyribonucleic soundtrack melodic Power Up 8-bit electronic
BeatmapID:1295708
BeatmapSetID:603915

[Difficulty]
HPDrainRate:5
CircleSize:3
OverallDifficulty:5
ApproachRate:2
SliderMultiplier:1.4
SliderTickRate:1

[Events]
//Background and Video events
0,0,"BG.jpg",0,-90
//Break Periods
//Storyboard Layer 0 (Background)
//Storyboard Layer 1 (Fail)
//Storyboard Layer 2 (Pass)
//Storyboard Layer 3 (Foreground)
//Storyboard Sound Samples

[TimingPoints]
65,333.333333333333,4,1,0,60,1,0
10398,-100,4,1,0,70,0,0
32064,-100,4,1,0,80,0,1
51898,-100,4,1,0,80,0,0
52064,-100,4,1,0,70,0,0
64064,-100,4,1,0,80,0,0
74731,-100,4,1,0,80,0,1
94564,-100,4,1,0,80,0,0
106731,-100,4,1,0,60,0,0

[HitObjects]
416,180,65,5,0,0:0:0:0:
476,160,231,1,0,0:0:0:0:
420,200,398,1,0,0:0:0:0:
476,196,564,1,8,0:0:0:0:
480,176,898,1,8,0:0:0:0:
424,148,1064,1,8,0:0:0:0:
420,200,1231,1,0,0:0:0:0:
480,176,1564,1,0,0:0:0:0:
416,164,1731,1,8,0:0:0:0:
352,176,1898,1,0,0:0:0:0:
476,168,2231,1,8,0:0:0:0:
420,196,2398,1,0,0:0:0:0:
420,192,2564,1,8,0:0:0:0:
356,180,2731,1,0,0:0:0:0:
416,164,3064,1,8,0:0:0:0:
416,164,3231,1,0,0:0:0:0:
456,160,3564,1,0,0:0:0:0:
416,164,3731,1,8,0:0:0:0:
416,164,3898,1,0,0:0:0:0:
456,160,4231,1,0,0:0:0:0:
473,169,4398,1,8,0:0:0:0:
500,164,4731,1,0,0:0:0:0:
500,164,5064,1,8,0:0:0:0:
500,164,5398,1,0,0:0:0:0:
500,164,5564,1,0,0:0:0:0:
468,220,5731,1,0,0:0:0:0:
436,172,5898,1,8,0:0:0:0:
488,180,6231,1,0,0:0:0:0:
436,172,6398,1,8,0:0:0:0:
436,172,6564,1,8,0:0:0:0:
316,136,6898,1,0,0:0:0:0:
436,172,7064,1,8,0:0:0:0:
460,164,7398,1,8,0:0:0:0:
396,156,7564,1,8,0:0:0:0:
404,188,7731,1,8,0:0:0:0:
436,172,8064,1,8,0:0:0:0:
436,172,8231,1,0,0:0:0:0:
460,164,8398,1,8,0:0:0:0:
436,172,8564,1,8,0:0:0:0:
312,160,8898,1,0,0:0:0:0:
376,164,9064,1,8,0:0:0:0:
436,180,9231,1,0,0:0:0:0:
312,172,9564,1,8,0:0:0:0:
460,230,9731,1,8,0:0:0:0:
416,156,10398,1,12,0:0:0:0:
416,156,10731,1,0,0:0:0:0:
466,194,10898,1,0,0:0:0:0:
404,188,11064,1,0,0:0:0:0:
456,152,11231,1,8,0:0:0:0:
477,162,11564,1,0,0:0:0:0:
414,166,11731,1,8,0:0:0:0:
414,166,11898,1,0,0:0:0:0:
480,180,12231,1,8,0:0:0:0:
480,180,12398,1,8,0:0:0:0:
420,160,12564,1,0,0:0:0:0:
508,252,12898,1,8,0:0:0:0:
488,228,12981,1,8,0:0:0:0:
356,160,13064,1,8,0:0:0:0:
356,160,13231,1,8,0:0:0:0:
324,156,13398,1,0,0:0:0:0:
384,172,13564,1,8,0:0:0:0:
384,172,13731,1,8,0:0:0:0:
356,160,13898,1,0,0:0:0:0:
448,168,14231,1,0,0:0:0:0:
384,172,14398,1,8,0:0:0:0:
448,168,14564,1,0,0:0:0:0:
448,168,14898,1,0,0:0:0:0:
388,160,15064,1,8,0:0:0:0:
504,112,15398,1,0,0:0:0:0:
392,168,15731,1,8,0:0:0:0:
420,152,16064,1,0,0:0:0:0:
456,172,16231,1,0,0:0:0:0:
420,152,16398,1,0,0:0:0:0:
332,152,16564,1,8,0:0:0:0:
392,164,16898,1,0,0:0:0:0:
328,172,17064,1,8,0:0:0:0:
388,188,17231,1,8,0:0:0:0:
472,92,17564,1,0,0:0:0:0:
392,164,17731,1,8,0:0:0:0:
392,164,17898,1,0,0:0:0:0:
452,148,18064,1,8,0:0:0:0:
452,180,18148,1,8,0:0:0:0:
392,164,18231,1,8,0:0:0:0:
452,148,18398,1,8,0:0:0:0:
392,164,18731,1,8,0:0:0:0:
448,192,18898,1,0,0:0:0:0:
392,164,19064,1,8,0:0:0:0:
392,164,19231,1,8,0:0:0:0:
472,176,19564,1,0,0:0:0:0:
420,136,19731,1,8,0:0:0:0:
472,172,19898,1,0,0:0:0:0:
472,176,20231,1,8,0:0:0:0:
472,176,20398,1,8,0:0:0:0:
472,176,20731,1,0,0:0:0:0:
408,164,20898,1,8,0:0:0:0:
452,208,21064,1,8,0:0:0:0:
408,164,21398,1,0,0:0:0:0:
408,164,21564,1,0,0:0:0:0:
460,200,21731,1,0,0:0:0:0:
472,176,21898,1,8,0:0:0:0:
472,176,22231,1,0,0:0:0:0:
408,184,22398,1,8,0:0:0:0:
344,184,22564,1,0,0:0:0:0:
468,172,22898,1,8,0:0:0:0:
468,172,23064,1,8,0:0:0:0:
412,204,23231,1,0,0:0:0:0:
484,100,23564,1,8,0:0:0:0:
464,128,23648,1,8,0:0:0:0:
448,152,23731,1,8,0:0:0:0:
388,168,23898,1,8,0:0:0:0:
448,192,24064,1,0,0:0:0:0:
432,252,24231,1,8,0:0:0:0:
388,172,24398,1,8,0:0:0:0:
388,168,24564,1,0,0:0:0:0:
444,164,24898,1,0,0:0:0:0:
380,172,25064,1,8,0:0:0:0:
380,172,25231,1,0,0:0:0:0:
444,184,25564,1,0,0:0:0:0:
444,184,25731,1,8,0:0:0:0:
444,184,26064,1,0,0:0:0:0:
444,184,26398,1,8,0:0:0:0:
413,189,26731,1,0,0:0:0:0:
413,189,26898,1,0,0:0:0:0:
352,176,27064,1,0,0:0:0:0:
413,189,27231,1,8,0:0:0:0:
448,160,27564,1,0,0:0:0:0:
384,156,27731,1,8,0:0:0:0:
448,160,27898,1,8,0:0:0:0:
480,180,28231,1,0,0:0:0:0:
436,136,28398,1,8,0:0:0:0:
448,160,28564,1,0,0:0:0:0:
480,180,28731,1,8,0:0:0:0:
480,180,28814,1,8,0:0:0:0:
480,180,28898,1,8,0:0:0:0:
480,180,29064,1,8,0:0:0:0:
420,168,29231,1,0,0:0:0:0:
420,168,29398,1,8,0:0:0:0:
420,168,29898,1,0,0:0:0:0:
420,168,30231,1,8,0:0:0:0:
420,168,30564,1,0,0:0:0:0:
476,280,30898,1,8,0:0:0:0:
448,224,31064,1,8,0:0:0:0:
420,168,31731,1,8,0:0:0:0:
364,196,32064,1,4,0:0:0:0:
420,168,32398,1,8,0:0:0:0:
456,232,32564,1,4,0:0:0:0:
476,208,32898,1,0,0:0:0:0:
436,160,33064,1,8,0:0:0:0:
436,160,33231,1,8,0:0:0:0:
432,224,33398,1,0,0:0:0:0:
400,172,33564,1,0,0:0:0:0:
336,180,33731,1,8,0:0:0:0:
436,160,34064,1,0,0:0:0:0:
436,160,34231,1,0,0:0:0:0:
372,152,34398,1,8,0:0:0:0:
446,162,34481,1,8,0:0:0:0:
436,156,34564,1,8,0:0:0:0:
496,136,34731,1,4,0:0:0:0:
396,208,35064,1,8,0:0:0:0:
448,256,35231,1,4,0:0:0:0:
492,208,35564,1,0,0:0:0:0:
436,160,35731,1,8,0:0:0:0:
436,160,35898,1,8,0:0:0:0:
436,160,36064,1,0,0:0:0:0:
436,160,36231,1,0,0:0:0:0:
436,160,36398,1,8,0:0:0:0:
447,233,36731,1,0,0:0:0:0:
436,160,36898,1,8,0:0:0:0:
372,152,37064,1,0,0:0:0:0:
442,276,37148,1,0,0:0:0:0:
308,144,37231,1,0,0:0:0:0:
372,152,37398,1,12,0:0:0:0:
372,156,37731,1,0,0:0:0:0:
436,160,37898,1,12,0:0:0:0:
464,168,38231,1,0,0:0:0:0:
400,164,38398,1,8,0:0:0:0:
464,168,38564,1,0,0:0:0:0:
448,204,38731,1,8,0:0:0:0:
448,204,38898,1,8,0:0:0:0:
464,168,39064,1,0,0:0:0:0:
448,204,39398,1,8,0:0:0:0:
448,204,39564,1,8,0:0:0:0:
404,156,39731,1,0,0:0:0:0:
424,180,39814,1,0,0:0:0:0:
444,204,39898,1,0,0:0:0:0:
448,196,40064,1,12,0:0:0:0:
448,196,40231,1,12,0:0:0:0:
468,136,40398,1,0,0:0:0:0:
468,200,40564,1,0,0:0:0:0:
432,256,40731,1,8,0:0:0:0:
448,196,41064,1,8,0:0:0:0:
420,192,41231,1,0,0:0:0:0:
408,164,41398,1,12,0:0:0:0:
408,164,41564,1,12,0:0:0:0:
468,188,41731,1,0,0:0:0:0:
440,176,41898,1,0,0:0:0:0:
440,176,42064,1,8,0:0:0:0:
440,176,42398,1,8,0:0:0:0:
376,176,42731,1,4,0:0:0:0:
376,176,43064,1,8,0:0:0:0:
432,148,43231,1,4,0:0:0:0:
476,208,43564,1,0,0:0:0:0:
436,160,43730,1,8,0:0:0:0:
436,160,43897,1,8,0:0:0:0:
432,224,44064,1,0,0:0:0:0:
400,172,44230,1,0,0:0:0:0:
336,180,44397,1,8,0:0:0:0:
436,160,44730,1,0,0:0:0:0:
436,160,44897,1,0,0:0:0:0:
372,152,45064,1,8,0:0:0:0:
415,183,45148,1,8,0:0:0:0:
436,156,45230,1,8,0:0:0:0:
496,136,45397,1,4,0:0:0:0:
396,208,45730,1,8,0:0:0:0:
436,160,45897,1,4,0:0:0:0:
492,208,46230,1,0,0:0:0:0:
436,160,46397,1,8,0:0:0:0:
436,160,46564,1,8,0:0:0:0:
436,160,46730,1,0,0:0:0:0:
436,160,46897,1,0,0:0:0:0:
436,160,47064,1,8,0:0:0:0:
372,156,47397,1,8,0:0:0:0:
436,160,47564,1,8,0:0:0:0:
372,152,47730,1,0,0:0:0:0:
371,179,47814,1,0,0:0:0:0:
308,144,47897,1,0,0:0:0:0:
372,152,48064,1,12,0:0:0:0:
372,156,48397,1,0,0:0:0:0:
436,160,48564,1,12,0:0:0:0:
464,168,48897,1,0,0:0:0:0:
400,164,49064,1,8,0:0:0:0:
464,168,49230,1,0,0:0:0:0:
448,204,49397,1,8,0:0:0:0:
448,204,49564,1,8,0:0:0:0:
464,168,49730,1,0,0:0:0:0:
448,204,50064,1,8,0:0:0:0:
448,204,50230,1,8,0:0:0:0:
404,156,50397,1,0,0:0:0:0:
424,180,50480,1,0,0:0:0:0:
444,204,50564,1,0,0:0:0:0:
448,196,50730,1,12,0:0:0:0:
448,196,50897,1,12,0:0:0:0:
468,136,51064,1,0,0:0:0:0:
468,200,51230,1,0,0:0:0:0:
432,256,51397,1,8,0:0:0:0:
412,172,51731,1,8,0:0:0:0:
468,200,51898,1,0,0:0:0:0:
412,172,52064,1,8,0:0:0:0:
356,144,52231,1,8,0:0:0:0:
468,188,52397,1,0,0:0:0:0:
440,176,52564,1,0,0:0:0:0:
440,176,52730,1,8,0:0:0:0:
376,164,53398,1,4,0:0:0:0:
496,200,53731,1,8,0:0:0:0:
380,148,54064,1,0,0:0:0:0:
504,168,54398,1,8,0:0:0:0:
384,132,54731,1,0,0:0:0:0:
508,160,55064,1,8,0:0:0:0:
384,136,55398,1,0,0:0:0:0:
504,180,55731,1,8,0:0:0:0:
444,192,55898,1,8,0:0:0:0:
380,172,56064,1,0,0:0:0:0:
504,188,56398,1,8,0:0:0:0:
384,152,56731,1,0,0:0:0:0:
504,188,57064,1,8,0:0:0:0:
424,92,57398,1,0,0:0:0:0:
420,156,57564,1,0,0:0:0:0:
412,216,57731,1,8,0:0:0:0:
488,116,58064,1,0,0:0:0:0:
412,216,58398,1,8,0:0:0:0:
448,216,58731,1,0,0:0:0:0:
448,216,58898,1,0,0:0:0:0:
424,176,59064,1,8,0:0:0:0:
480,176,59398,1,0,0:0:0:0:
480,176,59564,1,0,0:0:0:0:
492,164,59731,1,8,0:0:0:0:
480,176,60064,1,0,0:0:0:0:
464,168,60231,1,0,0:0:0:0:
464,168,60398,1,8,0:0:0:0:
456,152,60564,1,0,0:0:0:0:
504,168,60731,1,8,0:0:0:0:
400,156,60898,1,8,0:0:0:0:
468,168,61064,1,0,0:0:0:0:
468,176,61398,1,0,0:0:0:0:
380,162,61564,1,0,0:0:0:0:
364,156,61731,1,8,0:0:0:0:
432,168,61898,1,8,0:0:0:0:
428,160,62064,1,0,0:0:0:0:
428,160,62231,1,0,0:0:0:0:
492,160,62398,1,8,0:0:0:0:
480,200,62731,1,0,0:0:0:0:
456,180,62814,1,0,0:0:0:0:
456,180,62898,1,0,0:0:0:0:
456,180,63064,1,0,0:0:0:0:
456,180,63148,1,0,0:0:0:0:
456,180,63231,1,0,0:0:0:0:
456,180,63398,1,0,0:0:0:0:
392,180,63564,1,0,0:0:0:0:
456,184,63731,1,12,0:0:0:0:
416,156,64064,1,0,0:0:0:0:
466,194,64231,1,0,0:0:0:0:
404,188,64397,1,0,0:0:0:0:
456,152,64564,1,8,0:0:0:0:
477,162,64897,1,0,0:0:0:0:
414,166,65064,1,8,0:0:0:0:
414,166,65231,1,0,0:0:0:0:
480,180,65564,1,8,0:0:0:0:
480,180,65731,1,8,0:0:0:0:
420,160,65897,1,0,0:0:0:0:
508,252,66231,1,8,0:0:0:0:
488,228,66314,1,8,0:0:0:0:
356,160,66397,1,8,0:0:0:0:
356,160,66564,1,8,0:0:0:0:
324,156,66731,1,0,0:0:0:0:
384,172,66897,1,8,0:0:0:0:
384,172,67064,1,8,0:0:0:0:
356,160,67231,1,0,0:0:0:0:
448,168,67564,1,0,0:0:0:0:
384,172,67731,1,8,0:0:0:0:
448,168,67897,1,0,0:0:0:0:
446,254,68231,1,0,0:0:0:0:
388,160,68397,1,8,0:0:0:0:
504,112,68731,1,0,0:0:0:0:
392,168,69064,1,8,0:0:0:0:
404,200,69398,1,0,0:0:0:0:
404,200,69564,1,0,0:0:0:0:
392,168,69731,1,0,0:0:0:0:
392,168,69898,1,8,0:0:0:0:
472,72,70231,1,0,0:0:0:0:
456,132,70398,1,8,0:0:0:0:
436,192,70564,1,8,0:0:0:0:
444,68,70898,1,0,0:0:0:0:
432,128,71064,1,8,0:0:0:0:
472,176,71231,1,0,0:0:0:0:
452,116,71398,1,8,0:0:0:0:
460,144,71481,1,8,0:0:0:0:
460,144,71564,1,8,0:0:0:0:
435,182,71731,1,8,0:0:0:0:
425,173,71898,1,0,0:0:0:0:
428,144,72064,1,8,0:0:0:0:
456,164,72398,1,8,0:0:0:0:
404,200,72564,1,8,0:0:0:0:
508,128,72898,1,8,0:0:0:0:
448,152,73064,1,0,0:0:0:0:
404,192,73231,1,0,0:0:0:0:
506,264,73564,1,8,0:0:0:0:
420,216,73731,1,8,0:0:0:0:
396,208,74398,1,8,0:0:0:0:
448,192,74731,5,0,0:0:0:0:
452,172,75064,1,0,0:0:0:0:
452,172,75231,1,8,0:0:0:0:
436,174,75314,1,8,0:0:0:0:
392,156,75398,1,8,0:0:0:0:
422,161,75564,1,0,0:0:0:0:
392,156,75731,1,8,0:0:0:0:
392,156,76064,1,8,0:0:0:0:
454,165,76231,1,8,0:0:0:0:
454,165,76398,1,0,0:0:0:0:
454,165,76564,1,0,0:0:0:0:
421,234,76731,1,8,0:0:0:0:
480,256,76898,1,0,0:0:0:0:
428,224,77064,1,8,0:0:0:0:
387,166,77231,1,8,0:0:0:0:
436,188,77398,1,0,0:0:0:0:
460,252,77731,1,0,0:0:0:0:
372,152,77898,1,8,0:0:0:0:
344,160,77981,1,8,0:0:0:0:
344,160,78064,1,8,0:0:0:0:
408,152,78231,1,0,0:0:0:0:
408,152,78398,1,8,0:0:0:0:
452,200,78731,1,0,0:0:0:0:
492,248,78898,1,0,0:0:0:0:
440,216,79064,1,8,0:0:0:0:
388,180,79231,1,8,0:0:0:0:
440,186,79398,1,0,0:0:0:0:
388,180,79564,1,8,0:0:0:0:
452,176,79731,1,0,0:0:0:0:
452,176,79898,1,0,0:0:0:0:
452,176,80064,1,8,0:0:0:0:
452,176,80398,1,8,0:0:0:0:
392,160,80564,1,0,0:0:0:0:
360,152,80648,1,0,0:0:0:0:
360,152,80731,1,0,0:0:0:0:
416,184,80898,1,0,0:0:0:0:
448,240,81064,1,8,0:0:0:0:
452,176,81398,1,8,0:0:0:0:
472,152,81564,1,8,0:0:0:0:
424,160,81731,1,0,0:0:0:0:
424,160,81898,1,0,0:0:0:0:
412,220,82064,1,8,0:0:0:0:
412,220,82231,1,8,0:0:0:0:
432,160,82398,1,0,0:0:0:0:
424,160,82731,1,12,0:0:0:0:
424,160,82898,1,12,0:0:0:0:
424,160,83064,1,0,0:0:0:0:
424,160,83231,1,0,0:0:0:0:
424,160,83398,1,8,0:0:0:0:
454,168,83731,1,8,0:0:0:0:
488,192,83898,1,0,0:0:0:0:
448,144,84064,1,12,0:0:0:0:
388,128,84231,1,12,0:0:0:0:
448,152,84398,1,0,0:0:0:0:
476,164,84564,1,0,0:0:0:0:
412,164,84731,1,8,0:0:0:0:
508,160,85064,1,8,0:0:0:0:
508,160,85231,1,8,0:0:0:0:
448,192,85398,5,0,0:0:0:0:
424,214,85481,1,0,0:0:0:0:
448,192,85565,1,0,0:0:0:0:
452,172,85731,1,0,0:0:0:0:
452,172,85898,1,8,0:0:0:0:
489,166,85981,1,8,0:0:0:0:
392,156,86065,1,8,0:0:0:0:
422,161,86231,1,0,0:0:0:0:
392,156,86398,1,8,0:0:0:0:
392,156,86731,1,8,0:0:0:0:
454,165,86898,1,8,0:0:0:0:
454,165,87065,1,0,0:0:0:0:
454,165,87148,1,0,0:0:0:0:
454,165,87231,1,0,0:0:0:0:
421,234,87398,1,8,0:0:0:0:
480,256,87565,1,0,0:0:0:0:
428,224,87731,1,8,0:0:0:0:
436,188,88065,1,0,0:0:0:0:
468,188,88148,1,0,0:0:0:0:
468,188,88231,1,0,0:0:0:0:
460,252,88398,1,0,0:0:0:0:
372,152,88565,1,8,0:0:0:0:
344,160,88648,1,8,0:0:0:0:
344,160,88731,1,8,0:0:0:0:
408,152,88898,1,0,0:0:0:0:
408,152,89065,1,8,0:0:0:0:
452,200,89398,1,0,0:0:0:0:
492,248,89565,1,0,0:0:0:0:
440,216,89731,1,8,0:0:0:0:
412,200,89815,1,8,0:0:0:0:
388,180,89898,1,8,0:0:0:0:
388,180,90065,1,8,0:0:0:0:
388,180,90231,1,8,0:0:0:0:
452,176,90398,1,0,0:0:0:0:
452,176,90731,1,8,0:0:0:0:
452,176,90815,1,8,0:0:0:0:
452,176,90898,1,8,0:0:0:0:
452,176,91065,1,8,0:0:0:0:
392,160,91231,1,0,0:0:0:0:
360,152,91315,1,0,0:0:0:0:
360,152,91398,1,0,0:0:0:0:
416,184,91565,1,0,0:0:0:0:
448,240,91731,1,8,0:0:0:0:
452,176,92065,1,8,0:0:0:0:
472,152,92148,1,8,0:0:0:0:
472,152,92231,1,8,0:0:0:0:
424,160,92398,1,0,0:0:0:0:
424,160,92565,1,0,0:0:0:0:
412,220,92731,1,8,0:0:0:0:
412,220,92898,1,8,0:0:0:0:
432,160,93065,1,0,0:0:0:0:
337,176,93148,1,0,0:0:0:0:
337,176,93231,1,0,0:0:0:0:
424,160,93398,1,12,0:0:0:0:
424,160,93565,1,12,0:0:0:0:
424,160,93731,1,0,0:0:0:0:
424,160,93815,1,0,0:0:0:0:
424,160,93898,1,0,0:0:0:0:
424,160,94065,1,8,0:0:0:0:
488,192,94398,1,0,0:0:0:0:
488,192,94481,1,0,0:0:0:0:
488,192,94565,1,0,0:0:0:0:
448,152,94731,1,8,0:0:0:0:
448,152,94898,1,8,0:0:0:0:
448,152,95065,1,0,0:0:0:0:
476,164,95231,1,0,0:0:0:0:
412,164,95398,1,8,0:0:0:0:
160,148,96064,1,0,0:0:0:0:
288,160,96398,1,8,0:0:0:0:
320,160,96481,1,8,0:0:0:0:
352,160,96564,1,8,0:0:0:0:
340,96,96731,1,0,0:0:0:0:
452,156,97064,1,8,0:0:0:0:
504,176,97398,1,0,0:0:0:0:
504,176,97564,1,0,0:0:0:0:
504,176,97731,1,8,0:0:0:0:
504,176,97898,1,8,0:0:0:0:
440,172,98064,1,0,0:0:0:0:
468,196,98398,1,8,0:0:0:0:
464,164,98564,1,8,0:0:0:0:
504,176,98731,1,0,0:0:0:0:
504,176,99064,1,8,0:0:0:0:
504,176,99148,1,8,0:0:0:0:
472,168,99231,1,8,0:0:0:0:
408,168,99398,1,0,0:0:0:0:
428,156,99731,1,8,0:0:0:0:
456,172,100064,1,0,0:0:0:0:
456,172,100231,1,0,0:0:0:0:
482,167,100398,1,8,0:0:0:0:
482,167,100564,1,8,0:0:0:0:
445,197,100731,1,0,0:0:0:0:
432,236,101064,1,0,0:0:0:0:
432,172,101231,1,8,0:0:0:0:
432,172,101398,1,0,0:0:0:0:
432,172,101731,1,8,0:0:0:0:
432,172,101814,1,8,0:0:0:0:
432,172,101898,1,8,0:0:0:0:
492,152,102064,1,0,0:0:0:0:
492,152,102398,1,8,0:0:0:0:
368,128,102731,1,0,0:0:0:0:
336,124,102898,1,0,0:0:0:0:
492,152,103064,1,8,0:0:0:0:
378,173,103231,1,8,0:0:0:0:
398,156,103398,1,0,0:0:0:0:
442,240,103731,1,8,0:0:0:0:
432,128,103898,1,8,0:0:0:0:
472,176,104064,1,0,0:0:0:0:
348,148,104398,1,8,0:0:0:0:
380,156,104481,1,8,0:0:0:0:
380,156,104564,1,8,0:0:0:0:
444,144,104731,1,0,0:0:0:0:
472,176,105064,1,8,0:0:0:0:
256,192,105398,12,0,106398,0:0:0:0:
472,176,106731,5,12,0:0:0:0:
472,176,107064,1,0,0:0:0:0:
472,176,107231,1,8,0:0:0:0:
472,176,107564,1,8,0:0:0:0:
408,168,107731,1,8,0:0:0:0:
408,168,107898,1,0,0:0:0:0:
464,208,108231,1,0,0:0:0:0:
440,148,108398,1,8,0:0:0:0:
464,204,108564,1,0,0:0:0:0:
347,154,108898,1,8,0:0:0:0:
407,172,109064,1,0,0:0:0:0:
488,204,109231,1,8,0:0:0:0:
464,204,109398,1,0,0:0:0:0:
463,203,109731,1,8,0:0:0:0:
416,160,109898,1,0,0:0:0:0:
464,204,110231,1,0,0:0:0:0:
429,151,110398,1,8,0:0:0:0:
471,196,110564,1,0,0:0:0:0:
406,203,110898,1,0,0:0:0:0:
427,147,111064,1,8,0:0:0:0:
480,171,111398,1,0,0:0:0:0:
354,165,111731,1,8,0:0:0:0:
479,159,112064,1,0,0:0:0:0:
479,159,112231,1,0,0:0:0:0:
479,159,112398,1,0,0:0:0:0:
479,159,112564,1,8,0:0:0:0:
352,162,112898,1,0,0:0:0:0:
414,163,113064,1,8,0:0:0:0:
414,163,113231,1,8,0:0:0:0:
433,176,113564,1,0,0:0:0:0:
370,185,113731,1,8,0:0:0:0:
404,196,114064,1,8,0:0:0:0:
433,176,114231,1,8,0:0:0:0:
433,176,114398,1,8,0:0:0:0:
487,144,114731,1,8,0:0:0:0:
471,205,114898,1,0,0:0:0:0:
445,147,115064,1,8,0:0:0:0:
470,204,115231,1,8,0:0:0:0:
504,82,115564,1,0,0:0:0:0:
458,125,115731,1,8,0:0:0:0:
418,173,115898,1,0,0:0:0:0:
418,173,116231,1,8,0:0:0:0:
418,173,116398,1,8,0:0:0:0:
