osu file format v14

[General]
AudioFilename: rise_up.mp3
AudioLeadIn: 0
PreviewTime: 32064
Countdown: 0
SampleSet: Normal
StackLeniency: 0.7
Mode: 1
LetterboxInBreaks: 0
WidescreenStoryboard: 0

[Editor]
DistanceSpacing: 0.9
BeatDivisor: 4
GridSize: 32
TimelineZoom: 1.1

[Metadata]
Title:Rise Up
TitleUnicode:Rise Up
Artist:Thaehan
ArtistUnicode:Thaehan
Creator:Charlotte
Version:Nardo's Futsuu
Source:
Tags:Midsoul iloveyou4ever Nardoxyribonucleic soundtrack melodic Power Up 8-bit electronic
BeatmapID:1310551
BeatmapSetID:603915

[Difficulty]
HPDrainRate:6
CircleSize:5
OverallDifficulty:4
ApproachRate:4
SliderMultiplier:1.4
SliderTickRate:1

[Events]
//Background and Video events
0,0,"BG.jpg",0,-90
//Break Periods
//Storyboard Layer 0 (Background)
//Storyboard Layer 1 (Fail)
//Storyboard Layer 2 (Pass)
//Storyboard Layer 3 (Foreground)
//Storyboard Sound Samples

[TimingPoints]
65,333.333333333333,4,1,0,60,1,0
10398,-100,4,1,0,70,0,0
32064,-100,4,1,0,80,0,1
51898,-100,4,1,0,80,0,0
52074,-100,4,1,0,70,0,0
64064,-100,4,1,0,80,0,0
74731,-100,4,1,0,80,0,1
94564,-100,4,1,0,80,0,0
106731,-100,4,1,0,60,0,0

[HitObjects]
256,192,65,5,0,0:0:0:0:
256,192,564,1,8,0:0:0:0:
256,192,898,1,8,0:0:0:0:
256,192,1231,1,0,0:0:0:0:
256,192,1564,1,8,0:0:0:0:
256,192,1898,1,0,0:0:0:0:
256,192,2398,1,8,0:0:0:0:
256,192,2731,1,8,0:0:0:0:
256,192,3231,1,0,0:0:0:0:
256,192,3564,1,8,0:0:0:0:
256,192,3898,1,0,0:0:0:0:
256,192,4398,1,8,0:0:0:0:
256,192,4731,1,0,0:0:0:0:
256,192,5398,1,0,0:0:0:0:
256,192,5898,1,8,0:0:0:0:
256,192,6231,1,0,0:0:0:0:
256,192,6564,1,8,0:0:0:0:
256,192,6898,1,8,0:0:0:0:
256,192,7231,1,0,0:0:0:0:
256,192,7731,1,8,0:0:0:0:
256,192,8064,12,0,10398,0:0:0:0:
256,192,10731,5,4,0:0:0:0:
256,192,11064,1,8,0:0:0:0:
256,192,11231,1,8,0:0:0:0:
256,192,11564,1,8,0:0:0:0:
256,192,11898,1,0,0:0:0:0:
256,192,12231,1,8,0:0:0:0:
256,192,12398,1,8,0:0:0:0:
256,192,12564,1,0,0:0:0:0:
256,192,12898,1,0,0:0:0:0:
256,192,13064,1,8,0:0:0:0:
256,192,13398,1,0,0:0:0:0:
256,192,13731,1,8,0:0:0:0:
256,192,13898,1,0,0:0:0:0:
256,192,14231,1,8,0:0:0:0:
256,192,14564,1,0,0:0:0:0:
256,192,14898,1,8,0:0:0:0:
256,192,15064,1,8,0:0:0:0:
256,192,15398,1,0,0:0:0:0:
256,192,16064,1,0,0:0:0:0:
256,192,16398,1,8,0:0:0:0:
256,192,16564,1,8,0:0:0:0:
256,192,16898,1,0,0:0:0:0:
256,192,17231,1,8,0:0:0:0:
256,192,17564,1,0,0:0:0:0:
256,192,17731,1,8,0:0:0:0:
256,192,17898,1,0,0:0:0:0:
256,192,18231,1,0,0:0:0:0:
256,192,18398,1,8,0:0:0:0:
256,192,18731,1,8,0:0:0:0:
256,192,19064,1,8,0:0:0:0:
256,192,19231,1,0,0:0:0:0:
256,192,19564,1,8,0:0:0:0:
256,192,19898,1,0,0:0:0:0:
256,192,20231,1,8,0:0:0:0:
256,192,20398,1,8,0:0:0:0:
256,192,21398,1,4,0:0:0:0:
256,192,21731,1,8,0:0:0:0:
256,192,21898,1,8,0:0:0:0:
256,192,22231,1,8,0:0:0:0:
256,192,22564,1,0,0:0:0:0:
256,192,22898,1,8,0:0:0:0:
256,192,23064,1,8,0:0:0:0:
256,192,23231,1,0,0:0:0:0:
256,192,23564,1,0,0:0:0:0:
256,192,23731,1,8,0:0:0:0:
256,192,24064,1,0,0:0:0:0:
256,192,24398,1,8,0:0:0:0:
256,192,24564,1,0,0:0:0:0:
256,192,24898,1,8,0:0:0:0:
256,192,25231,1,0,0:0:0:0:
256,192,25564,1,8,0:0:0:0:
256,192,25731,1,8,0:0:0:0:
256,192,26064,1,0,0:0:0:0:
256,192,26731,1,0,0:0:0:0:
256,192,27064,1,8,0:0:0:0:
256,192,27231,1,8,0:0:0:0:
256,192,27564,1,0,0:0:0:0:
256,192,27898,1,8,0:0:0:0:
256,192,28231,1,0,0:0:0:0:
256,192,28398,1,8,0:0:0:0:
256,192,28564,1,0,0:0:0:0:
256,192,28898,1,0,0:0:0:0:
256,192,29064,1,8,0:0:0:0:
256,192,29398,1,8,0:0:0:0:
256,192,29898,1,0,0:0:0:0:
256,192,30231,1,8,0:0:0:0:
256,192,30564,1,0,0:0:0:0:
256,192,31064,1,8,0:0:0:0:
256,192,31398,2,0,L|320:192,4,35
256,192,32064,1,4,0:0:0:0:
256,192,32398,1,8,0:0:0:0:
256,192,32564,1,0,0:0:0:0:
256,192,32898,1,0,0:0:0:0:
256,192,33064,1,8,0:0:0:0:
256,192,33398,1,8,0:0:0:0:
256,192,33731,1,0,0:0:0:0:
256,192,34064,1,8,0:0:0:0:
256,192,34731,1,0,0:0:0:0:
256,192,35064,1,8,0:0:0:0:
256,192,35231,1,0,0:0:0:0:
256,192,35564,1,0,0:0:0:0:
256,192,35731,1,8,0:0:0:0:
256,192,36064,1,0,0:0:0:0:
256,192,36398,1,8,0:0:0:0:
256,192,36731,1,0,0:0:0:0:
256,192,37398,1,8,0:0:0:0:
256,192,37731,1,8,0:0:0:0:
256,192,37898,1,0,0:0:0:0:
256,192,38231,1,0,0:0:0:0:
256,192,38398,1,8,0:0:0:0:
256,192,38731,1,8,0:0:0:0:
256,192,39064,1,0,0:0:0:0:
256,192,39231,1,0,0:0:0:0:
256,192,39398,1,8,0:0:0:0:
256,192,39731,1,0,0:0:0:0:
256,192,40064,1,12,0:0:0:0:
256,192,40398,1,4,0:0:0:0:
256,192,40731,1,12,0:0:0:0:
256,192,41398,1,4,0:0:0:0:
256,192,41731,1,12,0:0:0:0:
256,192,42064,1,12,0:0:0:0:
256,192,42731,1,4,0:0:0:0:
256,192,43064,1,8,0:0:0:0:
256,192,43231,1,0,0:0:0:0:
256,192,43564,1,0,0:0:0:0:
256,192,43731,1,8,0:0:0:0:
256,192,44064,1,8,0:0:0:0:
256,192,44731,1,0,0:0:0:0:
256,192,44898,1,0,0:0:0:0:
256,192,45064,1,8,0:0:0:0:
256,192,45398,1,0,0:0:0:0:
256,192,45731,1,8,0:0:0:0:
256,192,45898,1,0,0:0:0:0:
256,192,46231,1,0,0:0:0:0:
256,192,46398,1,8,0:0:0:0:
256,192,46731,1,0,0:0:0:0:
256,192,47398,1,8,0:0:0:0:
256,192,47564,1,8,0:0:0:0:
256,192,47731,1,0,0:0:0:0:
256,192,48064,1,8,0:0:0:0:
256,192,48398,1,8,0:0:0:0:
256,192,48564,1,0,0:0:0:0:
256,192,48898,1,0,0:0:0:0:
256,192,49064,1,8,0:0:0:0:
256,192,49398,1,0,0:0:0:0:
256,192,49564,1,0,0:0:0:0:
256,192,49731,1,0,0:0:0:0:
256,192,50064,1,8,0:0:0:0:
256,192,50231,1,8,0:0:0:0:
256,192,50398,1,8,0:0:0:0:
256,192,50731,1,12,0:0:0:0:
256,192,51064,1,4,0:0:0:0:
256,192,51398,1,12,0:0:0:0:
256,192,52064,1,0,0:0:0:0:
256,192,52398,1,8,0:0:0:0:
256,192,52731,1,8,0:0:0:0:
256,192,53398,1,0,0:0:0:0:
256,192,53731,1,0,0:0:0:0:
256,192,53898,1,8,0:0:0:0:
256,192,54231,1,0,0:0:0:0:
256,192,54564,1,8,0:0:0:0:
256,192,54898,1,8,0:0:0:0:
256,192,55231,1,0,0:0:0:0:
256,192,56064,1,0,0:0:0:0:
256,192,56398,1,8,0:0:0:0:
256,192,56564,1,0,0:0:0:0:
256,192,56898,1,8,0:0:0:0:
256,192,57231,1,0,0:0:0:0:
256,192,57564,1,0,0:0:0:0:
256,192,57731,1,8,0:0:0:0:
256,192,58064,1,0,0:0:0:0:
256,192,58731,1,0,0:0:0:0:
256,192,59064,1,0,0:0:0:0:
256,192,59231,1,8,0:0:0:0:
256,192,59564,1,0,0:0:0:0:
256,192,59898,1,8,0:0:0:0:
256,192,60231,1,8,0:0:0:0:
256,192,60564,1,0,0:0:0:0:
256,192,61398,1,0,0:0:0:0:
256,192,61731,1,0,0:0:0:0:
256,192,62064,1,0,0:0:0:0:
256,192,62231,1,0,0:0:0:0:
256,192,62398,1,0,0:0:0:0:
256,192,62731,2,0,L|320:192,8,35
256,192,63564,1,0,0:0:0:0:
256,192,63731,1,8,0:0:0:0:
256,192,64064,1,4,0:0:0:0:
256,192,64398,1,8,0:0:0:0:
256,192,64564,1,8,0:0:0:0:
256,192,64898,1,8,0:0:0:0:
256,192,65231,1,0,0:0:0:0:
256,192,65564,1,8,0:0:0:0:
256,192,65731,1,8,0:0:0:0:
256,192,65898,1,0,0:0:0:0:
256,192,66231,1,0,0:0:0:0:
256,192,66398,1,8,0:0:0:0:
256,192,66731,1,0,0:0:0:0:
256,192,67064,1,8,0:0:0:0:
256,192,67231,1,0,0:0:0:0:
256,192,67564,1,8,0:0:0:0:
256,192,67898,1,0,0:0:0:0:
256,192,68231,1,8,0:0:0:0:
256,192,68398,1,8,0:0:0:0:
256,192,68731,1,0,0:0:0:0:
256,192,69398,1,0,0:0:0:0:
256,192,69731,1,8,0:0:0:0:
256,192,69898,1,8,0:0:0:0:
256,192,70231,1,0,0:0:0:0:
256,192,70564,1,8,0:0:0:0:
256,192,70898,1,0,0:0:0:0:
256,192,71064,1,8,0:0:0:0:
256,192,71231,1,0,0:0:0:0:
256,192,71564,1,0,0:0:0:0:
256,192,71731,1,8,0:0:0:0:
256,192,72064,1,8,0:0:0:0:
256,192,72398,1,8,0:0:0:0:
256,192,72564,1,0,0:0:0:0:
256,192,72898,1,8,0:0:0:0:
256,192,73231,12,0,74398,0:0:0:0:
256,192,74731,5,4,0:0:0:0:
256,192,75064,1,8,0:0:0:0:
256,192,75231,1,0,0:0:0:0:
256,192,75564,1,0,0:0:0:0:
256,192,75731,1,8,0:0:0:0:
256,192,76064,1,8,0:0:0:0:
256,192,76398,1,0,0:0:0:0:
256,192,76731,1,8,0:0:0:0:
256,192,77398,1,0,0:0:0:0:
256,192,77731,1,8,0:0:0:0:
256,192,77898,1,0,0:0:0:0:
256,192,78231,1,0,0:0:0:0:
256,192,78398,1,8,0:0:0:0:
256,192,78731,1,0,0:0:0:0:
256,192,79064,1,8,0:0:0:0:
256,192,79398,1,0,0:0:0:0:
256,192,80064,1,8,0:0:0:0:
256,192,80398,1,8,0:0:0:0:
256,192,80564,1,0,0:0:0:0:
256,192,80898,1,0,0:0:0:0:
256,192,81064,1,8,0:0:0:0:
256,192,81398,1,8,0:0:0:0:
256,192,81731,1,0,0:0:0:0:
256,192,81898,1,0,0:0:0:0:
256,192,82064,1,8,0:0:0:0:
256,192,82398,1,0,0:0:0:0:
256,192,82731,1,12,0:0:0:0:
256,192,83064,1,4,0:0:0:0:
256,192,83398,1,12,0:0:0:0:
256,192,84064,1,4,0:0:0:0:
256,192,84398,1,12,0:0:0:0:
256,192,84731,1,12,0:0:0:0:
256,192,85398,1,4,0:0:0:0:
256,192,85731,1,8,0:0:0:0:
256,192,85898,1,0,0:0:0:0:
256,192,86231,1,0,0:0:0:0:
256,192,86398,1,8,0:0:0:0:
256,192,86731,1,8,0:0:0:0:
256,192,87064,1,0,0:0:0:0:
256,192,87398,1,0,0:0:0:0:
256,192,87564,1,0,0:0:0:0:
256,192,87731,1,8,0:0:0:0:
256,192,88064,1,0,0:0:0:0:
256,192,88398,1,8,0:0:0:0:
256,192,88564,1,0,0:0:0:0:
256,192,88898,1,0,0:0:0:0:
256,192,89064,1,8,0:0:0:0:
256,192,89398,1,0,0:0:0:0:
256,192,89731,1,8,0:0:0:0:
256,192,90064,1,8,0:0:0:0:
256,192,90231,1,8,0:0:0:0:
256,192,90398,1,0,0:0:0:0:
256,192,90731,1,8,0:0:0:0:
256,192,91064,1,8,0:0:0:0:
256,192,91231,1,0,0:0:0:0:
256,192,91564,1,0,0:0:0:0:
256,192,91731,1,8,0:0:0:0:
256,192,92064,1,0,0:0:0:0:
256,192,92231,1,0,0:0:0:0:
256,192,92398,1,0,0:0:0:0:
256,192,92731,1,8,0:0:0:0:
256,192,92898,1,8,0:0:0:0:
256,192,93064,1,8,0:0:0:0:
256,192,93398,1,12,0:0:0:0:
256,192,93731,1,4,0:0:0:0:
256,192,94064,1,12,0:0:0:0:
256,192,94731,1,0,0:0:0:0:
256,192,95064,1,8,0:0:0:0:
256,192,95398,1,8,0:0:0:0:
256,192,96064,1,0,0:0:0:0:
256,192,96398,1,8,0:0:0:0:
256,192,96564,1,8,0:0:0:0:
256,192,96731,1,0,0:0:0:0:
256,192,97064,1,8,0:0:0:0:
256,192,97398,1,0,0:0:0:0:
256,192,97564,1,8,0:0:0:0:
256,192,97731,1,0,0:0:0:0:
256,192,98064,1,8,0:0:0:0:
256,192,98731,1,0,0:0:0:0:
256,192,99064,1,8,0:0:0:0:
256,192,99231,1,8,0:0:0:0:
256,192,99398,1,0,0:0:0:0:
256,192,99731,1,8,0:0:0:0:
256,192,100064,1,0,0:0:0:0:
256,192,100398,1,8,0:0:0:0:
256,192,100564,1,0,0:0:0:0:
256,192,100731,1,8,0:0:0:0:
256,192,101398,1,8,0:0:0:0:
256,192,101731,1,8,0:0:0:0:
256,192,102064,1,0,0:0:0:0:
256,192,102231,1,0,0:0:0:0:
256,192,102398,1,8,0:0:0:0:
256,192,102731,1,0,0:0:0:0:
256,192,102898,1,8,0:0:0:0:
256,192,103064,1,0,0:0:0:0:
256,192,103398,1,8,0:0:0:0:
256,192,104064,1,8,0:0:0:0:
256,192,104398,1,8,0:0:0:0:
256,192,104731,1,0,0:0:0:0:
256,192,104898,1,0,0:0:0:0:
256,192,105064,1,8,0:0:0:0:
256,192,105398,1,0,0:0:0:0:
256,192,106731,1,4,0:0:0:0:
256,192,107231,1,8,0:0:0:0:
256,192,107898,1,8,0:0:0:0:
256,192,108564,1,0,0:0:0:0:
256,192,109398,1,0,0:0:0:0:
256,192,109898,1,8,0:0:0:0:
256,192,110564,1,0,0:0:0:0:
256,192,111064,1,8,0:0:0:0:
256,192,111398,1,0,0:0:0:0:
256,192,112064,1,0,0:0:0:0:
256,192,112564,1,8,0:0:0:0:
256,192,113231,1,8,0:0:0:0:
256,192,113898,1,0,0:0:0:0:
256,192,114731,1,8,0:0:0:0:
256,192,115231,1,8,0:0:0:0:
256,192,115898,1,0,0:0:0:0:
256,192,116398,1,8,0:0:0:0:
