osu file format v14

[General]
AudioFilename: rise_up.mp3
AudioLeadIn: 0
PreviewTime: 32064
Countdown: 0
SampleSet: Normal
StackLeniency: 0.7
Mode: 1
LetterboxInBreaks: 0
WidescreenStoryboard: 0

[Editor]
DistanceSpacing: 0.9
BeatDivisor: 4
GridSize: 32
TimelineZoom: 1.5

[Metadata]
Title:Rise Up
TitleUnicode:Rise Up
Artist:Thaehan
ArtistUnicode:Thaehan
Creator:Charlotte
Version:Kantan
Source:
Tags:Midsoul iloveyou4ever Nardoxyribonucleic soundtrack melodic Power Up 8-bit electronic
BeatmapID:1310882
BeatmapSetID:603915

[Difficulty]
HPDrainRate:7
CircleSize:2
OverallDifficulty:3
ApproachRate:4
SliderMultiplier:1.4
SliderTickRate:1

[Events]
//Background and Video events
0,0,"BG.jpg",0,-90
//Break Periods
//Storyboard Layer 0 (Background)
//Storyboard Layer 1 (Fail)
//Storyboard Layer 2 (Pass)
//Storyboard Layer 3 (Foreground)
//Storyboard Sound Samples

[TimingPoints]
65,333.333333333333,4,1,0,60,1,0
10398,-100,4,1,0,70,0,0
32064,-100,4,1,0,80,0,1
51898,-100,4,1,0,80,0,0
52064,-100,4,1,0,70,0,0
64064,-100,4,1,0,80,0,0
74731,-100,4,1,0,80,0,1
94564,-100,4,1,0,80,0,0
106731,-100,4,1,0,60,0,0

[HitObjects]
256,192,65,5,0,0:0:0:0:
256,192,1231,1,8,0:0:0:0:
256,192,1898,1,0,0:0:0:0:
256,192,2731,1,0,0:0:0:0:
256,192,3898,1,0,0:0:0:0:
256,192,4731,1,8,0:0:0:0:
256,192,5398,1,0,0:0:0:0:
256,192,6564,1,8,0:0:0:0:
256,192,7398,1,0,0:0:0:0:
256,192,8064,12,0,10398,0:0:0:0:
256,192,10731,5,4,0:0:0:0:
256,192,11231,1,8,0:0:0:0:
256,192,11898,1,0,0:0:0:0:
256,192,12564,1,0,0:0:0:0:
256,192,13398,1,8,0:0:0:0:
256,192,13898,1,0,0:0:0:0:
256,192,14564,1,0,0:0:0:0:
256,192,15398,1,8,0:0:0:0:
256,192,16064,1,0,0:0:0:0:
256,192,16564,1,8,0:0:0:0:
256,192,17231,1,8,0:0:0:0:
256,192,17898,1,0,0:0:0:0:
256,192,18731,1,8,0:0:0:0:
256,192,19231,1,0,0:0:0:0:
256,192,19898,1,0,0:0:0:0:
256,192,20398,1,8,0:0:0:0:
256,192,21398,1,4,0:0:0:0:
256,192,21898,1,8,0:0:0:0:
256,192,22564,1,0,0:0:0:0:
256,192,23231,1,0,0:0:0:0:
256,192,23731,1,8,0:0:0:0:
256,192,24064,1,0,0:0:0:0:
256,192,24564,1,0,0:0:0:0:
256,192,25231,1,0,0:0:0:0:
256,192,26064,1,8,0:0:0:0:
256,192,26731,1,0,0:0:0:0:
256,192,27231,1,8,0:0:0:0:
256,192,27898,1,8,0:0:0:0:
256,192,28564,1,0,0:0:0:0:
256,192,29398,1,8,0:0:0:0:
256,192,30564,1,0,0:0:0:0:
256,192,31064,1,8,0:0:0:0:
256,192,32064,1,4,0:0:0:0:
256,192,32731,1,8,0:0:0:0:
256,192,33398,1,8,0:0:0:0:
256,192,33731,1,8,0:0:0:0:
256,192,34064,1,8,0:0:0:0:
256,192,34731,1,0,0:0:0:0:
256,192,35398,1,8,0:0:0:0:
256,192,36064,1,0,0:0:0:0:
256,192,36398,1,0,0:0:0:0:
256,192,36731,1,0,0:0:0:0:
256,192,37398,1,8,0:0:0:0:
256,192,38731,1,8,0:0:0:0:
256,192,39064,1,0,0:0:0:0:
256,192,39398,1,8,0:0:0:0:
256,192,39731,1,0,0:0:0:0:
256,192,40064,1,12,0:0:0:0:
256,192,40731,1,12,0:0:0:0:
256,192,41398,1,4,0:0:0:0:
256,192,42064,1,12,0:0:0:0:
256,192,42731,1,4,0:0:0:0:
256,192,43398,1,8,0:0:0:0:
256,192,44064,1,8,0:0:0:0:
256,192,44398,1,0,0:0:0:0:
256,192,44731,1,8,0:0:0:0:
256,192,45398,1,0,0:0:0:0:
256,192,46064,1,8,0:0:0:0:
256,192,46731,1,0,0:0:0:0:
256,192,47064,1,8,0:0:0:0:
256,192,47398,1,0,0:0:0:0:
256,192,48064,1,8,0:0:0:0:
256,192,49398,1,0,0:0:0:0:
256,192,49731,1,0,0:0:0:0:
256,192,50064,1,8,0:0:0:0:
256,192,50398,1,8,0:0:0:0:
256,192,50731,1,12,0:0:0:0:
256,192,51398,1,12,0:0:0:0:
256,192,52064,1,4,0:0:0:0:
256,192,52731,1,12,0:0:0:0:
256,192,53398,1,0,0:0:0:0:
256,192,54564,1,8,0:0:0:0:
256,192,55231,1,0,0:0:0:0:
256,192,56064,1,0,0:0:0:0:
256,192,57231,1,0,0:0:0:0:
256,192,58064,1,8,0:0:0:0:
256,192,58731,1,0,0:0:0:0:
256,192,59898,1,8,0:0:0:0:
256,192,60731,1,8,0:0:0:0:
256,192,61398,1,0,0:0:0:0:
256,192,62064,1,0,0:0:0:0:
256,192,62731,2,0,L|320:192,8,35
256,192,63731,1,8,0:0:0:0:
256,192,64064,1,4,0:0:0:0:
256,192,64564,1,8,0:0:0:0:
256,192,65231,1,0,0:0:0:0:
256,192,65898,1,0,0:0:0:0:
256,192,66398,1,8,0:0:0:0:
256,192,66731,1,0,0:0:0:0:
256,192,67231,1,0,0:0:0:0:
256,192,67898,1,0,0:0:0:0:
256,192,68398,1,8,0:0:0:0:
256,192,69398,1,0,0:0:0:0:
256,192,69898,1,8,0:0:0:0:
256,192,70564,1,8,0:0:0:0:
256,192,71231,1,0,0:0:0:0:
256,192,72064,1,8,0:0:0:0:
256,192,72564,1,0,0:0:0:0:
256,192,73231,1,0,0:0:0:0:
256,192,73731,1,8,0:0:0:0:
256,192,74731,5,4,0:0:0:0:
256,192,75398,1,8,0:0:0:0:
256,192,76064,1,8,0:0:0:0:
256,192,76398,1,0,0:0:0:0:
256,192,76731,1,8,0:0:0:0:
256,192,77398,1,0,0:0:0:0:
256,192,78064,1,8,0:0:0:0:
256,192,78731,1,0,0:0:0:0:
256,192,79064,1,8,0:0:0:0:
256,192,79398,1,0,0:0:0:0:
256,192,80064,1,8,0:0:0:0:
256,192,81398,1,8,0:0:0:0:
256,192,81731,1,0,0:0:0:0:
256,192,82064,1,8,0:0:0:0:
256,192,82398,1,0,0:0:0:0:
256,192,82731,1,12,0:0:0:0:
256,192,83398,1,12,0:0:0:0:
256,192,84064,1,4,0:0:0:0:
256,192,84398,1,4,0:0:0:0:
256,192,84731,1,12,0:0:0:0:
256,192,85398,1,4,0:0:0:0:
256,192,86064,1,8,0:0:0:0:
256,192,86731,1,8,0:0:0:0:
256,192,87064,1,0,0:0:0:0:
256,192,87398,1,0,0:0:0:0:
256,192,88064,1,0,0:0:0:0:
256,192,88731,1,8,0:0:0:0:
256,192,89398,1,0,0:0:0:0:
256,192,89731,1,8,0:0:0:0:
256,192,90064,1,8,0:0:0:0:
256,192,90731,1,8,0:0:0:0:
256,192,92064,1,0,0:0:0:0:
256,192,92398,1,0,0:0:0:0:
256,192,92731,1,8,0:0:0:0:
256,192,93064,1,8,0:0:0:0:
256,192,93398,1,12,0:0:0:0:
256,192,94064,1,12,0:0:0:0:
256,192,94731,1,4,0:0:0:0:
256,192,95064,1,4,0:0:0:0:
256,192,95398,1,12,0:0:0:0:
256,192,96064,1,0,0:0:0:0:
256,192,97398,1,0,0:0:0:0:
256,192,97731,1,0,0:0:0:0:
256,192,98064,1,8,0:0:0:0:
256,192,98731,1,0,0:0:0:0:
256,192,100064,1,0,0:0:0:0:
256,192,100398,1,8,0:0:0:0:
256,192,100731,1,8,0:0:0:0:
256,192,101398,1,8,0:0:0:0:
256,192,102064,1,0,0:0:0:0:
256,192,102731,1,0,0:0:0:0:
256,192,103064,1,0,0:0:0:0:
256,192,103398,1,8,0:0:0:0:
256,192,104064,1,8,0:0:0:0:
256,192,104731,1,0,0:0:0:0:
256,192,105398,1,0,0:0:0:0:
256,192,106731,5,4,0:0:0:0:
256,192,107898,1,8,0:0:0:0:
256,192,108564,1,0,0:0:0:0:
256,192,109398,1,0,0:0:0:0:
256,192,110564,1,0,0:0:0:0:
256,192,111398,1,8,0:0:0:0:
256,192,112064,1,0,0:0:0:0:
256,192,113231,1,8,0:0:0:0:
256,192,114064,1,0,0:0:0:0:
256,192,114731,1,8,0:0:0:0:
256,192,115898,1,0,0:0:0:0:
256,192,116398,1,8,0:0:0:0:
