osu file format v14

[General]
AudioFilename: rise_up.mp3
AudioLeadIn: 0
PreviewTime: 32064
Countdown: 0
SampleSet: Normal
StackLeniency: 0.7
Mode: 1
LetterboxInBreaks: 0
WidescreenStoryboard: 0

[Editor]
DistanceSpacing: 0.9
BeatDivisor: 4
GridSize: 4
TimelineZoom: 2.1

[Metadata]
Title:Rise Up
TitleUnicode:Rise Up
Artist:Thaehan
ArtistUnicode:Thaehan
Creator:Charlotte
Version:Inner Oni
Source:
Tags:Midsoul iloveyou4ever Nardoxyribonucleic soundtrack melodic Power Up 8-bit electronic
BeatmapID:1275856
BeatmapSetID:603915

[Difficulty]
HPDrainRate:6
CircleSize:5
OverallDifficulty:6
ApproachRate:6
SliderMultiplier:1.4
SliderTickRate:1

[Events]
//Background and Video events
0,0,"BG.jpg",0,-90
//Break Periods
//Storyboard Layer 0 (Background)
//Storyboard Layer 1 (Fail)
//Storyboard Layer 2 (Pass)
//Storyboard Layer 3 (Foreground)
//Storyboard Sound Samples

[TimingPoints]
65,333.333333333333,4,1,0,60,1,0
10398,-100,4,1,0,70,0,0
32064,-100,4,1,0,80,0,1
51898,-100,4,1,0,80,0,0
52064,-100,4,1,0,70,0,0
64064,-100,4,1,0,80,0,0
74731,-100,4,1,0,80,0,1
94564,-100,4,1,0,80,0,0
106731,-100,4,1,0,60,0,0

[HitObjects]
256,192,65,5,0,0:0:0:0:
256,192,231,1,0,0:0:0:0:
256,192,398,1,8,0:0:0:0:
256,192,564,1,8,0:0:0:0:
256,192,898,1,8,0:0:0:0:
256,192,1064,1,8,0:0:0:0:
256,192,1231,1,0,0:0:0:0:
256,192,1564,1,0,0:0:0:0:
256,192,1731,1,8,0:0:0:0:
256,192,1898,1,0,0:0:0:0:
256,192,2231,1,8,0:0:0:0:
256,192,2314,1,8,0:0:0:0:
256,192,2398,1,0,0:0:0:0:
256,192,2564,1,8,0:0:0:0:
256,192,2731,1,0,0:0:0:0:
256,192,2898,1,0,0:0:0:0:
256,192,3064,1,8,0:0:0:0:
256,192,3231,1,0,0:0:0:0:
256,192,3564,1,8,0:0:0:0:
256,192,3731,1,8,0:0:0:0:
256,192,3898,1,0,0:0:0:0:
256,192,4231,1,0,0:0:0:0:
256,192,4398,1,8,0:0:0:0:
256,192,4731,1,0,0:0:0:0:
256,192,5064,1,8,0:0:0:0:
256,192,5398,1,0,0:0:0:0:
256,192,5564,1,0,0:0:0:0:
256,192,5731,1,8,0:0:0:0:
256,192,5898,1,8,0:0:0:0:
256,192,6231,1,8,0:0:0:0:
256,192,6398,1,0,0:0:0:0:
256,192,6564,1,8,0:0:0:0:
256,192,6898,1,0,0:0:0:0:
256,192,7064,1,8,0:0:0:0:
256,192,7231,1,0,0:0:0:0:
256,192,7398,1,8,0:0:0:0:
256,192,7481,1,8,0:0:0:0:
256,192,7564,1,8,0:0:0:0:
256,192,7731,1,8,0:0:0:0:
256,192,7898,1,0,0:0:0:0:
256,192,8064,1,8,0:0:0:0:
256,192,8231,1,8,0:0:0:0:
256,192,8398,1,0,0:0:0:0:
256,192,8564,1,8,0:0:0:0:
256,192,8898,1,8,0:0:0:0:
256,192,9064,1,0,0:0:0:0:
256,192,9231,1,0,0:0:0:0:
256,192,9564,1,8,0:0:0:0:
256,192,9731,1,8,0:0:0:0:
256,192,10064,1,0,0:0:0:0:
256,192,10398,1,12,0:0:0:0:
256,192,10731,1,0,0:0:0:0:
256,192,10898,1,0,0:0:0:0:
256,192,10981,1,0,0:0:0:0:
256,192,11064,1,8,0:0:0:0:
256,192,11231,1,8,0:0:0:0:
256,192,11398,1,0,0:0:0:0:
256,192,11564,1,8,0:0:0:0:
256,192,11648,1,8,0:0:0:0:
256,192,11731,1,8,0:0:0:0:
256,192,11898,1,0,0:0:0:0:
256,192,12231,1,0,0:0:0:0:
256,192,12398,1,8,0:0:0:0:
256,192,12564,1,0,0:0:0:0:
256,192,12898,1,8,0:0:0:0:
256,192,12981,1,8,0:0:0:0:
256,192,13064,1,0,0:0:0:0:
256,192,13231,1,8,0:0:0:0:
256,192,13314,1,0,0:0:0:0:
256,192,13398,1,0,0:0:0:0:
256,192,13564,1,0,0:0:0:0:
256,192,13731,1,8,0:0:0:0:
256,192,13898,1,0,0:0:0:0:
256,192,13981,1,0,0:0:0:0:
256,192,14064,1,0,0:0:0:0:
256,192,14231,1,8,0:0:0:0:
256,192,14398,1,8,0:0:0:0:
256,192,14564,1,0,0:0:0:0:
256,192,14898,1,0,0:0:0:0:
256,192,15064,1,8,0:0:0:0:
256,192,15231,1,8,0:0:0:0:
256,192,15314,1,8,0:0:0:0:
256,192,15398,1,0,0:0:0:0:
256,192,15564,1,0,0:0:0:0:
256,192,15731,1,8,0:0:0:0:
256,192,15898,1,0,0:0:0:0:
256,192,15981,1,0,0:0:0:0:
256,192,16064,1,0,0:0:0:0:
256,192,16231,1,0,0:0:0:0:
256,192,16398,1,8,0:0:0:0:
256,192,16564,1,8,0:0:0:0:
256,192,16898,1,8,0:0:0:0:
256,192,17064,1,0,0:0:0:0:
256,192,17231,1,8,0:0:0:0:
256,192,17564,1,0,0:0:0:0:
256,192,17648,1,0,0:0:0:0:
256,192,17730,1,8,0:0:0:0:
256,192,17897,1,8,0:0:0:0:
256,192,18064,1,8,0:0:0:0:
256,192,18147,1,8,0:0:0:0:
256,192,18230,1,8,0:0:0:0:
256,192,18397,1,8,0:0:0:0:
256,192,18564,1,0,0:0:0:0:
256,192,18730,1,8,0:0:0:0:
256,192,18897,1,0,0:0:0:0:
256,192,18981,1,0,0:0:0:0:
256,192,19064,1,0,0:0:0:0:
256,192,19230,1,8,0:0:0:0:
256,192,19564,1,0,0:0:0:0:
256,192,19731,1,0,0:0:0:0:
256,192,19898,1,8,0:0:0:0:
256,192,20231,1,0,0:0:0:0:
256,192,20398,1,8,0:0:0:0:
256,192,20564,1,8,0:0:0:0:
256,192,20648,1,0,0:0:0:0:
256,192,20731,1,0,0:0:0:0:
256,192,20898,1,8,0:0:0:0:
256,192,20981,1,8,0:0:0:0:
256,192,21064,1,0,0:0:0:0:
256,192,21148,1,0,0:0:0:0:
256,192,21231,1,0,0:0:0:0:
256,192,21314,1,0,0:0:0:0:
256,192,21398,1,8,0:0:0:0:
256,192,21565,1,0,0:0:0:0:
256,192,21648,1,0,0:0:0:0:
256,192,21731,1,8,0:0:0:0:
256,192,21898,1,8,0:0:0:0:
256,192,22064,1,0,0:0:0:0:
256,192,22231,1,8,0:0:0:0:
256,192,22314,1,8,0:0:0:0:
256,192,22398,1,8,0:0:0:0:
256,192,22565,1,0,0:0:0:0:
256,192,22898,1,0,0:0:0:0:
256,192,23065,1,8,0:0:0:0:
256,192,23231,1,0,0:0:0:0:
256,192,23565,1,8,0:0:0:0:
256,192,23648,1,8,0:0:0:0:
256,192,23731,1,0,0:0:0:0:
256,192,23898,1,8,0:0:0:0:
256,192,23981,1,0,0:0:0:0:
256,192,24065,1,0,0:0:0:0:
256,192,24231,1,0,0:0:0:0:
256,192,24398,1,8,0:0:0:0:
256,192,24565,1,8,0:0:0:0:
256,192,24648,1,0,0:0:0:0:
256,192,24731,1,0,0:0:0:0:
256,192,24814,1,0,0:0:0:0:
256,192,24898,1,8,0:0:0:0:
256,192,25065,1,8,0:0:0:0:
256,192,25231,1,0,0:0:0:0:
256,192,25565,1,0,0:0:0:0:
256,192,25731,1,8,0:0:0:0:
256,192,25898,1,8,0:0:0:0:
256,192,25981,1,8,0:0:0:0:
256,192,26065,1,0,0:0:0:0:
256,192,26231,1,0,0:0:0:0:
256,192,26398,1,8,0:0:0:0:
256,192,26565,1,0,0:0:0:0:
256,192,26648,1,0,0:0:0:0:
256,192,26731,1,0,0:0:0:0:
256,192,26898,1,0,0:0:0:0:
256,192,27065,1,8,0:0:0:0:
256,192,27231,1,8,0:0:0:0:
256,192,27565,1,8,0:0:0:0:
256,192,27731,1,0,0:0:0:0:
256,192,27898,1,8,0:0:0:0:
256,192,28231,1,0,0:0:0:0:
256,192,28314,1,0,0:0:0:0:
256,192,28397,1,8,0:0:0:0:
256,192,28564,1,8,0:0:0:0:
256,192,28731,1,8,0:0:0:0:
256,192,28814,1,8,0:0:0:0:
256,192,28897,1,8,0:0:0:0:
256,192,29064,1,8,0:0:0:0:
256,192,29148,1,8,0:0:0:0:
256,192,29231,1,0,0:0:0:0:
256,192,29398,1,8,0:0:0:0:
256,192,29564,1,8,0:0:0:0:
256,192,29731,1,0,0:0:0:0:
256,192,29897,1,8,0:0:0:0:
256,192,30231,1,0,0:0:0:0:
256,192,30398,1,0,0:0:0:0:
256,192,30565,1,8,0:0:0:0:
256,192,30898,1,0,0:0:0:0:
256,192,31065,1,8,0:0:0:0:
256,192,31231,1,8,0:0:0:0:
256,192,31314,1,0,0:0:0:0:
256,192,31398,1,0,0:0:0:0:
256,192,31564,1,8,0:0:0:0:
256,192,31648,1,0,0:0:0:0:
256,192,31731,1,8,0:0:0:0:
256,192,31815,1,8,0:0:0:0:
256,192,31898,1,0,0:0:0:0:
256,192,32065,1,4,0:0:0:0:
256,192,32231,1,8,0:0:0:0:
256,192,32314,1,8,0:0:0:0:
256,192,32398,1,0,0:0:0:0:
256,192,32564,1,0,0:0:0:0:
256,192,32731,1,0,0:0:0:0:
256,192,32814,1,0,0:0:0:0:
256,192,32898,1,8,0:0:0:0:
256,192,32981,1,8,0:0:0:0:
256,192,33064,1,0,0:0:0:0:
256,192,33231,1,0,0:0:0:0:
256,192,33398,1,8,0:0:0:0:
256,192,33481,1,8,0:0:0:0:
256,192,33564,1,0,0:0:0:0:
256,192,33731,1,8,0:0:0:0:
256,192,33814,1,8,0:0:0:0:
256,192,33898,1,0,0:0:0:0:
256,192,34064,1,0,0:0:0:0:
256,192,34148,1,0,0:0:0:0:
256,192,34231,1,8,0:0:0:0:
256,192,34314,1,0,0:0:0:0:
256,192,34398,1,8,0:0:0:0:
256,192,34481,1,8,0:0:0:0:
256,192,34564,1,0,0:0:0:0:
256,192,34731,1,0,0:0:0:0:
256,192,34898,1,8,0:0:0:0:
256,192,34981,1,8,0:0:0:0:
256,192,35064,1,0,0:0:0:0:
256,192,35231,1,0,0:0:0:0:
256,192,35398,1,0,0:0:0:0:
256,192,35481,1,8,0:0:0:0:
256,192,35564,1,0,0:0:0:0:
256,192,35648,1,0,0:0:0:0:
256,192,35731,1,8,0:0:0:0:
256,192,35898,1,0,0:0:0:0:
256,192,36064,1,8,0:0:0:0:
256,192,36148,1,8,0:0:0:0:
256,192,36231,1,0,0:0:0:0:
256,192,36398,1,8,0:0:0:0:
256,192,36481,1,0,0:0:0:0:
256,192,36564,1,8,0:0:0:0:
256,192,36731,1,8,0:0:0:0:
256,192,36814,1,0,0:0:0:0:
256,192,36898,1,8,0:0:0:0:
256,192,36981,1,8,0:0:0:0:
256,192,37064,1,0,0:0:0:0:
256,192,37148,1,8,0:0:0:0:
256,192,37231,1,0,0:0:0:0:
256,192,37398,1,8,0:0:0:0:
256,192,37481,1,8,0:0:0:0:
256,192,37564,1,0,0:0:0:0:
256,192,37648,1,8,0:0:0:0:
256,192,37731,1,0,0:0:0:0:
256,192,37814,1,0,0:0:0:0:
256,192,37898,1,8,0:0:0:0:
256,192,37981,1,0,0:0:0:0:
256,192,38064,1,8,0:0:0:0:
256,192,38148,1,8,0:0:0:0:
256,192,38231,1,0,0:0:0:0:
256,192,38314,1,0,0:0:0:0:
256,192,38398,1,8,0:0:0:0:
256,192,38564,1,0,0:0:0:0:
256,192,38731,1,8,0:0:0:0:
256,192,38814,1,0,0:0:0:0:
256,192,38898,1,0,0:0:0:0:
256,192,39064,1,8,0:0:0:0:
256,192,39147,1,0,0:0:0:0:
256,192,39231,1,0,0:0:0:0:
256,192,39398,1,8,0:0:0:0:
256,192,39481,1,0,0:0:0:0:
256,192,39564,1,8,0:0:0:0:
256,192,39648,1,8,0:0:0:0:
256,192,39731,1,0,0:0:0:0:
256,192,39814,1,0,0:0:0:0:
256,192,39898,1,8,0:0:0:0:
256,192,40064,1,12,0:0:0:0:
256,192,40231,1,12,0:0:0:0:
256,192,40398,1,0,0:0:0:0:
256,192,40481,1,0,0:0:0:0:
256,192,40564,1,8,0:0:0:0:
256,192,40648,1,0,0:0:0:0:
256,192,40731,1,8,0:0:0:0:
256,192,40814,1,8,0:0:0:0:
256,192,40898,1,0,0:0:0:0:
256,192,40981,1,0,0:0:0:0:
256,192,41064,1,8,0:0:0:0:
256,192,41148,1,0,0:0:0:0:
256,192,41231,1,8,0:0:0:0:
256,192,41398,1,12,0:0:0:0:
256,192,41564,1,12,0:0:0:0:
256,192,41731,1,0,0:0:0:0:
256,192,41814,1,0,0:0:0:0:
256,192,41898,1,8,0:0:0:0:
256,192,41981,1,8,0:0:0:0:
256,192,42064,1,0,0:0:0:0:
256,192,42398,1,8,0:0:0:0:
256,192,42731,1,4,0:0:0:0:
256,192,42898,1,8,0:0:0:0:
256,192,42981,1,8,0:0:0:0:
256,192,43064,1,0,0:0:0:0:
256,192,43231,1,0,0:0:0:0:
256,192,43398,1,8,0:0:0:0:
256,192,43481,1,0,0:0:0:0:
256,192,43565,1,8,0:0:0:0:
256,192,43648,1,8,0:0:0:0:
256,192,43731,1,0,0:0:0:0:
256,192,43898,1,0,0:0:0:0:
256,192,44065,1,8,0:0:0:0:
256,192,44148,1,8,0:0:0:0:
256,192,44231,1,0,0:0:0:0:
256,192,44398,1,8,0:0:0:0:
256,192,44481,1,8,0:0:0:0:
256,192,44565,1,0,0:0:0:0:
256,192,44731,1,0,0:0:0:0:
256,192,44815,1,8,0:0:0:0:
256,192,44898,1,8,0:0:0:0:
256,192,44981,1,0,0:0:0:0:
256,192,45065,1,8,0:0:0:0:
256,192,45148,1,8,0:0:0:0:
256,192,45231,1,0,0:0:0:0:
256,192,45398,1,0,0:0:0:0:
256,192,45565,1,8,0:0:0:0:
256,192,45648,1,8,0:0:0:0:
256,192,45731,1,0,0:0:0:0:
256,192,45898,1,0,0:0:0:0:
256,192,46065,1,0,0:0:0:0:
256,192,46148,1,8,0:0:0:0:
256,192,46231,1,8,0:0:0:0:
256,192,46315,1,0,0:0:0:0:
256,192,46398,1,8,0:0:0:0:
256,192,46565,1,0,0:0:0:0:
256,192,46731,1,8,0:0:0:0:
256,192,46815,1,8,0:0:0:0:
256,192,46898,1,0,0:0:0:0:
256,192,47065,1,8,0:0:0:0:
256,192,47148,1,0,0:0:0:0:
256,192,47231,1,8,0:0:0:0:
256,192,47398,1,8,0:0:0:0:
256,192,47481,1,0,0:0:0:0:
256,192,47565,1,8,0:0:0:0:
256,192,47648,1,0,0:0:0:0:
256,192,47731,1,8,0:0:0:0:
256,192,47815,1,8,0:0:0:0:
256,192,47898,1,0,0:0:0:0:
256,192,48065,1,8,0:0:0:0:
256,192,48148,1,0,0:0:0:0:
256,192,48231,1,0,0:0:0:0:
256,192,48315,1,8,0:0:0:0:
256,192,48398,1,0,0:0:0:0:
256,192,48481,1,8,0:0:0:0:
256,192,48565,1,8,0:0:0:0:
256,192,48648,1,0,0:0:0:0:
256,192,48731,1,8,0:0:0:0:
256,192,48815,1,8,0:0:0:0:
256,192,48898,1,0,0:0:0:0:
256,192,48981,1,0,0:0:0:0:
256,192,49065,1,8,0:0:0:0:
256,192,49231,1,0,0:0:0:0:
256,192,49398,1,8,0:0:0:0:
256,192,49481,1,0,0:0:0:0:
256,192,49565,1,0,0:0:0:0:
256,192,49731,1,8,0:0:0:0:
256,192,49814,1,0,0:0:0:0:
256,192,49898,1,0,0:0:0:0:
256,192,50065,1,8,0:0:0:0:
256,192,50148,1,8,0:0:0:0:
256,192,50231,1,0,0:0:0:0:
256,192,50315,1,0,0:0:0:0:
256,192,50398,1,8,0:0:0:0:
256,192,50481,1,0,0:0:0:0:
256,192,50565,1,8,0:0:0:0:
256,192,50731,1,12,0:0:0:0:
256,192,50898,1,12,0:0:0:0:
256,192,51065,1,0,0:0:0:0:
256,192,51148,1,0,0:0:0:0:
256,192,51231,1,8,0:0:0:0:
256,192,51315,1,0,0:0:0:0:
256,192,51398,1,8,0:0:0:0:
256,192,51481,1,0,0:0:0:0:
256,192,51565,1,8,0:0:0:0:
256,192,51648,1,8,0:0:0:0:
256,192,51731,1,0,0:0:0:0:
256,192,51815,1,0,0:0:0:0:
256,192,51898,1,8,0:0:0:0:
256,192,52065,1,12,0:0:0:0:
256,192,52231,1,12,0:0:0:0:
256,192,52398,1,0,0:0:0:0:
256,192,52481,1,0,0:0:0:0:
256,192,52565,1,8,0:0:0:0:
256,192,52648,1,8,0:0:0:0:
256,192,52731,1,0,0:0:0:0:
256,192,53065,1,8,0:0:0:0:
256,192,53148,1,0,0:0:0:0:
256,192,53231,1,0,0:0:0:0:
256,192,53314,1,0,0:0:0:0:
256,192,53398,1,0,0:0:0:0:
256,192,53564,1,0,0:0:0:0:
256,192,53731,1,8,0:0:0:0:
256,192,53898,1,8,0:0:0:0:
256,192,54231,1,8,0:0:0:0:
256,192,54397,1,8,0:0:0:0:
256,192,54564,1,0,0:0:0:0:
256,192,54897,1,0,0:0:0:0:
256,192,55064,1,8,0:0:0:0:
256,192,55231,1,0,0:0:0:0:
256,192,55564,1,8,0:0:0:0:
256,192,55647,1,8,0:0:0:0:
256,192,55731,1,0,0:0:0:0:
256,192,55897,1,8,0:0:0:0:
256,192,56064,1,0,0:0:0:0:
256,192,56231,1,0,0:0:0:0:
256,192,56397,1,8,0:0:0:0:
256,192,56564,1,0,0:0:0:0:
256,192,56898,1,8,0:0:0:0:
256,192,57065,1,8,0:0:0:0:
256,192,57232,1,0,0:0:0:0:
256,192,57565,1,0,0:0:0:0:
256,192,57732,1,8,0:0:0:0:
256,192,58065,1,0,0:0:0:0:
256,192,58398,1,8,0:0:0:0:
256,192,58732,1,0,0:0:0:0:
256,192,58898,1,0,0:0:0:0:
256,192,59065,1,8,0:0:0:0:
256,192,59232,1,8,0:0:0:0:
256,192,59565,1,8,0:0:0:0:
256,192,59732,1,0,0:0:0:0:
256,192,59898,1,8,0:0:0:0:
256,192,60232,1,0,0:0:0:0:
256,192,60398,1,8,0:0:0:0:
256,192,60565,1,0,0:0:0:0:
256,192,60732,1,8,0:0:0:0:
256,192,60815,1,8,0:0:0:0:
256,192,60898,1,8,0:0:0:0:
256,192,61065,1,8,0:0:0:0:
256,192,61232,1,0,0:0:0:0:
256,192,61398,1,8,0:0:0:0:
256,192,61565,1,0,0:0:0:0:
256,192,61648,1,0,0:0:0:0:
256,192,61732,1,0,0:0:0:0:
256,192,61898,1,8,0:0:0:0:
256,192,62064,1,0,0:0:0:0:
256,192,62232,1,8,0:0:0:0:
256,192,62314,1,0,0:0:0:0:
256,192,62398,1,0,0:0:0:0:
256,192,62481,1,0,0:0:0:0:
256,192,62565,1,8,0:0:0:0:
256,192,62731,1,0,0:0:0:0:
256,192,62814,1,0,0:0:0:0:
256,192,62898,1,0,0:0:0:0:
256,192,62981,1,0,0:0:0:0:
256,192,63064,1,8,0:0:0:0:
256,192,63148,1,8,0:0:0:0:
256,192,63231,1,0,0:0:0:0:
256,192,63314,1,0,0:0:0:0:
256,192,63398,1,8,0:0:0:0:
256,192,63481,1,8,0:0:0:0:
256,192,63564,1,0,0:0:0:0:
256,192,63732,1,12,0:0:0:0:
256,192,64065,1,0,0:0:0:0:
256,192,64231,1,0,0:0:0:0:
256,192,64314,1,0,0:0:0:0:
256,192,64397,1,8,0:0:0:0:
256,192,64564,1,8,0:0:0:0:
256,192,64731,1,0,0:0:0:0:
256,192,64897,1,8,0:0:0:0:
256,192,64981,1,8,0:0:0:0:
256,192,65064,1,8,0:0:0:0:
256,192,65231,1,0,0:0:0:0:
256,192,65398,1,8,0:0:0:0:
256,192,65564,1,0,0:0:0:0:
256,192,65648,1,0,0:0:0:0:
256,192,65731,1,8,0:0:0:0:
256,192,65897,1,0,0:0:0:0:
256,192,66064,1,8,0:0:0:0:
256,192,66148,1,0,0:0:0:0:
256,192,66231,1,8,0:0:0:0:
256,192,66314,1,8,0:0:0:0:
256,192,66397,1,0,0:0:0:0:
256,192,66564,1,8,0:0:0:0:
256,192,66648,1,0,0:0:0:0:
256,192,66731,1,0,0:0:0:0:
256,192,66898,1,0,0:0:0:0:
256,192,66981,1,0,0:0:0:0:
256,192,67064,1,8,0:0:0:0:
256,192,67148,1,0,0:0:0:0:
256,192,67231,1,8,0:0:0:0:
256,192,67314,1,8,0:0:0:0:
256,192,67397,1,0,0:0:0:0:
256,192,67564,1,8,0:0:0:0:
256,192,67648,1,0,0:0:0:0:
256,192,67731,1,8,0:0:0:0:
256,192,67897,1,0,0:0:0:0:
256,192,68231,1,0,0:0:0:0:
256,192,68397,1,8,0:0:0:0:
256,192,68564,1,8,0:0:0:0:
256,192,68647,1,8,0:0:0:0:
256,192,68731,1,0,0:0:0:0:
256,192,68897,1,0,0:0:0:0:
256,192,68981,1,0,0:0:0:0:
256,192,69064,1,8,0:0:0:0:
256,192,69148,1,8,0:0:0:0:
256,192,69231,1,0,0:0:0:0:
256,192,69314,1,0,0:0:0:0:
256,192,69397,1,0,0:0:0:0:
256,192,69564,1,0,0:0:0:0:
256,192,69731,1,8,0:0:0:0:
256,192,69897,1,8,0:0:0:0:
256,192,70064,1,0,0:0:0:0:
256,192,70148,1,0,0:0:0:0:
256,192,70231,1,8,0:0:0:0:
256,192,70314,1,8,0:0:0:0:
256,192,70397,1,0,0:0:0:0:
256,192,70564,1,8,0:0:0:0:
256,192,70731,1,0,0:0:0:0:
256,192,70814,1,0,0:0:0:0:
256,192,70897,1,8,0:0:0:0:
256,192,70981,1,0,0:0:0:0:
256,192,71063,1,8,0:0:0:0:
256,192,71230,1,8,0:0:0:0:
256,192,71397,1,8,0:0:0:0:
256,192,71481,1,8,0:0:0:0:
256,192,71564,1,0,0:0:0:0:
256,192,71648,1,0,0:0:0:0:
256,192,71730,1,8,0:0:0:0:
256,192,71814,1,0,0:0:0:0:
256,192,71897,1,0,0:0:0:0:
256,192,72063,1,8,0:0:0:0:
256,192,72230,1,8,0:0:0:0:
256,192,72314,1,0,0:0:0:0:
256,192,72397,1,0,0:0:0:0:
256,192,72563,1,8,0:0:0:0:
256,192,72731,1,0,0:0:0:0:
256,192,72898,1,8,0:0:0:0:
256,192,72981,1,8,0:0:0:0:
256,192,73064,1,0,0:0:0:0:
256,192,73231,1,8,0:0:0:0:
256,192,73564,1,0,0:0:0:0:
256,192,73731,1,8,0:0:0:0:
256,192,73898,1,8,0:0:0:0:
256,192,73981,1,8,0:0:0:0:
256,192,74064,1,0,0:0:0:0:
256,192,74231,1,0,0:0:0:0:
256,192,74314,1,0,0:0:0:0:
256,192,74398,1,8,0:0:0:0:
256,192,74481,1,0,0:0:0:0:
256,192,74564,1,8,0:0:0:0:
256,192,74731,1,4,0:0:0:0:
256,192,74898,1,8,0:0:0:0:
256,192,74981,1,8,0:0:0:0:
256,192,75064,1,0,0:0:0:0:
256,192,75231,1,0,0:0:0:0:
256,192,75398,1,0,0:0:0:0:
256,192,75481,1,0,0:0:0:0:
256,192,75564,1,8,0:0:0:0:
256,192,75648,1,8,0:0:0:0:
256,192,75731,1,0,0:0:0:0:
256,192,75814,1,0,0:0:0:0:
256,192,75898,1,8,0:0:0:0:
256,192,76065,1,8,0:0:0:0:
256,192,76148,1,8,0:0:0:0:
256,192,76231,1,0,0:0:0:0:
256,192,76398,1,8,0:0:0:0:
256,192,76481,1,8,0:0:0:0:
256,192,76565,1,0,0:0:0:0:
256,192,76731,1,0,0:0:0:0:
256,192,76815,1,0,0:0:0:0:
256,192,76898,1,8,0:0:0:0:
256,192,76981,1,0,0:0:0:0:
256,192,77065,1,8,0:0:0:0:
256,192,77148,1,8,0:0:0:0:
256,192,77231,1,0,0:0:0:0:
256,192,77398,1,0,0:0:0:0:
256,192,77565,1,8,0:0:0:0:
256,192,77648,1,8,0:0:0:0:
256,192,77731,1,0,0:0:0:0:
256,192,77898,1,0,0:0:0:0:
256,192,78064,1,0,0:0:0:0:
256,192,78148,1,8,0:0:0:0:
256,192,78231,1,0,0:0:0:0:
256,192,78315,1,0,0:0:0:0:
256,192,78398,1,8,0:0:0:0:
256,192,78481,1,8,0:0:0:0:
256,192,78565,1,0,0:0:0:0:
256,192,78731,1,8,0:0:0:0:
256,192,78815,1,8,0:0:0:0:
256,192,78898,1,0,0:0:0:0:
256,192,79065,1,8,0:0:0:0:
256,192,79148,1,0,0:0:0:0:
256,192,79231,1,8,0:0:0:0:
256,192,79398,1,8,0:0:0:0:
256,192,79481,1,0,0:0:0:0:
256,192,79565,1,8,0:0:0:0:
256,192,79648,1,8,0:0:0:0:
256,192,79731,1,0,0:0:0:0:
256,192,79815,1,8,0:0:0:0:
256,192,79898,1,8,0:0:0:0:
256,192,80065,1,8,0:0:0:0:
256,192,80148,1,8,0:0:0:0:
256,192,80231,1,0,0:0:0:0:
256,192,80315,1,8,0:0:0:0:
256,192,80398,1,0,0:0:0:0:
256,192,80481,1,8,0:0:0:0:
256,192,80565,1,8,0:0:0:0:
256,192,80648,1,0,0:0:0:0:
256,192,80731,1,8,0:0:0:0:
256,192,80815,1,8,0:0:0:0:
256,192,80898,1,0,0:0:0:0:
256,192,80981,1,0,0:0:0:0:
256,192,81065,1,8,0:0:0:0:
256,192,81231,1,0,0:0:0:0:
256,192,81398,1,8,0:0:0:0:
256,192,81481,1,0,0:0:0:0:
256,192,81565,1,0,0:0:0:0:
256,192,81731,1,8,0:0:0:0:
256,192,81814,1,0,0:0:0:0:
256,192,81898,1,0,0:0:0:0:
256,192,82065,1,8,0:0:0:0:
256,192,82148,1,0,0:0:0:0:
256,192,82231,1,8,0:0:0:0:
256,192,82315,1,8,0:0:0:0:
256,192,82398,1,0,0:0:0:0:
256,192,82481,1,0,0:0:0:0:
256,192,82565,1,8,0:0:0:0:
256,192,82731,1,12,0:0:0:0:
256,192,82898,1,12,0:0:0:0:
256,192,83065,1,0,0:0:0:0:
256,192,83148,1,8,0:0:0:0:
256,192,83231,1,0,0:0:0:0:
256,192,83315,1,0,0:0:0:0:
256,192,83398,1,8,0:0:0:0:
256,192,83481,1,8,0:0:0:0:
256,192,83565,1,0,0:0:0:0:
256,192,83648,1,8,0:0:0:0:
256,192,83731,1,8,0:0:0:0:
256,192,83815,1,0,0:0:0:0:
256,192,83898,1,8,0:0:0:0:
256,192,84065,1,12,0:0:0:0:
256,192,84231,1,12,0:0:0:0:
256,192,84398,1,0,0:0:0:0:
256,192,84481,1,0,0:0:0:0:
256,192,84565,1,0,0:0:0:0:
256,192,84648,1,8,0:0:0:0:
256,192,84731,1,0,0:0:0:0:
256,192,85065,1,8,0:0:0:0:
256,192,85398,1,4,0:0:0:0:
256,192,85565,1,8,0:0:0:0:
256,192,85648,1,8,0:0:0:0:
256,192,85731,1,0,0:0:0:0:
256,192,85898,1,0,0:0:0:0:
256,192,86065,1,8,0:0:0:0:
256,192,86148,1,0,0:0:0:0:
256,192,86231,1,0,0:0:0:0:
256,192,86315,1,8,0:0:0:0:
256,192,86398,1,0,0:0:0:0:
256,192,86481,1,0,0:0:0:0:
256,192,86565,1,8,0:0:0:0:
256,192,86732,1,8,0:0:0:0:
256,192,86815,1,8,0:0:0:0:
256,192,86898,1,0,0:0:0:0:
256,192,87065,1,8,0:0:0:0:
256,192,87148,1,8,0:0:0:0:
256,192,87232,1,0,0:0:0:0:
256,192,87398,1,0,0:0:0:0:
256,192,87482,1,8,0:0:0:0:
256,192,87565,1,8,0:0:0:0:
256,192,87648,1,0,0:0:0:0:
256,192,87731,1,8,0:0:0:0:
256,192,87815,1,8,0:0:0:0:
256,192,87898,1,0,0:0:0:0:
256,192,88065,1,0,0:0:0:0:
256,192,88232,1,8,0:0:0:0:
256,192,88315,1,8,0:0:0:0:
256,192,88398,1,0,0:0:0:0:
256,192,88565,1,0,0:0:0:0:
256,192,88732,1,8,0:0:0:0:
256,192,88815,1,8,0:0:0:0:
256,192,88898,1,0,0:0:0:0:
256,192,88982,1,0,0:0:0:0:
256,192,89064,1,8,0:0:0:0:
256,192,89148,1,8,0:0:0:0:
256,192,89232,1,0,0:0:0:0:
256,192,89398,1,8,0:0:0:0:
256,192,89482,1,8,0:0:0:0:
256,192,89565,1,0,0:0:0:0:
256,192,89732,1,8,0:0:0:0:
256,192,89815,1,0,0:0:0:0:
256,192,89898,1,8,0:0:0:0:
256,192,90065,1,8,0:0:0:0:
256,192,90148,1,0,0:0:0:0:
256,192,90232,1,0,0:0:0:0:
256,192,90315,1,0,0:0:0:0:
256,192,90398,1,8,0:0:0:0:
256,192,90481,1,8,0:0:0:0:
256,192,90565,1,0,0:0:0:0:
256,192,90732,1,8,0:0:0:0:
256,192,90814,1,8,0:0:0:0:
256,192,90898,1,0,0:0:0:0:
256,192,90981,1,0,0:0:0:0:
256,192,91065,1,8,0:0:0:0:
256,192,91148,1,0,0:0:0:0:
256,192,91232,1,8,0:0:0:0:
256,192,91315,1,0,0:0:0:0:
256,192,91398,1,8,0:0:0:0:
256,192,91482,1,8,0:0:0:0:
256,192,91565,1,0,0:0:0:0:
256,192,91648,1,0,0:0:0:0:
256,192,91732,1,8,0:0:0:0:
256,192,91898,1,0,0:0:0:0:
256,192,92065,1,8,0:0:0:0:
256,192,92148,1,0,0:0:0:0:
256,192,92232,1,0,0:0:0:0:
256,192,92398,1,8,0:0:0:0:
256,192,92481,1,0,0:0:0:0:
256,192,92565,1,0,0:0:0:0:
256,192,92732,1,8,0:0:0:0:
256,192,92815,1,0,0:0:0:0:
256,192,92898,1,8,0:0:0:0:
256,192,92982,1,8,0:0:0:0:
256,192,93065,1,8,0:0:0:0:
256,192,93148,1,0,0:0:0:0:
256,192,93232,1,8,0:0:0:0:
256,192,93398,1,12,0:0:0:0:
256,192,93565,1,12,0:0:0:0:
256,192,93732,1,0,0:0:0:0:
256,192,93815,1,0,0:0:0:0:
256,192,93898,1,8,0:0:0:0:
256,192,93982,1,0,0:0:0:0:
256,192,94065,1,8,0:0:0:0:
256,192,94148,1,0,0:0:0:0:
256,192,94232,1,0,0:0:0:0:
256,192,94315,1,8,0:0:0:0:
256,192,94398,1,8,0:0:0:0:
256,192,94482,1,0,0:0:0:0:
256,192,94565,1,8,0:0:0:0:
256,192,94732,1,12,0:0:0:0:
256,192,94898,1,12,0:0:0:0:
256,192,95065,1,0,0:0:0:0:
256,192,95148,1,0,0:0:0:0:
256,192,95232,1,8,0:0:0:0:
256,192,95314,1,8,0:0:0:0:
256,192,95398,1,8,0:0:0:0:
256,192,95732,1,8,0:0:0:0:
256,192,95815,1,8,0:0:0:0:
256,192,95898,1,8,0:0:0:0:
256,192,95981,1,8,0:0:0:0:
256,192,96065,1,0,0:0:0:0:
256,192,96231,1,0,0:0:0:0:
256,192,96398,1,8,0:0:0:0:
256,192,96481,1,0,0:0:0:0:
256,192,96565,1,8,0:0:0:0:
256,192,96648,1,8,0:0:0:0:
256,192,96731,1,0,0:0:0:0:
256,192,96898,1,0,0:0:0:0:
256,192,96981,1,0,0:0:0:0:
256,192,97064,1,8,0:0:0:0:
256,192,97231,1,8,0:0:0:0:
256,192,97398,1,0,0:0:0:0:
256,192,97481,1,0,0:0:0:0:
256,192,97564,1,8,0:0:0:0:
256,192,97648,1,0,0:0:0:0:
256,192,97731,1,0,0:0:0:0:
256,192,97814,1,8,0:0:0:0:
256,192,97898,1,8,0:0:0:0:
256,192,97981,1,0,0:0:0:0:
256,192,98064,1,8,0:0:0:0:
256,192,98231,1,8,0:0:0:0:
256,192,98314,1,0,0:0:0:0:
256,192,98398,1,8,0:0:0:0:
256,192,98481,1,8,0:0:0:0:
256,192,98564,1,0,0:0:0:0:
256,192,98648,1,8,0:0:0:0:
256,192,98731,1,0,0:0:0:0:
256,192,98898,1,0,0:0:0:0:
256,192,99064,1,8,0:0:0:0:
256,192,99148,1,0,0:0:0:0:
256,192,99231,1,8,0:0:0:0:
256,192,99314,1,8,0:0:0:0:
256,192,99398,1,0,0:0:0:0:
256,192,99564,1,0,0:0:0:0:
256,192,99648,1,0,0:0:0:0:
256,192,99731,1,8,0:0:0:0:
256,192,99898,1,8,0:0:0:0:
256,192,100064,1,0,0:0:0:0:
256,192,100148,1,8,0:0:0:0:
256,192,100231,1,0,0:0:0:0:
256,192,100314,1,0,0:0:0:0:
256,192,100398,1,8,0:0:0:0:
256,192,100481,1,8,0:0:0:0:
256,192,100564,1,0,0:0:0:0:
256,192,100648,1,8,0:0:0:0:
256,192,100731,1,0,0:0:0:0:
256,192,100898,1,0,0:0:0:0:
256,192,100981,1,8,0:0:0:0:
256,192,101064,1,0,0:0:0:0:
256,192,101148,1,0,0:0:0:0:
256,192,101231,1,8,0:0:0:0:
256,192,101314,1,0,0:0:0:0:
256,192,101398,1,8,0:0:0:0:
256,192,101564,1,0,0:0:0:0:
256,192,101731,1,8,0:0:0:0:
256,192,101814,1,8,0:0:0:0:
256,192,101898,1,0,0:0:0:0:
256,192,101981,1,0,0:0:0:0:
256,192,102064,1,8,0:0:0:0:
256,192,102231,1,0,0:0:0:0:
256,192,102314,1,0,0:0:0:0:
256,192,102398,1,8,0:0:0:0:
256,192,102564,1,0,0:0:0:0:
256,192,102731,1,8,0:0:0:0:
256,192,102814,1,8,0:0:0:0:
256,192,102898,1,0,0:0:0:0:
256,192,102981,1,8,0:0:0:0:
256,192,103064,1,8,0:0:0:0:
256,192,103148,1,0,0:0:0:0:
256,192,103231,1,0,0:0:0:0:
256,192,103314,1,8,0:0:0:0:
256,192,103398,1,0,0:0:0:0:
256,192,103564,1,0,0:0:0:0:
256,192,103648,1,8,0:0:0:0:
256,192,103731,1,0,0:0:0:0:
256,192,103814,1,0,0:0:0:0:
256,192,103898,1,8,0:0:0:0:
256,192,103981,1,0,0:0:0:0:
256,192,104064,1,8,0:0:0:0:
256,192,104231,1,0,0:0:0:0:
256,192,104398,1,8,0:0:0:0:
256,192,104481,1,8,0:0:0:0:
256,192,104564,1,0,0:0:0:0:
256,192,104648,1,0,0:0:0:0:
256,192,104731,1,8,0:0:0:0:
256,192,104898,1,0,0:0:0:0:
256,192,104981,1,0,0:0:0:0:
256,192,105064,1,8,0:0:0:0:
256,192,105231,1,0,0:0:0:0:
256,192,105398,1,8,0:0:0:0:
256,192,105482,1,0,0:0:0:0:
256,192,105564,1,8,0:0:0:0:
256,192,105648,1,8,0:0:0:0:
256,192,105732,1,0,0:0:0:0:
256,192,105815,1,0,0:0:0:0:
256,192,105898,1,8,0:0:0:0:
256,192,105981,1,0,0:0:0:0:
256,192,106064,1,8,0:0:0:0:
256,192,106232,1,8,0:0:0:0:
256,192,106315,1,8,0:0:0:0:
256,192,106398,1,0,0:0:0:0:
256,192,106482,1,0,0:0:0:0:
256,192,106565,1,8,0:0:0:0:
256,192,106731,1,4,0:0:0:0:
256,192,106898,1,0,0:0:0:0:
256,192,107064,1,8,0:0:0:0:
256,192,107231,1,8,0:0:0:0:
256,192,107564,1,8,0:0:0:0:
256,192,107730,1,8,0:0:0:0:
256,192,107897,1,0,0:0:0:0:
256,192,108230,1,0,0:0:0:0:
256,192,108397,1,8,0:0:0:0:
256,192,108564,1,0,0:0:0:0:
256,192,108897,1,8,0:0:0:0:
256,192,108980,1,8,0:0:0:0:
256,192,109064,1,0,0:0:0:0:
256,192,109230,1,8,0:0:0:0:
256,192,109397,1,0,0:0:0:0:
256,192,109564,1,8,0:0:0:0:
256,192,109730,1,8,0:0:0:0:
256,192,109897,1,0,0:0:0:0:
256,192,110230,1,8,0:0:0:0:
256,192,110397,1,8,0:0:0:0:
256,192,110564,1,0,0:0:0:0:
256,192,110897,1,0,0:0:0:0:
256,192,111064,1,8,0:0:0:0:
256,192,111397,1,0,0:0:0:0:
256,192,111730,1,8,0:0:0:0:
256,192,112064,1,0,0:0:0:0:
256,192,112230,1,0,0:0:0:0:
256,192,112397,1,8,0:0:0:0:
256,192,112564,1,8,0:0:0:0:
256,192,112897,1,8,0:0:0:0:
256,192,113064,1,0,0:0:0:0:
256,192,113230,1,8,0:0:0:0:
256,192,113564,1,0,0:0:0:0:
256,192,113730,1,8,0:0:0:0:
256,192,113898,1,0,0:0:0:0:
256,192,114064,1,8,0:0:0:0:
256,192,114147,1,8,0:0:0:0:
256,192,114230,1,8,0:0:0:0:
256,192,114397,1,8,0:0:0:0:
256,192,114564,1,0,0:0:0:0:
256,192,114730,1,8,0:0:0:0:
256,192,114897,1,8,0:0:0:0:
256,192,115064,1,0,0:0:0:0:
256,192,115230,1,8,0:0:0:0:
256,192,115564,1,8,0:0:0:0:
256,192,115731,1,0,0:0:0:0:
256,192,115898,1,0,0:0:0:0:
256,192,116231,1,8,0:0:0:0:
256,192,116398,1,8,0:0:0:0:
