osu file format v14

[General]
AudioFilename: audio.mp3
AudioLeadIn: 0
PreviewTime: 4947
Countdown: 0
SampleSet: Soft
StackLeniency: 0.7
Mode: 2
LetterboxInBreaks: 0
WidescreenStoryboard: 1

[Editor]
Bookmarks: 2628,5102,14999,22731,26133,38504,48401,50875
DistanceSpacing: 2.1
BeatDivisor: 4
GridSize: 8
TimelineZoom: 3.599998

[Metadata]
Title:Play
TitleUnicode:Play
Artist:Thaehan
ArtistUnicode:Thaehan
Creator:Stardust Prism
Version:Verti's Overdose
Source:
Tags:Verti mekatsune featured artist fa electronic instrumental 8-bit chiptune mappers' guild mpg mg
BeatmapID:3659915
BeatmapSetID:1785125

[Difficulty]
HPDrainRate:6
CircleSize:4.2
OverallDifficulty:9.2
ApproachRate:9.2
SliderMultiplier:2.3
SliderTickRate:2

[Events]
//Background and Video events
0,0,"mniam.jpg",0,0
//Break Periods
//Storyboard Layer 0 (Background)
//Storyboard Layer 1 (Fail)
//Storyboard Layer 2 (Pass)
//Storyboard Layer 3 (Foreground)
//Storyboard Layer 4 (Overlay)
//Storyboard Sound Samples

[TimingPoints]
154,309.278350515464,4,2,1,70,1,0
1236,-100,4,2,1,10,0,0
1700,-100,4,2,1,15,0,0
2009,-100,4,2,1,20,0,0
2318,-100,4,2,1,25,0,0
2628,-100,4,2,1,30,0,0
2937,-100,4,2,1,35,0,0
3246,-100,4,2,1,40,0,0
3556,-100,4,2,1,45,0,0
3865,-100,4,2,1,50,0,0
4174,-100,4,2,1,55,0,0
4483,-100,4,2,1,60,0,0
4638,-100,4,2,1,60,0,0
5721,-100,4,2,1,70,0,0
14844,-100,4,2,1,60,0,0
14999,-100,4,2,1,70,0,0
19793,-100,4,2,1,60,0,0
19947,-100,4,2,1,70,0,0
25978,-100,4,2,1,60,0,0
28607,-100,4,2,1,70,0,0
39741,-86.9565217391304,4,2,1,70,0,0
40050,-100,4,2,1,70,0,0
44690,-86.9565217391304,4,2,1,70,0,0
44999,-100,4,2,1,70,0,0
50875,-100,4,2,1,60,0,0
51184,-100,4,2,1,50,0,0
51494,-100,4,2,1,40,0,0
51803,-100,4,2,1,35,0,0
52112,-100,4,2,1,30,0,0
52422,-100,4,2,1,25,0,0
52731,-100,4,2,1,20,0,0
53040,-100,4,2,1,15,0,0
53195,-100,4,2,1,5,0,0

[Colours]
Combo1 : 255,255,0
Combo2 : 0,202,0
Combo3 : 18,124,255
Combo4 : 242,24,57

[HitObjects]
256,192,1391,12,4,4483,0:3:0:0:
84,206,4638,6,0,L|161:203,1,57.5,0|0,1:1|1:1,0:0:0:0:
312,168,4793,1,4,0:3:0:0:
165,104,4947,2,0,L|230:103,1,57.5,0|0,0:0|0:0,0:0:0:0:
400,280,5102,6,0,L|405:157,1,115,4|0,3:2|0:0,0:0:0:0:
181,59,5411,2,0,L|147:58,2,28.75,0|0|0,1:0|0:0|0:0,0:0:0:0:
240,58,5566,1,0,0:0:0:0:
26,264,5721,2,0,L|27:143,1,115,0|0,3:0|0:0,0:0:0:0:
261,163,6030,1,0,1:0:0:0:
232,162,6068,1,0,0:0:0:0:
203,162,6107,1,0,0:0:0:0:
261,163,6184,1,0,0:0:0:0:
483,254,6339,6,0,L|484:128,1,115,0|0,3:0|0:0,0:0:0:0:
256,109,6648,1,0,1:0:0:0:
227,108,6686,1,0,0:0:0:0:
198,108,6725,1,0,0:0:0:0:
383,115,6803,1,0,0:0:0:0:
412,114,6841,1,0,0:0:0:0:
441,114,6880,1,0,0:0:0:0:
257,175,6958,2,0,L|133:173,1,115,0|0,3:0|0:0,0:0:0:0:
355,54,7267,2,0,L|475:52,1,115,0|0,1:0|0:0,0:0:0:0:
257,297,7576,6,0,L|255:170,1,115,0|0,3:0|0:0,0:0:0:0:
317,171,7808,1,0,0:0:0:0:
482,152,7885,2,0,L|411:149,1,57.5,0|0,1:0|0:0,0:0:0:0:
257,143,8040,2,0,L|174:143,1,57.5,0|0,0:0|0:0,0:0:0:0:
375,98,8195,2,0,L|493:96,1,115,0|0,3:0|0:0,0:0:0:0:
425,44,8427,1,0,0:0:0:0:
267,248,8504,2,0,L|198:248,1,57.5,0|0,1:0|0:0,0:0:0:0:
393,148,8659,2,0,L|458:146,1,57.5,0|0,0:0|0:0,0:0:0:0:
265,293,8813,5,0,3:0:0:0:
139,258,8968,2,0,L|199:254,1,57.5,0|0,0:0|0:0,0:0:0:0:
362,213,9123,1,0,1:0:0:0:
247,192,9277,2,0,L|173:191,1,57.5,0|0,0:0|0:0,0:0:0:0:
34,177,9432,1,0,3:0:0:0:
149,135,9586,2,0,L|219:136,1,57.5,0|0,0:0|0:0,0:0:0:0:
382,129,9741,2,0,L|462:134,1,57.5,0|0,1:0|0:0,0:0:0:0:
256,75,9896,2,0,L|184:71,1,57.5,8|4,3:0|3:0,0:0:0:0:
34,283,10050,6,0,L|36:161,1,115,0|0,3:0|0:0,0:0:0:0:
257,200,10360,1,0,1:0:0:0:
257,171,10398,1,0,0:0:0:0:
257,142,10437,1,0,0:0:0:0:
190,119,10514,1,0,0:0:0:0:
410,248,10669,2,0,L|411:132,1,115,0|0,3:0|0:0,0:0:0:0:
186,74,10978,1,0,1:0:0:0:
214,74,11016,1,0,0:0:0:0:
243,74,11055,1,0,0:0:0:0:
311,75,11133,1,0,0:0:0:0:
96,273,11288,6,0,L|93:128,1,115,0|0,3:0|0:0,0:0:0:0:
155,151,11519,1,0,0:0:0:0:
331,177,11597,2,0,L|409:178,1,57.5,0|0,1:0|0:0,0:0:0:0:
210,184,11751,2,0,L|156:183,2,28.75,0|0|0,0:0|0:0|0:0,0:0:0:0:
380,292,11906,2,0,L|494:294,1,115,0|0,3:0|0:0,0:0:0:0:
264,242,12215,2,0,L|132:240,1,115,0|0,1:0|0:0,0:0:0:0:
365,168,12525,6,0,L|365:39,1,115,0|0,3:0|0:0,0:0:0:0:
304,172,12757,1,0,0:0:0:0:
150,97,12834,2,0,L|69:98,1,57.5,0|0,1:0|0:0,0:0:0:0:
301,42,12989,2,0,L|371:42,1,57.5,0|0,0:0|0:0,0:0:0:0:
147,150,13143,2,0,L|22:149,1,115,0|0,3:0|0:0,0:0:0:0:
96,228,13375,1,0,0:0:0:0:
256,241,13452,2,0,L|321:239,1,57.5,0|0,1:0|0:0,0:0:0:0:
115,97,13607,2,0,L|56:91,1,57.5,0|0,0:0|0:0,0:0:0:0:
256,313,13762,6,0,L|258:191,1,115,0|2,1:0|0:0,0:0:0:0:
105,202,14071,2,0,L|101:66,1,115,0|2,1:0|0:0,0:0:0:0:
338,177,14380,1,0,1:0:0:0:
203,143,14535,2,0,L|138:143,2,57.5,2|0|0,1:2|1:0|1:0,0:0:0:0:
338,177,14844,2,0,L|253:178,1,57.5,4|4,0:3|0:3,0:0:0:0:
74,263,14999,6,0,L|69:135,1,115,4|2,0:0|0:0,0:0:0:0:
296,60,15308,2,0,L|330:59,2,28.75,0|0|0,1:0|0:0|0:0,0:0:0:0:
237,59,15463,1,2,0:0:0:0:
452,266,15617,2,0,L|457:119,1,115,0|2,3:0|0:0,0:0:0:0:
236,128,15927,1,0,1:0:0:0:
264,126,15965,1,0,0:0:0:0:
293,125,16004,1,0,0:0:0:0:
355,126,16081,1,2,0:0:0:0:
128,241,16236,6,0,L|123:108,1,115,0|2,3:0|0:0,0:0:0:0:
354,234,16545,1,0,1:0:0:0:
354,205,16583,1,0,0:0:0:0:
355,176,16622,1,0,0:0:0:0:
174,142,16700,1,2,0:0:0:0:
145,142,16738,1,0,0:0:0:0:
116,142,16777,1,0,0:0:0:0:
311,298,16855,2,0,L|428:292,1,115,0|2,3:0|0:0,0:0:0:0:
210,226,17164,2,0,L|349:218,1,115,0|2,1:0|0:0,0:0:0:0:
95,307,17473,6,0,L|94:184,1,115,0|2,3:0|0:0,0:0:0:0:
161,198,17705,1,0,0:0:0:0:
336,185,17782,2,0,L|336:118,1,57.5,0|0,1:0|0:0,0:0:0:0:
158,143,17937,2,0,L|151:62,1,57.5,2|0,0:0|0:0,0:0:0:0:
333,277,18092,6,0,L|454:272,1,115,0|2,3:0|0:0,0:0:0:0:
381,232,18324,1,0,0:0:0:0:
208,151,18401,2,0,L|208:84,1,57.5,0|0,1:0|0:0,0:0:0:0:
386,109,18556,2,0,L|462:107,1,57.5,2|0,0:0|0:0,0:0:0:0:
258,293,18710,5,0,3:0:0:0:
136,256,18865,2,0,L|196:252,1,57.5,2|0,0:0|0:0,0:0:0:0:
355,213,19020,1,0,1:0:0:0:
232,192,19174,2,0,L|150:191,1,57.5,2|0,0:0|0:0,0:0:0:0:
19,177,19329,1,0,3:0:0:0:
152,136,19483,2,0,L|222:137,1,57.5,2|0,0:0|0:0,0:0:0:0:
375,129,19638,2,0,L|455:134,1,57.5,0|0,1:0|0:0,0:0:0:0:
249,75,19793,2,0,L|177:71,1,57.5,6|4,0:3|0:3,0:0:0:0:
373,196,19947,6,0,L|490:194,1,115,0|2,3:0|0:0,0:0:0:0:
266,143,20257,1,0,1:0:0:0:
295,142,20295,1,0,0:0:0:0:
324,142,20334,1,0,0:0:0:0:
266,143,20411,1,2,0:0:0:0:
46,263,20566,2,0,L|36:127,1,115,0|2,3:0|0:0,0:0:0:0:
262,191,20875,1,0,1:0:0:0:
233,190,20913,1,0,0:0:0:0:
204,190,20952,1,0,0:0:0:0:
144,186,21030,1,2,0:0:0:0:
378,123,21184,6,0,L|494:121,1,115,0|2,3:0|0:0,0:0:0:0:
434,148,21415,1,0,0:0:0:0:
264,170,21493,2,0,L|186:171,1,57.5,0|0,1:0|0:0,0:0:0:0:
395,179,21647,2,0,L|449:178,2,28.75,2|0|0,0:0|0:0|0:0,0:0:0:0:
225,287,21802,2,0,L|111:289,1,115,0|2,3:0|0:0,0:0:0:0:
341,237,22111,2,0,L|473:235,1,115,0|2,1:0|0:0,0:0:0:0:
204,188,22422,6,0,L|198:60,1,115,0|2,3:0|0:0,0:0:0:0:
262,184,22654,1,0,0:0:0:0:
438,172,22731,2,0,L|437:89,1,57.5,0|0,1:0|0:0,0:0:0:0:
259,122,22885,2,0,L|175:119,1,57.5,2|0,0:0|0:0,0:0:0:0:
386,278,23040,2,0,L|386:152,1,115,0|2,3:0|0:0,0:0:0:0:
322,283,23272,1,0,0:0:0:0:
151,226,23349,2,0,L|83:224,1,57.5,0|0,1:0|0:0,0:0:0:0:
274,132,23504,2,0,L|334:131,1,57.5,2|0,0:0|0:0,0:0:0:0:
151,282,23659,6,0,L|32:280,1,115,0|2,1:0|0:0,0:0:0:0:
276,218,23968,2,0,L|392:216,1,115,0|2,1:0|0:0,0:0:0:0:
150,280,24277,1,0,1:0:0:0:
276,218,24432,2,0,L|337:217,2,57.5,2|0|0,1:2|1:0|1:0,0:0:0:0:
150,280,24741,1,2,1:2:0:0:
386,297,24896,6,0,L|253:300,1,115,8|0,1:2|0:0,0:0:0:0:
133,275,25205,2,0,L|264:272,1,115,8|0,1:2|0:0,0:0:0:0:
21,313,25514,2,0,L|15:188,1,115,8|0,1:2|1:0,0:0:0:0:
86,194,25746,1,0,1:0:0:0:
159,167,25823,2,0,L|37:157,1,115,8|4,1:2|0:3,0:0:0:0:
108,132,26056,1,4,0:3:0:0:
281,277,26133,6,0,L|412:273,1,115,0|0,3:0|0:0,0:0:0:0:
244,194,26442,2,0,L|121:192,1,115,0|0,3:0|0:0,0:0:0:0:
287,186,26751,2,0,L|288:55,1,115,0|0,3:0|0:0,0:0:0:0:
128,140,27061,2,0,L|124:7,1,115,0|0,3:0|0:0,0:0:0:0:
366,278,27370,6,0,L|375:156,1,115,0|0,3:0|0:0,0:0:0:0:
230,139,27679,1,0,3:0:0:0:
362,280,27834,1,0,0:0:0:0:
117,213,27989,2,0,L|58:210,2,57.5,0|0|0,1:0|1:0|1:0,0:0:0:0:
268,180,28298,1,0,1:0:0:0:
116,212,28452,2,0,L|175:208,1,57.5,8|4,0:3|0:3,0:0:0:0:
355,200,28607,6,0,P|437:147|356:87,1,230,4|0,3:2|1:0,0:0:0:0:
240,84,29071,1,0,0:0:0:0:
385,265,29226,1,0,3:0:0:0:
152,168,29380,2,0,L|63:86,2,115,0|0|2,0:0|1:0|0:0,0:0:0:0:
368,104,29844,6,0,L|182:248,1,230,0|0,3:0|1:0,0:0:0:0:
71,223,30308,1,2,0:0:0:0:
282,319,30463,2,0,L|283:198,1,115,0|0,3:0|0:0,0:0:0:0:
129,193,30772,2,0,L|123:68,1,115,0|2,1:0|0:0,0:0:0:0:
363,286,31081,6,0,P|452:232|362:168,1,230,0|0,3:0|1:0,0:0:0:0:
267,156,31545,1,0,0:0:0:0:
418,130,31700,1,0,3:0:0:0:
191,225,31855,1,0,0:0:0:0:
337,206,32009,2,0,L|341:141,1,57.5,0|0,1:0|0:0,0:0:0:0:
260,118,32164,2,0,L|179:118,1,57.5,2|0,0:0|0:0,0:0:0:0:
388,313,32318,6,0,P|465:258|375:200,1,230,0|0,3:0|1:0,0:0:0:0:
263,202,32782,1,2,0:0:0:0:
482,194,32937,2,0,L|483:76,1,115,0|0,3:0|0:0,0:0:0:0:
317,77,33246,2,0,L|239:75,1,57.5,0|0,1:0|0:0,0:0:0:0:
317,77,33401,2,0,L|383:73,1,57.5,2|0,0:0|0:0,0:0:0:0:
191,299,33556,6,0,P|113:231|196:171,1,230,0|0,3:0|1:0,0:0:0:0:
314,165,34019,1,0,0:0:0:0:
156,123,34174,1,0,3:0:0:0:
396,208,34329,2,0,L|495:133,2,115,0|0|2,0:0|1:0|0:0,0:0:0:0:
184,108,34793,6,0,L|370:252,1,230,0|0,3:0|1:0,0:0:0:0:
481,227,35257,1,2,0:0:0:0:
262,220,35411,2,0,L|121:214,1,115,0|0,3:0|0:0,0:0:0:0:
309,155,35721,2,0,L|432:158,1,115,0|2,1:0|0:0,0:0:0:0:
208,298,36030,6,0,L|198:65,1,230,0|0,3:0|1:0,0:0:0:0:
347,78,36494,2,0,L|209:80,2,115,2|0|2,0:0|3:0|0:0,0:0:0:0:
125,268,36958,2,0,L|119:179,1,57.5,0|0,1:0|0:0,0:0:0:0:
191,187,37112,2,0,L|261:181,1,57.5,2|0,0:0|0:0,0:0:0:0:
58,338,37267,6,0,L|52:106,1,230,0|0,3:0|1:0,0:0:0:0:
169,100,37731,1,0,0:0:0:0:
390,298,37885,2,0,L|396:198,1,57.5,0|2,3:0|0:0,0:0:0:0:
324,220,38040,2,0,L|257:213,1,57.5,0|0,1:0|1:0,0:0:0:0:
449,191,38195,2,0,L|452:109,1,57.5,0|2,3:0|0:0,0:0:0:0:
264,108,38349,2,0,L|183:104,1,57.5,8|4,0:3|0:3,0:0:0:0:
391,320,38504,6,0,P|469:257|387:190,1,230,0|0,3:0|1:0,0:0:0:0:
281,185,38968,1,0,0:0:0:0:
436,135,39123,1,0,3:0:0:0:
217,128,39277,2,0,L|91:59,2,115,0|0|2,0:0|1:0|0:0,0:0:0:0:
434,291,39741,6,0,L|149:288,1,264.500005044937,0|0,3:0|1:0,0:0:0:0:
53,290,40205,1,2,0:0:0:0:
313,232,40360,2,0,L|311:108,1,115,0|0,3:0|0:0,0:0:0:0:
163,114,40669,2,0,L|35:98,1,115,0|2,1:0|0:0,0:0:0:0:
274,246,40978,6,0,P|358:184|276:124,1,230,0|0,3:0|1:0,0:0:0:0:
162,118,41442,1,0,0:0:0:0:
388,288,41597,2,0,L|390:165,1,115,0|0,3:0|0:0,0:0:0:0:
243,177,41906,2,0,L|239:107,1,57.5,0|0,1:0|0:0,0:0:0:0:
320,110,42061,2,0,L|378:104,1,57.5,2|0,0:0|0:0,0:0:0:0:
198,250,42215,6,0,P|112:194|193:127,1,230,0|0,3:0|1:0,0:0:0:0:
305,122,42679,1,2,0:0:0:0:
86,187,42834,2,0,L|76:58,1,115,0|0,3:0|0:0,0:0:0:0:
217,74,43143,2,0,L|299:67,1,57.5,0|0,1:0|0:0,0:0:0:0:
217,74,43298,2,0,L|146:81,1,57.5,2|0,0:0|0:0,0:0:0:0:
336,273,43452,6,0,P|416:212|336:151,1,230,0|0,3:0|1:0,0:0:0:0:
209,151,43916,1,0,0:0:0:0:
365,92,44071,1,0,3:0:0:0:
137,199,44226,2,0,L|43:123,2,115,0|0|2,0:0|1:0|0:0,0:0:0:0:
363,178,44690,6,0,L|67:178,1,264.500005044937,0|0,3:0|1:0,0:0:0:0:
223,282,45154,1,2,0:0:0:0:
465,272,45308,2,0,L|469:155,1,115,0|0,3:0|0:0,0:0:0:0:
329,128,45617,2,0,L|446:122,1,115,0|2,1:0|0:0,0:0:0:0:
219,281,45927,6,0,P|138:222|217:146,1,230,0|0,3:0|1:0,0:0:0:0:
366,139,46391,2,0,L|234:135,2,115,0|2|2,3:0|0:0|0:0,0:0:0:0:
137,254,46855,1,0,1:0:0:0:
74,237,46932,1,0,0:0:0:0:
74,237,47009,1,2,0:0:0:0:
137,254,47086,1,0,0:0:0:0:
316,246,47164,6,0,P|423:227|425:112,1,230,0|0,3:0|1:0,0:0:0:0:
306,124,47628,1,0,0:0:0:0:
84,308,47782,2,0,L|78:235,1,57.5,0|2,3:0|0:0,0:0:0:0:
155,233,47937,2,0,L|221:227,1,57.5,0|0,1:0|1:0,0:0:0:0:
26,208,48092,2,0,L|25:135,1,57.5,0|2,3:0|0:0,0:0:0:0:
200,118,48246,2,0,L|278:114,1,57.5,8|4,0:3|0:3,0:0:0:0:
26,208,48401,5,0,3:0:0:0:
256,192,48556,12,0,53272,0:0:0:0:
