osu file format v14

[General]
AudioFilename: audio.mp3
AudioLeadIn: 0
PreviewTime: 4947
Countdown: 0
SampleSet: Soft
StackLeniency: 0.7
Mode: 2
LetterboxInBreaks: 0
WidescreenStoryboard: 0

[Editor]
Bookmarks: 2628,5102,48401,50875
DistanceSpacing: 2.1
BeatDivisor: 4
GridSize: 4
TimelineZoom: 2.2

[Metadata]
Title:Play
TitleUnicode:Play
Artist:Thaehan
ArtistUnicode:Thaehan
Creator:Stardust Prism
Version:Salad
Source:
Tags:Verti mekatsune featured artist fa electronic instrumental 8-bit chiptune mappers' guild mpg mg
BeatmapID:3656160
BeatmapSetID:1785125

[Difficulty]
HPDrainRate:3
CircleSize:2.5
OverallDifficulty:6.8
ApproachRate:6.8
SliderMultiplier:1.21
SliderTickRate:1

[Events]
//Background and Video events
0,0,"mniam.jpg",0,0
//Break Periods
//Storyboard Layer 0 (Background)
//Storyboard Layer 1 (Fail)
//Storyboard Layer 2 (Pass)
//Storyboard Layer 3 (Foreground)
//Storyboard Layer 4 (Overlay)
//Storyboard Sound Samples

[TimingPoints]
154,309.278350515464,4,2,1,70,1,0
1236,-100,4,2,1,10,0,0
1700,-100,4,2,1,15,0,0
2009,-100,4,2,1,20,0,0
2318,-100,4,2,1,25,0,0
2628,-100,4,2,1,30,0,0
2937,-100,4,2,1,35,0,0
3246,-100,4,2,1,40,0,0
3556,-100,4,2,1,45,0,0
3865,-100,4,2,1,50,0,0
4174,-100,4,2,1,55,0,0
4483,-100,4,2,1,60,0,0
5721,-100,4,2,1,70,0,0
14844,-100,4,2,1,60,0,0
14999,-100,4,2,1,70,0,0
19793,-100,4,2,1,60,0,0
19947,-100,4,2,1,70,0,0
25978,-100,4,2,1,60,0,0
28607,-100,4,2,1,70,0,0
50875,-100,4,2,1,60,0,0
51184,-100,4,2,1,50,0,0
51494,-100,4,2,1,40,0,0
51803,-100,4,2,1,35,0,0
52112,-100,4,2,1,30,0,0
52422,-100,4,2,1,25,0,0
52731,-100,4,2,1,20,0,0
53040,-100,4,2,1,15,0,0
53195,-100,4,2,1,5,0,0

[Colours]
Combo1 : 255,255,0
Combo2 : 0,202,0
Combo3 : 18,124,255
Combo4 : 242,24,57

[HitObjects]
256,192,1391,12,4,4793,0:3:0:0:
343,332,5102,5,4,3:2:0:0:
222,304,5411,2,0,L|145:304,2,60.5,0|0|0,1:0|0:0|3:0,0:0:0:0:
368,265,6030,2,0,L|367:193,1,60.5,0|0,1:0|0:0,0:0:0:0:
293,204,6339,5,0,3:0:0:0:
160,357,6648,1,0,1:0:0:0:
100,338,6802,1,0,0:0:0:0:
78,293,6957,1,0,3:0:0:0:
114,241,7111,1,0,0:0:0:0:
175,235,7266,1,0,1:0:0:0:
418,241,7576,5,0,3:0:0:0:
297,239,7885,2,0,L|236:239,2,60.5,0|0|0,1:0|0:0|3:0,0:0:0:0:
430,209,8504,2,0,L|430:135,1,60.5,0|0,1:0|0:0,0:0:0:0:
283,200,8813,6,0,P|250:163|296:110,1,121,0|0,3:0|1:0,0:0:0:0:
431,266,9432,1,0,3:0:0:0:
370,265,9586,1,0,0:0:0:0:
306,264,9741,1,0,1:0:0:0:
64,248,10050,5,0,3:0:0:0:
197,196,10360,1,0,1:0:0:0:
257,196,10514,1,0,0:0:0:0:
317,196,10669,1,0,3:0:0:0:
195,147,10978,2,0,L|195:77,1,60.5,0|0,1:0|0:0,0:0:0:0:
267,72,11288,5,0,3:0:0:0:
409,313,11597,1,0,1:0:0:0:
463,291,11751,1,0,0:0:0:0:
485,236,11906,1,0,3:0:0:0:
458,184,12060,1,0,0:0:0:0:
402,168,12215,1,0,1:0:0:0:
159,123,12525,6,0,L|295:124,1,121,0|0,3:0|0:0,0:0:0:0:
279,123,12989,1,0,0:0:0:0:
212,126,13143,1,0,3:0:0:0:
90,279,13452,2,0,L|90:201,1,60.5,0|0,1:0|0:0,0:0:0:0:
239,191,13762,6,0,L|384:191,1,121,0|0,1:0|1:0,0:0:0:0:
225,265,14380,2,0,L|85:263,1,121,0|0,1:0|1:0,0:0:0:0:
347,329,14999,5,4,0:0:0:0:
223,258,15308,1,0,1:0:0:0:
283,257,15462,1,2,0:0:0:0:
343,257,15617,1,0,3:0:0:0:
204,258,15927,2,0,L|203:192,1,60.5,0|2,1:0|0:0,0:0:0:0:
264,177,16236,5,0,3:0:0:0:
396,315,16545,1,0,1:0:0:0:
452,299,16699,1,2,0:0:0:0:
476,245,16854,1,0,3:0:0:0:
449,193,17008,1,0,0:0:0:0:
392,180,17163,1,0,1:0:0:0:
148,171,17473,5,0,3:0:0:0:
270,100,17782,1,0,1:0:0:0:
209,100,17936,1,2,0:0:0:0:
149,100,18091,1,0,3:0:0:0:
273,248,18401,2,0,L|273:162,1,60.5,0|2,1:0|0:0,0:0:0:0:
126,215,18710,6,0,P|88:183|139:145,1,121,0|0,3:0|1:0,0:0:0:0:
251,121,19329,1,0,3:0:0:0:
190,120,19483,1,2,0:0:0:0:
130,120,19638,1,0,1:0:0:0:
370,273,19947,5,0,3:0:0:0:
248,239,20257,1,0,1:0:0:0:
187,239,20411,1,2,0:0:0:0:
127,239,20566,1,0,3:0:0:0:
262,196,20875,1,0,1:0:0:0:
322,196,21029,1,2,0:0:0:0:
262,196,21184,5,0,3:0:0:0:
128,341,21494,1,0,1:0:0:0:
78,309,21648,1,2,0:0:0:0:
63,252,21803,1,0,3:0:0:0:
93,201,21957,1,2,0:0:0:0:
150,185,22112,1,0,1:0:0:0:
393,164,22422,6,0,L|257:163,1,121,0|0,3:0|1:0,0:0:0:0:
272,163,22885,1,2,0:0:0:0:
339,161,23040,2,0,P|372:129|326:84,1,121,0|0,3:0|1:0,0:0:0:0:
85,328,23659,6,0,L|85:252,1,60.5,0|2,1:0|0:0,0:0:0:0:
157,246,23968,2,0,L|231:246,1,60.5,0|2,1:0|0:0,0:0:0:0:
147,230,24277,2,0,P|116:204|164:150,1,121,0|0,1:0|1:0,0:0:0:0:
217,148,24741,1,2,1:2:0:0:
367,263,24896,6,0,L|441:263,2,60.5,8|0|8,1:2|0:0|1:2,0:0:0:0:
229,343,25514,1,8,1:2:0:0:
178,316,25668,1,0,1:0:0:0:
184,259,25823,1,8,1:2:0:0:
239,244,25977,1,4,0:3:0:0:
387,250,26133,6,0,L|387:118,1,121,0|0,3:0|3:0,0:0:0:0:
258,232,26751,2,0,L|258:101,1,121,0|0,3:0|3:0,0:0:0:0:
135,282,27370,6,0,L|135:147,1,121,0|0,3:0|3:0,0:0:0:0:
269,137,27989,2,0,L|351:138,1,60.5,0|0,1:0|1:0,0:0:0:0:
269,137,28298,2,0,L|189:137,1,60.5,0|8,1:0|0:3,0:0:0:0:
62,346,28607,6,0,B|62:218|62:218|246:218,1,302.5,4|0,3:2|0:0,0:0:0:0:
364,221,29690,1,2,0:0:0:0:
292,219,29844,6,0,L|292:90,1,121,0|0,3:0|1:0,0:0:0:0:
426,64,30463,2,0,L|279:64,1,121,0|0,3:0|1:0,0:0:0:0:
63,323,31081,6,0,L|312:323,1,242,0|0,3:0|3:0,0:0:0:0:
238,307,31855,2,0,P|203:274|261:238,1,121,0|0,0:0|0:0,0:0:0:0:
392,234,32318,6,0,L|392:111,1,121,0|0,3:0|1:0,0:0:0:0:
262,96,32937,2,0,L|408:96,1,121,0|0,3:0|1:0,0:0:0:0:
140,347,33556,6,0,P|84:319|162:204,1,242,0|0,3:0|3:0,0:0:0:0:
225,165,34329,2,0,L|85:165,1,121,0|2,0:0|0:0,0:0:0:0:
251,317,34793,6,0,L|251:187,1,121,0|0,3:0|1:0,0:0:0:0:
373,149,35411,2,0,L|235:148,1,121,0|0,3:0|1:0,0:0:0:0:
494,291,36030,6,0,L|494:157,1,121,0|0,3:0|1:0,0:0:0:0:
356,187,36648,2,0,L|356:102,1,60.5,0|2,3:0|0:0,0:0:0:0:
424,171,36958,2,0,L|424:104,1,60.5,0|2,1:0|0:0,0:0:0:0:
275,314,37267,6,0,P|202:231|294:193,1,242,0|0,3:0|3:0,0:0:0:0:
349,187,38039,1,0,1:0:0:0:
411,145,38194,1,0,3:0:0:0:
343,107,38348,1,8,0:3:0:0:
195,320,38504,6,0,L|195:187,1,121,0|0,3:0|1:0,0:0:0:0:
324,183,39123,1,0,3:0:0:0:
259,169,39277,2,0,L|123:168,1,121,0|2,0:0|0:0,0:0:0:0:
284,323,39741,6,0,L|285:187,1,121,0|0,3:0|1:0,0:0:0:0:
146,161,40360,2,0,L|270:161,1,121,0|0,3:0|1:0,0:0:0:0:
498,290,40978,6,0,L|498:162,1,121,0|0,3:0|1:0,0:0:0:0:
374,234,41597,1,0,3:0:0:0:
308,185,41751,2,0,L|440:185,1,121,0|2,0:0|0:0,0:0:0:0:
282,308,42215,6,0,L|283:176,1,121,0|0,3:0|1:0,0:0:0:0:
159,154,42834,2,0,L|309:154,1,121,0|0,3:0|1:0,0:0:0:0:
39,332,43452,6,0,L|38:201,1,121,0|0,3:0|1:0,0:0:0:0:
175,203,44071,1,0,3:0:0:0:
243,205,44226,2,0,L|367:204,1,121,0|2,0:0|0:0,0:0:0:0:
218,298,44690,6,0,L|217:167,1,121,0|0,3:0|1:0,0:0:0:0:
350,135,45308,1,0,3:0:0:0:
221,169,45617,1,0,1:0:0:0:
468,288,45927,6,0,L|332:288,1,121,0|0,3:0|1:0,0:0:0:0:
201,289,46545,2,0,L|201:205,1,60.5,2|2,0:0|0:0,0:0:0:0:
268,199,46855,2,0,L|340:199,1,60.5,0|2,1:0|0:0,0:0:0:0:
181,338,47164,6,0,P|111:247|213:187,1,242,0|0,3:0|3:0,0:0:0:0:
255,178,47937,1,0,1:0:0:0:
320,179,48092,1,0,3:0:0:0:
76,127,48401,5,0,3:0:0:0:
256,192,48710,12,0,53272,0:0:0:0:
