osu file format v14

[General]
AudioFilename: audio.mp3
AudioLeadIn: 0
PreviewTime: 4947
Countdown: 0
SampleSet: Soft
StackLeniency: 0.7
Mode: 2
LetterboxInBreaks: 0
WidescreenStoryboard: 1

[Editor]
Bookmarks: 2628,5102,14999,22731,26133,38504,48401,50875
DistanceSpacing: 2.1
BeatDivisor: 4
GridSize: 4
TimelineZoom: 2.2

[Metadata]
Title:Play
TitleUnicode:Play
Artist:Thaehan
ArtistUnicode:Thaehan
Creator:Stardust Prism
Version:Rain
Source:
Tags:Verti mekatsune featured artist fa electronic instrumental 8-bit chiptune mappers' guild mpg mg
BeatmapID:3657613
BeatmapSetID:1785125

[Difficulty]
HPDrainRate:5
CircleSize:4
OverallDifficulty:8.8
ApproachRate:8.8
SliderMultiplier:1.55
SliderTickRate:2

[Events]
//Background and Video events
0,0,"mniam.jpg",0,0
//Break Periods
//Storyboard Layer 0 (Background)
//Storyboard Layer 1 (Fail)
//Storyboard Layer 2 (Pass)
//Storyboard Layer 3 (Foreground)
//Storyboard Layer 4 (Overlay)
//Storyboard Sound Samples

[TimingPoints]
154,309.278350515464,4,2,1,70,1,0
1236,-100,4,2,1,10,0,0
1700,-100,4,2,1,15,0,0
2009,-100,4,2,1,20,0,0
2318,-100,4,2,1,25,0,0
2628,-100,4,2,1,30,0,0
2937,-100,4,2,1,35,0,0
3246,-100,4,2,1,40,0,0
3556,-100,4,2,1,45,0,0
3865,-100,4,2,1,50,0,0
4174,-100,4,2,1,55,0,0
4483,-100,4,2,1,60,0,0
5721,-100,4,2,1,70,0,0
14844,-100,4,2,1,60,0,0
14999,-100,4,2,1,70,0,0
19793,-100,4,2,1,60,0,0
19947,-100,4,2,1,70,0,0
25978,-100,4,2,1,60,0,0
28607,-100,4,2,1,70,0,0
50875,-100,4,2,1,60,0,0
51184,-100,4,2,1,50,0,0
51494,-100,4,2,1,40,0,0
51803,-100,4,2,1,35,0,0
52112,-100,4,2,1,30,0,0
52422,-100,4,2,1,25,0,0
52731,-100,4,2,1,20,0,0
53040,-100,4,2,1,15,0,0
53195,-100,4,2,1,5,0,0

[Colours]
Combo1 : 255,255,0
Combo2 : 0,202,0
Combo3 : 18,124,255
Combo4 : 242,24,57

[HitObjects]
256,192,1391,12,0,4947,0:0:0:0:
333,310,5102,6,0,L|340:222,1,77.5,4|0,3:2|0:0,0:0:0:0:
192,237,5411,2,0,L|134:237,2,38.75,0|0|0,1:0|0:0|0:0,0:0:0:0:
336,230,5721,2,0,L|440:230,1,77.5,0|0,3:0|0:0,0:0:0:0:
265,196,6030,2,0,L|264:131,2,38.75,0|0|0,1:0|0:0|0:0,0:0:0:0:
420,326,6339,6,0,P|458:306|410:231,1,155,0|0,3:0|1:0,0:0:0:0:
320,232,6803,1,0,0:0:0:0:
476,201,6958,2,0,L|478:117,1,77.5,0|0,3:0|0:0,0:0:0:0:
323,95,7267,2,0,L|418:90,1,77.5,0|0,1:0|0:0,0:0:0:0:
166,370,7576,6,0,P|131:346|194:276,1,155,0|0,3:0|1:0,0:0:0:0:
224,268,7963,1,0,0:0:0:0:
265,272,8040,1,0,0:0:0:0:
224,268,8117,1,0,0:0:0:0:
79,277,8195,2,0,P|46:254|98:168,1,155,0|0,3:0|1:0,0:0:0:0:
122,164,8581,1,0,0:0:0:0:
162,161,8659,1,0,0:0:0:0:
392,226,8813,5,0,3:0:0:0:
237,215,8968,2,0,L|181:216,2,38.75,0|0|0,0:0|0:0|1:0,0:0:0:0:
462,306,9277,2,0,L|522:305,2,38.75,0|0|0,0:0|0:0|3:0,0:0:0:0:
235,314,9586,1,0,0:0:0:0:
199,301,9663,1,0,0:0:0:0:
186,266,9740,1,0,1:0:0:0:
203,232,9817,1,0,0:0:0:0:
239,223,9895,1,8,3:0:0:0:
473,173,10050,6,0,L|391:172,1,77.5,0|0,3:0|0:0,0:0:0:0:
239,174,10360,1,0,1:0:0:0:
239,174,10514,1,0,0:0:0:0:
395,102,10669,2,0,L|292:103,1,77.5,0|0,3:0|0:0,0:0:0:0:
472,256,10978,2,0,L|472:171,1,77.5,0|0,1:0|0:0,0:0:0:0:
428,185,11210,1,0,0:0:0:0:
280,289,11288,6,0,L|164:287,1,77.5,0|0,3:0|0:0,0:0:0:0:
357,236,11597,1,0,1:0:0:0:
357,236,11751,1,0,0:0:0:0:
201,187,11906,2,0,L|287:186,1,77.5,0|0,3:0|0:0,0:0:0:0:
444,141,12215,2,0,L|339:139,1,77.5,0|0,1:0|0:0,0:0:0:0:
115,339,12525,6,0,L|14:339,1,77.5,0|0,3:0|0:0,0:0:0:0:
80,317,12757,1,0,0:0:0:0:
225,319,12834,1,0,1:0:0:0:
271,295,12911,1,0,0:0:0:0:
271,295,12988,1,0,0:0:0:0:
222,247,13065,1,0,0:0:0:0:
80,241,13143,2,0,L|79:132,1,77.5,0|0,3:0|0:0,0:0:0:0:
128,149,13375,1,0,0:0:0:0:
265,131,13452,1,0,1:0:0:0:
309,131,13529,1,0,0:0:0:0:
349,130,13606,1,0,0:0:0:0:
391,129,13683,1,0,0:0:0:0:
239,267,13762,6,0,L|141:267,1,77.5,0|2,1:0|0:0,0:0:0:0:
374,265,14071,2,0,L|376:154,1,77.5,0|2,1:0|0:0,0:0:0:0:
141,184,14380,1,0,1:0:0:0:
277,148,14535,2,0,L|278:89,1,38.75,2|0,1:2|1:0,0:0:0:0:
232,99,14690,1,0,1:0:0:0:
83,93,14844,1,4,0:3:0:0:
325,323,14999,6,0,L|345:216,1,77.5,4|2,0:0|0:0,0:0:0:0:
194,238,15308,2,0,L|126:239,2,38.75,0|0|2,1:0|0:0|0:0,0:0:0:0:
339,169,15617,2,0,L|233:170,1,77.5,0|2,3:0|0:0,0:0:0:0:
408,213,15927,2,0,L|410:145,2,38.75,0|0|2,1:0|0:0|0:0,0:0:0:0:
252,133,16236,6,0,L|149:134,1,77.5,0|2,3:0|0:0,0:0:0:0:
316,211,16545,2,0,L|368:210,2,38.75,0|0|2,1:0|0:0|0:0,0:0:0:0:
162,232,16855,2,0,L|265:234,1,77.5,0|2,3:0|0:0,0:0:0:0:
92,262,17164,2,0,L|77:163,1,77.5,0|2,1:0|0:0,0:0:0:0:
325,310,17473,6,0,P|368:295|311:234,1,155,0|0,3:0|1:0,0:0:0:0:
276,222,17860,1,0,0:0:0:0:
276,222,17937,1,2,0:0:0:0:
322,228,18014,1,0,0:0:0:0:
172,242,18092,2,0,P|133:183|203:124,1,155,0|0,3:0|1:0,0:0:0:0:
221,124,18478,1,0,0:0:0:0:
270,121,18556,1,2,0:0:0:0:
492,226,18710,5,0,3:0:0:0:
352,169,18865,1,2,0:0:0:0:
390,169,18942,1,0,0:0:0:0:
429,169,19019,1,0,1:0:0:0:
209,255,19174,2,0,L|144:255,2,38.75,2|0|0,0:0|0:0|3:0,0:0:0:0:
433,289,19483,1,2,0:0:0:0:
466,271,19560,1,0,0:0:0:0:
479,236,19637,1,0,1:0:0:0:
463,201,19714,1,0,0:0:0:0:
429,187,19792,1,6,0:3:0:0:
198,187,19947,6,0,L|102:189,1,77.5,0|2,3:0|0:0,0:0:0:0:
277,309,20257,2,0,L|276:199,1,77.5,0|2,1:0|0:0,0:0:0:0:
122,158,20566,2,0,L|206:158,1,77.5,0|2,3:0|0:0,0:0:0:0:
355,228,20875,2,0,L|431:164,1,77.5,0|2,1:0|0:0,0:0:0:0:
372,144,21107,1,0,0:0:0:0:
231,110,21184,6,0,L|132:110,1,77.5,0|2,3:0|0:0,0:0:0:0:
297,262,21494,2,0,L|297:178,1,77.5,0|2,1:0|0:0,0:0:0:0:
148,162,21803,2,0,L|254:163,1,77.5,0|2,3:0|0:0,0:0:0:0:
380,200,22112,2,0,L|380:101,1,77.5,0|2,1:0|0:0,0:0:0:0:
160,344,22422,6,0,P|136:323|171:297,1,77.5,0|2,3:0|0:0,0:0:0:0:
201,289,22654,1,0,0:0:0:0:
344,284,22731,1,0,1:0:0:0:
375,265,22808,1,0,0:0:0:0:
373,228,22885,1,2,0:0:0:0:
339,213,22962,1,0,0:0:0:0:
188,133,23040,2,0,L|298:133,1,77.5,0|2,3:0|0:0,0:0:0:0:
265,133,23272,1,0,0:0:0:0:
113,249,23349,1,0,1:0:0:0:
73,232,23426,1,0,0:0:0:0:
78,196,23503,1,2,0:0:0:0:
113,249,23580,1,0,0:0:0:0:
268,232,23659,6,0,L|370:231,1,77.5,0|2,1:0|0:0,0:0:0:0:
116,343,23968,2,0,L|113:240,1,77.5,0|2,1:0|0:0,0:0:0:0:
333,270,24277,1,0,1:0:0:0:
199,246,24432,2,0,L|138:246,2,38.75,2|0|0,1:2|1:0|1:0,0:0:0:0:
353,192,24741,1,2,1:2:0:0:
132,130,24896,6,0,L|227:130,1,77.5,8|0,1:2|0:0,0:0:0:0:
432,183,25205,2,0,L|336:183,1,77.5,8|0,1:2|0:0,0:0:0:0:
138,221,25514,1,8,1:2:0:0:
266,221,25669,2,0,L|266:153,1,38.75,0|0,1:0|1:0,0:0:0:0:
223,177,25824,1,8,1:2:0:0:
83,165,25978,1,4,0:3:0:0:
310,338,26133,6,0,L|310:242,1,77.5,0|0,3:0|0:0,0:0:0:0:
217,264,26442,2,0,L|217:154,1,77.5,0|0,3:0|0:0,0:0:0:0:
372,181,26751,2,0,L|372:95,1,77.5,0|0,3:0|0:0,0:0:0:0:
462,170,27061,2,0,L|462:255,1,77.5,0|0,3:0|0:0,0:0:0:0:
301,299,27370,6,0,L|301:192,1,77.5,0|0,3:0|0:0,0:0:0:0:
456,145,27679,2,0,L|354:145,1,77.5,0|0,3:0|0:0,0:0:0:0:
215,153,27989,2,0,L|117:152,3,77.5,0|0|0|8,1:0|1:0|1:0|0:3,0:0:0:0:
373,332,28607,6,0,P|416:311|348:257,1,155,4|0,3:2|1:0,0:0:0:0:
281,247,29071,1,0,0:0:0:0:
134,184,29226,2,0,L|225:184,1,77.5,0|0,3:0|0:0,0:0:0:0:
358,193,29535,2,0,L|359:94,1,77.5,0|2,1:0|0:0,0:0:0:0:
128,293,29844,6,0,L|289:293,1,155,0|0,3:0|1:0,0:0:0:0:
364,292,30308,1,2,0:0:0:0:
222,241,30463,2,0,L|124:241,1,77.5,0|0,3:0|0:0,0:0:0:0:
291,235,30772,2,0,L|313:156,1,77.5,0|2,1:0|0:0,0:0:0:0:
82,316,31081,6,0,P|41:297|100:233,1,155,0|0,3:0|1:0,0:0:0:0:
169,224,31545,1,0,0:0:0:0:
318,220,31700,2,0,L|323:122,1,77.5,0|0,3:0|0:0,0:0:0:0:
178,129,32009,2,0,L|74:125,1,77.5,0|2,1:0|0:0,0:0:0:0:
339,299,32318,6,0,P|381:267|330:194,1,155,0|0,3:0|1:0,0:0:0:0:
246,192,32782,1,2,0:0:0:0:
387,171,32937,2,0,L|394:75,1,77.5,0|0,3:0|0:0,0:0:0:0:
259,62,33246,2,0,L|350:60,1,77.5,0|2,1:0|0:0,0:0:0:0:
95,261,33556,6,0,L|263:259,1,155,0|0,3:0|1:0,0:0:0:0:
170,240,34019,1,0,0:0:0:0:
30,260,34174,2,0,L|24:166,1,77.5,0|0,3:0|0:0,0:0:0:0:
155,145,34483,2,0,L|70:143,1,77.5,0|2,1:0|0:0,0:0:0:0:
320,324,34793,6,0,P|361:287|316:212,1,155,0|0,3:0|1:0,0:0:0:0:
238,218,35257,1,2,0:0:0:0:
368,187,35411,2,0,L|471:188,1,77.5,0|0,3:0|0:0,0:0:0:0:
307,196,35721,2,0,L|307:103,1,77.5,0|2,1:0|0:0,0:0:0:0:
73,276,36030,6,0,L|245:276,1,155,0|0,3:0|1:0,0:0:0:0:
310,275,36494,1,2,0:0:0:0:
177,221,36648,2,0,L|83:220,1,77.5,0|2,3:0|0:0,0:0:0:0:
254,185,36958,2,0,L|359:185,1,77.5,0|2,1:0|0:0,0:0:0:0:
89,323,37267,6,0,P|53:296|114:224,1,155,0|0,3:0|1:0,0:0:0:0:
192,216,37731,1,0,0:0:0:0:
331,245,37885,1,0,3:0:0:0:
365,232,37962,1,2,0:0:0:0:
368,196,38039,1,0,1:0:0:0:
335,179,38116,1,0,1:0:0:0:
169,275,38195,1,0,3:0:0:0:
134,261,38272,1,2,0:0:0:0:
132,225,38349,1,8,0:3:0:0:
164,207,38426,1,4,0:3:0:0:
335,118,38504,6,0,L|189:45,1,155,0|0,3:0|1:0,0:0:0:0:
275,98,38968,1,0,0:0:0:0:
419,229,39123,2,0,L|422:145,1,77.5,0|0,3:0|0:0,0:0:0:0:
269,147,39432,2,0,L|177:146,1,77.5,0|2,1:0|0:0,0:0:0:0:
427,324,39741,6,0,P|471:302|413:236,1,155,0|0,3:0|1:0,0:0:0:0:
343,231,40205,1,2,0:0:0:0:
198,213,40360,2,0,L|193:121,1,77.5,0|0,3:0|0:0,0:0:0:0:
335,132,40669,2,0,L|353:28,1,77.5,0|2,1:0|0:0,0:0:0:0:
112,314,40978,6,0,L|294:312,1,155,0|0,3:0|1:0,0:0:0:0:
350,312,41442,1,0,0:0:0:0:
198,231,41597,2,0,L|197:122,1,77.5,0|0,3:0|0:0,0:0:0:0:
337,129,41906,2,0,L|424:126,1,77.5,0|2,1:0|0:0,0:0:0:0:
175,332,42215,6,0,P|129:310|198:273,1,155,0|0,3:0|1:0,0:0:0:0:
275,257,42679,1,2,0:0:0:0:
137,227,42834,2,0,L|47:228,1,77.5,0|0,3:0|0:0,0:0:0:0:
202,206,43143,2,0,L|208:113,1,77.5,0|2,1:0|0:0,0:0:0:0:
440,224,43452,6,0,L|259:221,1,155,0|0,3:0|1:0,0:0:0:0:
201,224,43916,1,0,0:0:0:0:
347,203,44071,2,0,L|353:118,1,77.5,0|0,3:0|0:0,0:0:0:0:
198,109,44380,2,0,L|114:104,1,77.5,0|2,1:0|0:0,0:0:0:0:
369,331,44690,6,0,P|415:277|362:229,1,155,0|0,3:0|1:0,0:0:0:0:
275,229,45154,1,2,0:0:0:0:
128,280,45308,2,0,L|120:193,1,77.5,0|0,3:0|0:0,0:0:0:0:
264,119,45617,2,0,L|170:120,1,77.5,0|2,1:0|0:0,0:0:0:0:
425,295,45927,6,0,P|466:264|402:197,1,155,0|0,3:0|1:0,0:0:0:0:
330,188,46391,1,0,3:0:0:0:
167,146,46545,2,0,L|263:145,1,77.5,2|2,0:0|0:0,0:0:0:0:
405,102,46855,2,0,L|316:103,1,77.5,0|2,1:0|0:0,0:0:0:0:
89,350,47164,6,0,P|46:329|105:265,1,155,0|0,3:0|1:0,0:0:0:0:
180,261,47628,1,0,0:0:0:0:
337,278,47782,1,0,3:0:0:0:
367,256,47859,1,2,0:0:0:0:
367,219,47936,1,0,1:0:0:0:
336,198,48013,1,0,1:0:0:0:
181,121,48092,1,0,3:0:0:0:
215,120,48169,1,2,0:0:0:0:
249,122,48246,1,8,0:3:0:0:
283,124,48323,1,4,0:3:0:0:
132,211,48401,5,0,3:0:0:0:
256,192,48556,12,0,53272,0:0:0:0:
