osu file format v14

[General]
AudioFilename: audio.mp3
AudioLeadIn: 0
PreviewTime: 4947
Countdown: 0
SampleSet: Soft
StackLeniency: 0.7
Mode: 2
LetterboxInBreaks: 0
WidescreenStoryboard: 1

[Editor]
Bookmarks: 2628,5102,14999,22731,26133,38504,48401,50875
DistanceSpacing: 2.1
BeatDivisor: 4
GridSize: 4
TimelineZoom: 2.2

[Metadata]
Title:Play
TitleUnicode:Play
Artist:Thaehan
ArtistUnicode:Thaehan
Creator:Stardust Prism
Version:Platter
Source:
Tags:Verti mekatsune featured artist fa electronic instrumental 8-bit chiptune mappers' guild mpg mg
BeatmapID:3656885
BeatmapSetID:1785125

[Difficulty]
HPDrainRate:4
CircleSize:3.5
OverallDifficulty:7.8
ApproachRate:7.8
SliderMultiplier:1.32
SliderTickRate:1

[Events]
//Background and Video events
0,0,"mniam.jpg",0,0
//Break Periods
//Storyboard Layer 0 (Background)
//Storyboard Layer 1 (Fail)
//Storyboard Layer 2 (Pass)
//Storyboard Layer 3 (Foreground)
//Storyboard Layer 4 (Overlay)
//Storyboard Sound Samples

[TimingPoints]
154,309.278350515464,4,2,1,70,1,0
1236,-100,4,2,1,10,0,0
1700,-100,4,2,1,15,0,0
2009,-100,4,2,1,20,0,0
2318,-100,4,2,1,25,0,0
2628,-100,4,2,1,30,0,0
2937,-100,4,2,1,35,0,0
3246,-100,4,2,1,40,0,0
3556,-100,4,2,1,45,0,0
3865,-100,4,2,1,50,0,0
4174,-100,4,2,1,55,0,0
4483,-100,4,2,1,60,0,0
5721,-100,4,2,1,70,0,0
14844,-100,4,2,1,60,0,0
14999,-100,4,2,1,70,0,0
19793,-100,4,2,1,60,0,0
19947,-100,4,2,1,70,0,0
25978,-100,4,2,1,60,0,0
28607,-100,4,2,1,70,0,0
50875,-100,4,2,1,60,0,0
51184,-100,4,2,1,50,0,0
51494,-100,4,2,1,40,0,0
51803,-100,4,2,1,35,0,0
52112,-100,4,2,1,30,0,0
52422,-100,4,2,1,25,0,0
52731,-100,4,2,1,20,0,0
53040,-100,4,2,1,15,0,0
53195,-100,4,2,1,5,0,0

[Colours]
Combo1 : 255,255,0
Combo2 : 0,202,0
Combo3 : 18,124,255
Combo4 : 242,24,57

[HitObjects]
256,192,1391,12,4,4793,0:3:0:0:
176,354,5102,6,0,L|172:213,1,132,4|0,3:2|1:0,0:0:0:0:
245,227,5566,1,0,0:0:0:0:
391,226,5721,1,0,3:0:0:0:
258,266,6030,2,0,L|258:193,1,66,0|0,1:0|0:0,0:0:0:0:
410,179,6339,5,0,3:0:0:0:
278,151,6648,1,0,1:0:0:0:
205,255,6802,1,0,0:0:0:0:
205,255,6957,1,0,3:0:0:0:
278,151,7112,1,0,0:0:0:0:
430,307,7267,2,0,L|430:234,1,66,0|0,1:0|0:0,0:0:0:0:
197,306,7576,5,0,3:0:0:0:
125,277,7730,1,0,0:0:0:0:
125,277,7885,1,0,1:0:0:0:
197,306,8039,1,0,0:0:0:0:
345,288,8195,1,0,3:0:0:0:
417,269,8349,1,0,0:0:0:0:
417,269,8504,1,0,1:0:0:0:
345,288,8658,1,0,0:0:0:0:
110,291,8813,6,0,L|110:214,1,66,0|0,3:0|0:0,0:0:0:0:
147,224,9045,1,0,0:0:0:0:
184,224,9123,1,0,1:0:0:0:
329,207,9277,1,0,0:0:0:0:
364,207,9355,1,0,0:0:0:0:
329,207,9432,1,0,3:0:0:0:
184,224,9586,1,0,0:0:0:0:
153,216,9663,1,0,0:0:0:0:
140,187,9740,1,0,1:0:0:0:
155,159,9817,1,0,0:0:0:0:
186,154,9895,1,8,3:0:0:0:
419,107,10050,6,0,L|331:107,1,66,0|0,3:0|0:0,0:0:0:0:
283,230,10360,2,0,L|283:142,1,66,0|0,1:0|0:0,0:0:0:0:
429,177,10669,2,0,L|428:104,1,66,0|0,3:0|0:0,0:0:0:0:
355,98,10978,2,0,L|268:97,1,66,0|0,1:0|0:0,0:0:0:0:
56,328,11288,6,0,P|23:296|81:235,1,132,0|0,3:0|1:0,0:0:0:0:
141,218,11751,1,0,0:0:0:0:
287,210,11906,2,0,L|287:128,1,66,0|0,3:0|0:0,0:0:0:0:
210,138,12215,2,0,L|211:65,1,66,0|0,1:0|0:0,0:0:0:0:
447,296,12525,5,0,3:0:0:0:
380,300,12679,1,0,0:0:0:0:
234,288,12834,2,0,L|221:256,3,33,0|0|0|0,1:0|0:0|0:0|0:0,0:0:0:0:
287,241,13143,1,0,3:0:0:0:
287,241,13298,1,0,0:0:0:0:
134,179,13452,2,0,L|133:94,1,66,0|0,1:0|0:0,0:0:0:0:
370,192,13762,6,0,L|456:190,1,66,0|2,1:0|0:0,0:0:0:0:
270,143,14071,2,0,L|200:144,1,66,0|2,1:0|0:0,0:0:0:0:
354,280,14380,1,0,1:0:0:0:
426,260,14535,2,0,L|426:209,2,33,2|0|0,1:2|1:0|1:0,0:0:0:0:
354,280,14844,1,4,0:3:0:0:
120,326,14999,6,0,P|80:297|143:280,1,132,4|0,0:0|1:0,0:0:0:0:
203,257,15463,1,2,0:0:0:0:
349,257,15617,1,0,3:0:0:0:
204,229,15927,2,0,L|204:155,1,66,0|2,1:0|0:0,0:0:0:0:
351,137,16236,5,0,3:0:0:0:
197,326,16545,1,0,1:0:0:0:
125,291,16699,1,2,0:0:0:0:
125,291,16854,1,0,3:0:0:0:
197,326,17008,1,0,0:0:0:0:
344,309,17164,2,0,L|345:235,1,66,0|2,1:0|0:0,0:0:0:0:
112,260,17473,6,0,L|112:178,1,66,0|2,3:0|0:0,0:0:0:0:
191,176,17782,2,0,L|274:176,1,66,0|2,1:0|0:0,0:0:0:0:
103,322,18092,1,0,3:0:0:0:
30,293,18246,1,2,0:0:0:0:
30,293,18401,1,0,1:0:0:0:
103,322,18555,1,2,0:0:0:0:
340,273,18710,6,0,L|422:273,1,66,0|2,3:0|0:0,0:0:0:0:
440,273,18942,1,0,0:0:0:0:
406,273,19019,1,0,1:0:0:0:
265,209,19174,2,0,L|265:166,2,33,2|0|0,0:0|0:0|3:0,0:0:0:0:
408,307,19483,1,2,0:0:0:0:
437,292,19560,1,0,0:0:0:0:
446,262,19637,1,0,1:0:0:0:
429,234,19714,1,0,0:0:0:0:
397,229,19792,1,6,0:3:0:0:
164,173,19947,6,0,L|249:172,1,66,0|2,3:0|0:0,0:0:0:0:
303,169,20257,2,0,L|302:80,1,66,0|2,1:0|0:0,0:0:0:0:
154,302,20566,2,0,L|154:234,1,66,0|2,3:0|0:0,0:0:0:0:
226,226,20875,2,0,L|298:225,1,66,0|2,1:0|0:0,0:0:0:0:
60,324,21184,6,0,P|28:300|94:242,1,132,0|0,3:0|1:0,0:0:0:0:
139,227,21648,1,2,0:0:0:0:
288,226,21803,2,0,L|288:153,1,66,0|2,3:0|0:0,0:0:0:0:
209,155,22112,2,0,L|209:87,1,66,0|2,1:0|0:0,0:0:0:0:
447,323,22422,6,0,L|380:323,1,66,0|2,3:0|0:0,0:0:0:0:
231,356,22731,1,0,1:0:0:0:
205,337,22808,1,0,0:0:0:0:
197,306,22885,1,2,0:0:0:0:
213,279,22962,1,0,0:0:0:0:
244,270,23040,1,0,3:0:0:0:
319,262,23195,1,2,0:0:0:0:
171,210,23349,2,0,L|170:125,1,66,0|2,1:0|0:0,0:0:0:0:
404,148,23659,6,0,L|484:148,1,66,0|2,1:0|0:0,0:0:0:0:
317,224,23968,2,0,L|243:223,1,66,0|2,1:0|0:0,0:0:0:0:
403,273,24277,1,0,1:0:0:0:
471,171,24432,1,2,1:2:0:0:
438,170,24509,1,0,1:0:0:0:
404,169,24586,1,0,1:0:0:0:
336,172,24741,1,2,1:2:0:0:
103,270,24896,6,0,L|103:182,1,66,8|0,1:2|0:0,0:0:0:0:
242,258,25205,2,0,L|242:184,1,66,8|0,1:2|0:0,0:0:0:0:
109,176,25514,1,8,1:2:0:0:
37,134,25669,1,0,1:0:0:0:
70,134,25746,1,0,1:0:0:0:
103,134,25823,1,8,1:2:0:0:
180,136,25978,1,4,0:3:0:0:
416,348,26133,6,0,L|416:267,1,66,0|0,3:0|0:0,0:0:0:0:
328,282,26442,2,0,L|328:200,1,66,0|0,3:0|0:0,0:0:0:0:
243,211,26751,2,0,L|243:114,1,66,0|0,3:0|0:0,0:0:0:0:
328,218,27061,2,0,L|328:122,1,66,0|0,3:0|0:0,0:0:0:0:
181,283,27370,6,0,L|182:189,1,66,0|0,3:0|0:0,0:0:0:0:
261,199,27679,2,0,L|331:199,1,66,0|0,3:0|0:0,0:0:0:0:
247,153,27989,2,0,L|158:153,3,66,0|0|0|8,1:0|1:0|1:0|0:3,0:0:0:0:
417,310,28607,6,0,P|451:290|402:230,1,132,4|0,3:2|1:0,0:0:0:0:
332,225,29071,1,0,0:0:0:0:
254,223,29226,1,0,3:0:0:0:
400,228,29535,2,0,L|401:157,1,66,0|2,1:0|0:0,0:0:0:0:
169,340,29844,6,0,P|127:327|193:237,1,198,0|2,3:0|0:0,0:0:0:0:
317,221,30463,2,0,L|317:143,1,66,0|0,3:0|0:0,0:0:0:0:
250,153,30772,2,0,L|172:153,1,66,0|2,1:0|0:0,0:0:0:0:
417,327,31081,6,0,P|451:305|404:240,1,132,0|0,3:0|1:0,0:0:0:0:
347,242,31545,1,0,0:0:0:0:
278,287,31700,1,0,3:0:0:0:
414,214,32009,1,0,1:0:0:0:
414,214,32163,1,2,0:0:0:0:
187,179,32318,6,0,L|372:103,1,198,0|2,3:0|0:0,0:0:0:0:
237,282,32937,1,0,3:0:0:0:
171,265,33091,1,0,0:0:0:0:
171,265,33246,1,0,1:0:0:0:
237,282,33400,1,2,0:0:0:0:
469,261,33556,6,0,L|324:220,1,132,0|0,3:0|1:0,0:0:0:0:
276,198,34019,1,0,0:0:0:0:
414,223,34174,2,0,L|432:155,1,66,0|0,3:0|0:0,0:0:0:0:
366,158,34483,2,0,L|276:158,1,66,0|2,1:0|0:0,0:0:0:0:
64,343,34793,6,0,P|23:320|76:279,1,132,0|0,3:0|1:0,0:0:0:0:
135,263,35257,1,2,0:0:0:0:
265,227,35411,2,0,L|185:228,1,66,0|0,3:0|0:0,0:0:0:0:
126,206,35721,2,0,L|197:206,1,66,0|2,1:0|0:0,0:0:0:0:
420,328,36030,6,0,P|457:305|402:251,1,132,0|0,3:0|1:0,0:0:0:0:
346,248,36494,1,2,0:0:0:0:
212,202,36648,2,0,L|211:128,1,66,0|2,3:0|0:0,0:0:0:0:
282,126,36958,2,0,L|355:125,1,66,0|2,1:0|0:0,0:0:0:0:
114,332,37267,6,0,P|82:311|140:258,1,132,0|0,3:0|1:0,0:0:0:0:
268,206,37885,1,0,3:0:0:0:
235,205,37962,1,2,0:0:0:0:
202,205,38039,1,0,1:0:0:0:
169,205,38116,1,0,1:0:0:0:
136,205,38194,1,0,3:0:0:0:
103,205,38271,1,2,0:0:0:0:
70,205,38348,1,8,0:3:0:0:
316,331,38504,6,0,P|356:301|293:263,1,132,0|0,3:0|1:0,0:0:0:0:
238,245,38968,1,0,0:0:0:0:
105,334,39123,1,0,3:0:0:0:
33,303,39277,1,0,0:0:0:0:
33,303,39432,1,0,1:0:0:0:
105,334,39586,1,2,0:0:0:0:
332,264,39741,6,0,L|185:234,1,132,0|0,3:0|1:0,0:0:0:0:
137,222,40205,1,2,0:0:0:0:
269,211,40360,1,0,3:0:0:0:
415,204,40669,2,0,L|415:132,1,66,0|2,1:0|0:0,0:0:0:0:
183,133,40978,6,0,L|32:133,1,132,0|0,3:0|1:0,0:0:0:0:
118,195,41442,1,0,0:0:0:0:
256,308,41597,1,0,3:0:0:0:
328,280,41751,1,0,0:0:0:0:
328,280,41906,1,0,1:0:0:0:
256,297,42060,1,2,0:0:0:0:
28,226,42215,6,0,L|172:197,1,132,0|0,3:0|1:0,0:0:0:0:
157,199,42679,1,2,0:0:0:0:
25,205,42834,1,0,3:0:0:0:
162,289,43143,1,0,1:0:0:0:
228,289,43297,1,2,0:0:0:0:
456,230,43452,6,0,L|300:200,1,132,0|0,3:0|1:0,0:0:0:0:
259,187,43916,1,0,0:0:0:0:
395,311,44071,1,0,3:0:0:0:
467,292,44225,1,0,0:0:0:0:
467,292,44380,1,0,1:0:0:0:
395,311,44534,1,2,0:0:0:0:
163,348,44690,6,0,P|120:319|185:284,1,132,0|0,3:0|1:0,0:0:0:0:
230,265,45154,1,2,0:0:0:0:
97,249,45308,2,0,L|96:172,1,66,0|0,3:0|0:0,0:0:0:0:
163,155,45617,2,0,L|90:156,1,66,0|2,1:0|0:0,0:0:0:0:
330,303,45927,6,0,P|367:275|319:216,1,132,0|0,3:0|1:0,0:0:0:0:
260,222,46391,1,0,3:0:0:0:
393,203,46545,2,0,L|465:203,1,66,2|2,0:0|0:0,0:0:0:0:
393,203,46855,2,0,L|325:204,1,66,0|2,1:0|0:0,0:0:0:0:
99,357,47164,6,0,P|56:333|120:308,1,132,0|0,3:0|1:0,0:0:0:0:
171,287,47628,1,0,0:0:0:0:
307,273,47782,1,0,3:0:0:0:
333,255,47859,1,2,0:0:0:0:
330,223,47936,1,0,1:0:0:0:
302,210,48013,1,0,1:0:0:0:
200,203,48092,1,0,3:0:0:0:
176,181,48169,1,2,0:0:0:0:
202,210,48246,1,8,0:3:0:0:
435,184,48401,5,0,3:0:0:0:
256,192,48556,12,0,53272,0:0:0:0:
