osu file format v14

[General]
AudioFilename: audio.mp3
AudioLeadIn: 0
PreviewTime: 5083
Countdown: 0
SampleSet: Soft
StackLeniency: 0.7
Mode: 0
LetterboxInBreaks: 0
WidescreenStoryboard: 1

[Editor]
Bookmarks: 4483
DistanceSpacing: 1
BeatDivisor: 1
GridSize: 4
TimelineZoom: 1.8

[Metadata]
Title:Play
TitleUnicode:Play
Artist:Thaehan
ArtistUnicode:Thaehan
Creator:Nozhomi
Version:Normal
Source:osu!
Tags:fa featured artist mappers' guild mg chiptune electronic instrumental mekatsune
BeatmapID:2684121
BeatmapSetID:1291874

[Difficulty]
HPDrainRate:4
CircleSize:3
OverallDifficulty:4.2
ApproachRate:5.2
SliderMultiplier:1.1
SliderTickRate:1

[Events]
//Background and Video events
0,0,"play.jpeg",0,0
//Break Periods
//Storyboard Layer 0 (Background)
//Storyboard Layer 1 (Fail)
//Storyboard Layer 2 (Pass)
//Storyboard Layer 3 (Foreground)
//Storyboard Layer 4 (Overlay)
//Storyboard Sound Samples

[TimingPoints]
154,309.278350515464,4,2,1,70,1,0
1236,-100,4,2,1,10,0,0
1700,-100,4,2,1,15,0,0
2009,-100,4,2,1,20,0,0
2318,-100,4,2,1,25,0,0
2628,-100,4,2,1,30,0,0
2937,-100,4,2,1,35,0,0
3246,-100,4,2,1,40,0,0
3556,-100,4,2,1,45,0,0
3865,-100,4,2,1,50,0,0
4174,-100,4,2,1,55,0,0
4483,-100,4,2,1,60,0,0
5721,-100,4,2,1,70,0,0
14844,-100,4,2,1,60,0,0
14999,-100,4,2,1,70,0,0
19793,-100,4,2,1,60,0,0
19947,-100,4,2,1,70,0,0
25978,-100,4,2,1,60,0,0
28607,-100,4,2,1,70,0,0
50875,-100,4,2,1,60,0,0
51184,-100,4,2,1,50,0,0
51494,-100,4,2,1,40,0,0
51803,-100,4,2,1,35,0,0
52112,-100,4,2,1,30,0,0
52422,-100,4,2,1,25,0,0
52731,-100,4,2,1,20,0,0
53040,-100,4,2,1,15,0,0
53195,-100,4,2,1,5,0,0

[Colours]
Combo1 : 32,221,217
Combo2 : 208,165,13
Combo3 : 204,0,5
Combo4 : 255,128,0

[HitObjects]
256,192,1391,12,0,4174,0:0:0:0:
46,26,5102,6,0,L|176:18,1,110,4|0,3:2|1:0,0:0:0:0:
239,91,5721,2,0,L|348:84,1,110,0|0,3:0|1:0,0:0:0:0:
452,121,6339,2,0,P|479:158|472:223,1,110,0|0,3:0|1:0,0:0:0:0:
445,267,6803,1,0,0:0:0:0:
445,267,6958,2,0,P|407:294|342:287,1,110,0|0,3:0|1:0,0:0:0:0:
256,227,7576,5,0,3:0:0:0:
165,290,7885,2,0,P|134:303|90:295,2,55,0|0|0,1:0|0:0|3:0,0:0:0:0:
256,227,8504,2,0,L|256:162,1,55,0|0,1:0|0:0,0:0:0:0:
256,116,8813,5,0,3:0:0:0:
167,50,9123,1,0,1:0:0:0:
63,87,9432,1,0,3:0:0:0:
19,187,9741,1,0,1:0:0:0:
19,187,9896,1,8,3:0:0:0:
19,187,10050,6,0,L|24:296,1,110,0|0,3:0|1:0,0:0:0:0:
129,333,10669,2,0,L|123:223,1,110,0|0,3:0|1:0,0:0:0:0:
140,114,11288,2,0,P|179:77|233:75,1,110,0|0,3:0|1:0,0:0:0:0:
288,100,11752,1,0,0:0:0:0:
288,100,11907,2,0,P|326:127|391:120,1,110,0|0,3:0|0:0,0:0:0:0:
480,64,12525,5,0,3:0:0:0:
484,173,12834,2,0,L|487:247,2,55,0|0|0,1:0|0:0|3:0,0:0:0:0:
386,122,13453,2,0,L|346:164,1,55,0|0,1:0|0:0,0:0:0:0:
309,201,13762,5,0,1:0:0:0:
233,281,14072,1,0,1:0:0:0:
124,297,14380,2,0,L|86:336,2,55,0|2|0,1:0|1:2|1:0,0:0:0:0:
124,241,14845,1,4,0:3:0:0:
72,221,14999,6,0,P|28:177|37:111,1,110,4|0,0:0|1:0,0:0:0:0:
90,42,15617,2,0,P|150:25|202:66,1,110,0|0,3:0|1:0,0:0:0:0:
264,128,16236,2,0,L|270:257,1,110,0|0,3:0|1:0,0:0:0:0:
273,297,16700,1,2,0:0:0:0:
273,297,16855,2,0,P|310:284|346:288,1,55,0|2,3:0|0:0,0:0:0:0:
380,288,17164,2,0,P|407:290|432:301,1,55,0|2,1:0|0:0,0:0:0:0:
481,326,17473,5,0,3:0:0:0:
483,216,17782,2,0,L|483:141,2,55,0|2|0,1:0|0:0|3:0,0:0:0:0:
377,183,18401,2,0,L|377:108,1,55,0|2,1:0|0:0,0:0:0:0:
348,80,18710,5,0,3:0:0:0:
246,37,19020,1,0,1:0:0:0:
137,53,19329,1,0,3:0:0:0:
98,160,19638,1,0,1:0:0:0:
98,160,19793,1,6,0:3:0:0:
98,160,19947,6,0,L|219:151,1,110,0|0,3:0|1:0,0:0:0:0:
256,52,20566,2,0,L|377:61,1,110,0|0,3:0|1:0,0:0:0:0:
455,123,21185,2,0,P|472:175|442:233,1,110,0|0,3:0|1:0,0:0:0:0:
411,261,21649,1,2,0:0:0:0:
411,261,21803,2,0,P|359:278|301:248,1,110,0|0,3:0|1:0,0:0:0:0:
256,161,22422,5,0,3:0:0:0:
202,258,22731,2,0,L|128:267,2,55,0|2|0,1:0|0:0|3:0,0:0:0:0:
256,161,23349,2,0,L|330:170,1,55,0|2,1:0|0:0,0:0:0:0:
355,135,23659,5,0,1:0:0:0:
293,43,23969,1,0,1:0:0:0:
184,60,24277,2,0,L|110:69,2,55,0|2|0,1:0|1:2|1:0,0:0:0:0:
224,97,24742,1,2,1:2:0:0:
244,147,24896,6,0,P|231:179|204:201,1,55,8|0,1:2|0:0,0:0:0:0:
165,212,25205,2,0,P|130:210|100:192,1,55,8|0,1:2|0:0,0:0:0:0:
74,162,25514,1,8,1:2:0:0:
12,256,25824,1,8,1:2:0:0:
12,256,25978,1,4,0:3:0:0:
12,256,26133,5,0,3:0:0:0:
12,256,28607,6,0,P|75:197|213:211,1,220,4|0,3:2|3:0,0:0:0:0:
248,233,29380,1,0,0:0:0:0:
326,318,29690,1,2,0:0:0:0:
326,318,29844,2,0,B|282:218|282:218|326:117,1,220,0|0,3:0|3:0,0:0:0:0:
385,23,30772,1,0,1:0:0:0:
490,56,31081,6,0,P|427:140|326:116,1,220,0|0,3:0|3:0,0:0:0:0:
281,83,31854,1,0,0:0:0:0:
186,37,32164,1,2,0:0:0:0:
186,37,32318,2,0,P|132:32|86:60,1,110,0|0,3:0|1:0,0:0:0:0:
30,155,32937,2,0,P|25:208|53:254,1,110,0|0,3:0|1:0,0:0:0:0:
149,309,33556,6,0,L|368:306,1,220,0|0,3:0|3:0,0:0:0:0:
408,267,34329,1,0,0:0:0:0:
436,160,34638,1,2,0:0:0:0:
436,160,34793,2,0,P|381:71|298:136,1,220,0|0,3:0|3:0,0:0:0:0:
269,225,35721,1,0,1:0:0:0:
231,327,36030,6,0,P|158:353|117:288,1,165,0|2,3:0|0:0,0:0:0:0:
129,234,36648,1,0,3:0:0:0:
214,164,36958,1,0,1:0:0:0:
165,64,37267,2,0,L|55:69,1,110,0|0,3:0|1:0,0:0:0:0:
104,167,37885,1,0,3:0:0:0:
214,164,38195,2,0,L|268:161,1,55,0|8,3:0|0:3,0:0:0:0:
310,124,38504,6,0,L|419:130,1,110,0|0,3:0|1:0,0:0:0:0:
495,218,39123,1,0,3:0:0:0:
495,218,39277,2,0,P|467:274|409:288,1,110,0|2,0:0|0:0,0:0:0:0:
369,287,39741,2,0,P|319:265|299:215,1,110,0|0,3:0|1:0,0:0:0:0:
263,111,40360,1,0,3:0:0:0:
173,175,40669,1,0,1:0:0:0:
86,242,40978,6,0,L|90:351,1,110,0|0,3:0|1:0,0:0:0:0:
202,380,41597,1,0,3:0:0:0:
202,380,41751,2,0,L|197:270,1,110,0|2,0:0|0:0,0:0:0:0:
243,240,42215,2,0,L|238:130,1,110,0|0,3:0|1:0,0:0:0:0:
163,48,42834,2,0,P|91:62|65:98,1,110,0|0,3:0|1:0,0:0:0:0:
37,192,43452,6,0,L|160:185,1,110,0|0,3:0|1:0,0:0:0:0:
214,272,44071,1,0,3:0:0:0:
214,272,44226,2,0,L|337:265,1,110,0|2,0:0|0:0,0:0:0:0:
371,237,44690,2,0,P|397:191|389:123,1,110,0|0,3:0|1:0,0:0:0:0:
503,126,45308,2,0,P|488:73|447:37,1,110,0|0,3:0|1:0,0:0:0:0:
339,14,45927,6,0,L|157:21,1,165,0|0,3:0|3:0,0:0:0:0:
134,58,46545,1,2,0:0:0:0:
83,159,46855,1,0,1:0:0:0:
83,159,47009,1,2,0:0:0:0:
83,159,47164,2,0,P|97:210|144:237,1,110,0|0,3:0|1:0,0:0:0:0:
234,300,47782,2,0,P|260:295|283:279,1,55,0|0,3:0|1:0,0:0:0:0:
318,236,48092,2,0,P|329:211|330:184,1,55,0|8,3:0|0:3,0:0:0:0:
316,126,48401,5,0,3:0:0:0:
230,58,48710,1,0,3:0:0:0:
123,84,49019,1,0,3:0:0:0:
76,184,49329,1,0,3:0:0:0:
126,282,49638,1,0,3:0:0:0:
233,305,49947,1,0,3:0:0:0:
318,236,50257,1,0,3:0:0:0:
221,184,50566,1,0,3:0:0:0:
256,192,50875,12,0,53195,0:0:0:0:
